#TITLE:SUPERGIRL;
#ARTIST:PAPAYA;
#BANNER:SUPERGIRL-bn.png;
#BACKGROUND:SUPERGIRL-bg.png;
#JACKET:SUPERGIRL-jacket.png;
#MUSIC:SUPERGIRL.ogg;
#SAMPLESTART:87.15;
#SAMPLELENGTH:20;
#DISPLAYBPM:137;
#BPMS:0=137;
#BGCHANGES:;

//---------------dance-single - ----------------
#NOTES:
     dance-single:
     :
     Beginner:
     3:
     :
0000
0000
0000
0000
,
0000
0000
0000
0000
,
0000
0000
0000
0000
,
0000
0000
0000
0000
,
0000
0000
0000
0000
,
1000
0000
0001
0000
,
0010
0000
0000
0000
,
0001
0000
1000
0000
,
0100
0000
0000
0000
,
0010
0000
0010
0000
,
0001
0000
0001
0000
,
0100
0000
0010
0000
,
1000
0000
0000
0000
,
0100
0000
0100
0000
,
1000
0000
1000
0000
,
0001
0000
0100
0000
,
1001
0000
0110
0000
,
0010
0000
1000
0000
,
0100
0100
0100
0000
,
0010
0000
0001
0000
,
1000
1000
1000
0000
,
0001
0000
0010
0000
,
0001
0001
0001
0000
,
1000
0000
0001
0000
,
0010
0010
0010
0000
,
0001
0000
0100
0000
,
0010
0000
1000
0000
,
0100
0000
0010
0000
,
0001
0000
0100
0000
,
0001
0000
0010
0000
,
0100
0000
1000
0000
,
0010
0000
1000
0000
,
0001
0000
0010
0000
,
1001
0000
0000
0000
,
1000
0000
0001
0000
,
0100
0000
0010
0000
,
1000
0000
0100
0000
,
0010
0000
0000
0000
,
0001
0000
0010
0000
,
0001
0000
0100
0000
,
0000
0000
0010
0000
,
1000
0000
0000
0000
,
0001
0001
0001
0000
,
0100
0000
0010
0000
,
1000
1000
1000
0000
,
0110
0000
0000
0000
,
0010
0010
0010
0000
,
0001
0000
0100
0000
,
0001
0000
1000
0000
,
1001
0000
0110
0000
,
0010
0000
0010
0000
,
1000
0000
0001
0000
,
0010
0000
0100
0000
,
1000
0000
0000
0000
,
0001
0000
0100
0000
,
0010
0000
1000
0000
,
0100
0000
0010
0000
,
0110
0000
0000
0000
,
0001
0000
1000
0000
,
0001
0001
0001
0000
,
0100
0000
0010
0000
,
1000
1000
1000
0000
,
0010
0000
1000
0000
,
0100
0100
0100
0000
,
1000
0000
0001
0000
,
0010
0010
0010
0000
,
1001
0000
0000
0000
;

//---------------dance-single - ----------------
#NOTES:
     dance-single:
     :
     Easy:
     7:
     :
0000
0000
0000
0000
,
0000
0000
0000
0000
,
0000
0000
0000
0000
,
0000
0000
0000
0000
,
0000
0000
0000
0000
,
1000
0010
0100
0001
,
0100
1000
0010
0001
,
0010
0001
1000
0100
,
0001
0100
0010
1000
,
0100
0010
0001
0000
,
0100
0010
1000
0000
,
0001
0001
1000
1000
,
0010
1000
0100
0000
,
0010
0001
0100
0000
,
0010
1000
0100
0000
,
1000
0001
0100
0010
,
1001
0000
0110
0000
,
1000
0001
1000
0100
,
0010
0001
0100
0000
,
0001
0010
0001
0100
,
1000
1000
1000
0000
,
0010
1000
0100
0010
,
0001
0100
0001
0000
,
0010
0001
1000
0010
,
0100
0100
0100
0000
,
0001
0010
0001
0100
,
0010
1000
0100
0010
,
0001
0100
0001
0010
,
0001
0010
1000
0100
,
1000
0001
0010
0001
,
0100
0001
0010
1000
,
0100
0010
0100
0010
,
0001
0100
0010
1000
,
2002
0000
0000
3003
,
0010
1000
0010
0100
,
0001
0010
1000
0000
,
0100
0010
0001
0100
,
1000
0010
1000
0001
,
0010
0001
0100
0010
,
1000
0001
0100
0000
,
0000
0110
1000
0010
,
1000
0001
0100
0010
,
0000
1000
1000
0001
,
0010
0001
0100
0000
,
0001
0010
0001
0100
,
1000
0010
0001
0100
,
0000
0010
0100
0010
,
1000
0100
0001
0000
,
0010
0010
0100
0100
,
1001
0000
0110
0000
,
0001
0010
0001
0100
,
1000
0010
1000
0100
,
0010
0010
0001
0001
,
1000
0010
0100
0001
,
0010
0010
0001
0100
,
1000
0010
1000
0001
,
0100
0010
0100
0010
,
1000
0001
0110
0000
,
0010
1000
0100
0010
,
0001
1000
0001
0000
,
0010
0001
0100
1000
,
0001
0001
0001
0000
,
0010
0001
1000
0001
,
0100
0010
1000
0000
,
0100
0010
0001
1000
,
0010
0010
0010
0000
,
2002
0000
0000
3003
;

//---------------dance-single - ----------------
#NOTES:
     dance-single:
     :
     Medium:
     9:
     :
0000
0000
0000
0000
,
0000
0000
0000
0000
,
0000
0000
0000
0000
,
0000
0000
0000
0000
,
0000
0000
0000
0000
,
1000
0000
0001
0000
0010
0001
0100
0000
,
1000
0000
0100
0000
1000
0010
0100
0000
,
0010
0000
0001
0000
1000
0001
0100
0000
,
0100
0000
0001
0000
0010
0100
1000
0001
,
0100
0010
0100
0010
,
1000
0100
1000
0001
,
0010
0010
0001
1000
,
0010
0010
0100
0100
,
0001
0010
0001
1000
,
0100
0010
0001
0100
,
0010
1000
0100
0001
,
1001
0000
0000
1000
0001
0000
0000
0000
,
0100
0010
0100
0010
0100
0010
0100
0000
,
0001
1000
0100
1000
0002
0000
0003
0000
,
1000
0010
1000
0010
1000
0010
1000
0000
,
0101
1010
2200
0300
,
3001
0100
0001
0100
0001
0100
0001
0000
,
0010
0001
0010
0100
2000
0000
3000
0000
,
0100
1000
0100
1000
0100
1000
0100
0000
,
1010
0101
0022
0003
,
0031
0000
0100
0000
0001
0010
0100
0000
,
0010
0000
1000
0000
0100
1000
0001
0000
,
0001
0000
0010
0000
0001
0100
0010
0000
,
0010
0000
0100
0000
0010
0100
0001
0000
,
0100
0000
0010
0000
0001
0010
0001
0000
,
0100
0000
0010
0000
0100
1000
0001
0000
,
0100
0000
0010
0000
0001
0100
0001
0000
,
0010
0000
1000
0000
0100
0010
0001
0000
,
2002
0000
0000
3003
,
0000
1000
0100
0010
0002
0000
0013
0100
,
1000
0010
0000
0100
0000
0000
0000
0001
,
1000
0001
0010
0100
2000
0000
3010
0200
,
0000
0302
0000
0000
0000
1003
0001
1000
,
0020
0000
0130
0001
0000
0001
0010
0100
,
1000
0010
0000
0100
0000
0000
0000
0000
,
0000
0001
0010
0001
0010
0100
1000
0020
,
0000
0230
0000
0000
0000
0000
0300
0000
,
0110
0000
0001
0100
1000
0000
1000
0100
,
0010
0000
0001
2000
0000
0000
0000
0000
,
3010
1000
0100
0000
0010
0001
0000
2000
,
0000
0002
0000
0000
0000
0000
3003
0000
,
0101
0000
0010
0001
0010
0000
0100
1000
,
0001
0000
0100
0010
0000
0000
0000
0000
,
1100
0101
1100
0101
,
1001
0000
0000
1000
0001
0000
0100
0010
,
0100
0000
0001
0000
0010
0000
0100
1000
,
0010
0000
1000
0000
0100
0000
0010
0001
,
1000
0000
1000
0000
0001
0100
0001
0020
,
0000
0230
0000
0000
0000
0000
1300
0001
,
0010
0000
0001
0000
1000
0000
0010
0100
,
0010
0000
1000
0000
0100
0000
1000
0001
,
0010
0000
0001
0000
0100
0000
0010
1000
,
0001
0010
0001
0100
,
0001
1000
0001
1000
0001
1000
0001
0000
,
0010
0001
0100
0001
0020
0000
0030
0000
,
0001
0010
0001
0010
0001
0010
0001
0000
,
0101
1010
2200
3000
,
1300
0100
0010
0001
0010
0100
1000
0000
,
0010
0100
0001
1000
0200
0000
0300
0000
,
0001
0010
0100
1000
0100
0010
0001
0000
,
0011
0101
1010
0000
,
2002
0000
0000
3003
;

//---------------dance-single - ----------------
#NOTES:
     dance-single:
     :
     Hard:
     12:
     :
0000
0000
0000
0000
,
0000
0000
0000
0000
,
0000
0000
0000
0000
,
0000
0000
0000
0000
,
0000
0000
0000
0000
,
1000
0000
0000
0010
0000
0000
0001
0000
0100
0000
0010
0000
0001
0000
1000
0000
,
0010
0000
0000
1000
0000
0000
0100
0000
0001
0000
0010
0000
0001
0000
1000
0000
,
0001
0000
0000
0100
0000
0000
0010
0000
0100
0000
0010
0000
0001
0000
1000
0000
,
0100
0000
0000
0001
0000
0000
1000
0000
0010
0000
0001
0000
0010
0000
0100
0000
,
1000
0000
0000
0000
0001
0000
0000
0002
0000
0000
0000
0000
0013
0000
0001
0000
,
0100
0000
0000
0000
0010
0000
0000
0020
0000
0000
0000
0000
1030
0000
0001
0000
,
1001
0000
0110
0000
1000
0100
0010
0002
,
0000
0200
0000
0000
0003
0000
0310
1000
,
0001
0000
0000
0000
1000
0000
0000
2000
0000
0000
0000
0000
3100
0000
1000
0000
,
0010
0000
0000
0000
0100
0000
0000
0200
0000
0000
0000
0000
0301
0000
1000
0000
,
1100
0000
0011
0000
0110
0000
0001
1000
,
1001
0000
0000
0000
0000
0000
1000
0001
1000
0000
0000
0000
0000
0000
0000
0000
,
0001
0100
1000
0100
0001
0100
0010
0000
,
1000
0100
0001
0100
1000
0010
0100
0000
,
0010
0001
0010
1000
0100
0010
0001
0000
,
0101
0000
0000
0000
1010
0000
0000
0000
1100
0000
0000
0001
1000
0000
0100
0000
,
0010
1000
0010
0100
0010
0001
0010
0000
,
0001
0100
1000
0100
0001
1000
0100
0000
,
0010
1000
0010
0100
0010
0001
0010
0000
,
0011
0000
0000
0000
1100
0000
0000
0000
0101
0000
0000
0010
1000
0000
0001
0000
,
0100
0000
0000
0010
0000
0000
1000
0000
1000
0000
0100
0000
1000
0000
0001
0000
,
0010
0000
0000
0001
0000
0000
0100
0000
0100
0000
0010
0000
1000
0000
0001
0000
,
1000
0000
0000
0100
0000
0000
0010
0000
0010
0000
0001
0000
0100
0000
0001
0000
,
1000
0000
0000
0100
0000
0000
0001
0000
0001
0000
0010
0000
0100
0000
1000
0000
,
0010
0000
0000
1000
0000
0000
0001
0000
0001
0000
0010
0000
0001
0000
0100
0000
,
0010
0000
0000
1000
0000
0000
0010
0000
0010
0000
0100
0000
0001
0000
1000
0000
,
0100
0000
0000
0010
0000
0000
0100
0000
0100
0000
1000
0000
0001
0000
0010
0000
,
0001
0000
0000
0100
0000
0000
1000
0000
1000
0000
0010
0000
0100
0000
0001
0000
,
2002
0000
0000
3003
,
0010
0001
1000
0001
0200
0000
0310
1000
,
0100
0000
0010
0000
0000
0000
0001
0000
0010
0000
0000
0001
0000
0000
0100
0000
,
0010
1000
0010
1000
0001
0010
0001
2000
,
0000
3200
0000
0000
0000
1000
1300
0001
,
0012
0000
0103
0020
0000
1000
1030
0001
,
0010
0001
0010
0200
0000
0000
0000
0000
,
1300
0010
1000
0100
0010
0001
0100
0020
,
0000
0000
2030
0000
0000
0000
0000
0000
3001
0000
0000
0100
0000
0000
0010
0000
,
1000
0000
1100
0100
0010
0001
0010
0100
,
1000
0010
1000
0002
0000
0000
0000
0100
,
0103
0010
1000
0010
1000
0001
0000
0101
,
0000
0000
1010
0000
0000
0000
0001
0000
1000
0000
0000
0010
0000
0000
0100
0000
,
0001
0000
0011
0010
0100
1000
0010
1000
,
0001
0100
0001
2000
0000
0000
0000
0000
,
3200
0000
1300
0001
0200
0000
0310
1000
,
1001
0000
0000
0000
0000
0000
1000
0001
1000
0000
0000
0000
0010
0000
0100
0000
,
0001
0000
0000
0000
0011
0000
0000
1100
0000
0000
0000
0000
0010
0000
0100
0000
,
1000
0000
0000
0000
1010
0000
0000
0101
0000
0000
0000
0000
0100
0000
0010
0000
,
0110
0000
1001
0000
1000
0010
0100
0002
,
0000
2003
0000
3010
0100
0000
0001
1000
,
0010
0000
0000
0000
0101
0000
0000
1100
0000
0000
0000
0000
1000
0000
0001
0000
,
0100
0000
0000
0000
1010
0000
0000
0011
0000
0000
0000
0000
0010
0000
0001
0000
,
1001
0000
0110
0000
1000
0010
1000
0001
,
0010
1000
0010
0100
0010
0001
0100
0000
,
0010
1000
0010
0001
0010
1000
0100
0000
,
0010
0001
0100
0001
1000
0100
0010
0000
,
0001
0100
0001
0010
0100
1000
0010
0000
,
1010
0000
0000
0000
0101
0000
0000
0000
0011
0000
0000
0001
0100
0000
0010
0000
,
1000
0100
0001
0100
1000
0001
0100
0000
,
0010
0001
0010
0100
0010
1000
0100
0000
,
0010
1000
0010
0001
0100
0010
1000
0000
,
1100
0000
0000
0000
0011
0000
0000
0000
0110
0000
0000
0001
1000
0000
0100
0000
,
2002
0000
0000
3003
;

//---------------dance-single - ----------------
#NOTES:
     dance-single:
     :
     Challenge:
     13:
     :
0000
0000
0000
0000
,
0000
0000
0000
0000
,
0000
0000
0000
0000
,
0000
0000
0000
0000
,
0000
0000
0000
0000
,
1000
0001
0000
0100
0000
0001
1000
0000
0010
0000
0100
0000
0010
0000
1000
0000
,
0100
0010
0000
0001
0000
0010
0100
0000
1000
0000
0010
0000
1000
0000
0001
0000
,
0010
0100
0000
1000
0000
0100
0010
0000
0001
0000
0100
0000
0001
0000
1000
0000
,
0010
1000
0000
0001
0000
1000
0010
0000
0100
0000
0001
0000
0010
0000
0100
0000
,
1000
0000
0000
0000
1100
0000
0000
0011
0000
0000
0000
0000
0100
0000
0001
0000
,
0010
0000
0000
0000
0101
0000
0000
1010
0000
0000
0000
0000
1000
0000
0001
0000
,
1001
0000
0110
0000
1000
0010
0100
0002
,
0000
2000
0000
0000
0003
0000
3010
0100
,
0001
0000
0000
0000
0011
0000
0000
1010
0000
0000
0000
0000
1000
0000
0010
0000
,
0100
0000
0000
0000
0101
0000
0000
1100
0000
0000
0000
0000
0010
0000
0100
0000
,
0210
0000
0302
0000
1003
0010
1000
0001
,
1001
0000
0000
0000
0000
0000
1000
0001
0100
0000
0000
0000
0000
0000
0000
0000
,
0001
0010
1000
0010
0001
0100
0100
0000
,
0010
0000
1000
0000
0100
0000
1000
0000
0001
0100
0001
0000
0010
0000
0100
0000
,
1000
0010
0001
0010
1000
0100
0100
0000
,
1000
0001
0000
0000
0100
0010
0000
0000
1000
0100
1000
0000
0001
0000
0100
0000
,
0010
0001
0010
1000
0010
0100
0100
0000
,
0001
0000
1000
0000
0100
0000
1000
0000
0010
0100
0010
0000
1000
0000
0001
0000
,
0010
1000
0010
0001
0010
0100
0100
0000
,
1000
0001
0000
0000
0100
0010
0000
0000
0100
0001
0100
0000
0010
0000
1000
0000
,
0001
0010
0000
0001
0000
1000
0010
0000
0100
0000
1000
0000
0100
0000
0001
0000
,
1000
0001
0000
0010
0000
0001
0100
0000
0010
0000
1000
0000
0100
0000
0010
0000
,
0100
1000
0000
0010
0000
0100
0001
0000
1000
0000
0010
0000
0001
0000
0010
0000
,
1000
0100
0000
0010
0000
0001
0100
0000
0010
0000
0001
0000
0010
0000
1000
0000
,
0100
0010
0000
0100
0000
1000
0001
0000
0100
0000
0010
0000
1000
0000
0001
0000
,
0010
0100
0000
1000
0000
0001
1000
0000
0010
0000
0100
0000
0001
0000
0100
0000
,
0010
1000
0000
0100
0000
0010
0001
0000
0100
0000
0010
0000
1000
0000
0001
0000
,
1000
0100
0000
0010
0000
0001
0100
0000
0010
0000
1000
0000
0001
0000
0100
0000
,
2002
0000
0000
3003
,
0001
1000
1000
0010
1000
0001
0010
0100
,
1000
0000
0010
0000
0100
0000
0001
0000
0011
0000
0000
0001
0000
0000
0100
0000
,
0010
1000
0100
0001
0100
0010
0100
1000
,
1010
0000
0000
0001
0000
0000
1000
0000
0100
0000
0010
0000
0010
0000
0010
0000
,
0110
0000
0001
1000
0010
1000
0100
0010
,
0001
0000
0100
0000
0001
0000
1000
0000
1100
0000
0000
0010
0000
0000
0100
0000
,
0001
0010
0010
0001
0001
1000
0100
0010
,
0001
0000
0100
0000
0010
0000
1000
0000
0101
0000
0000
0001
0000
0000
1000
0000
,
1010
0001
0001
1000
1000
0100
1000
0001
,
0010
0001
0100
0010
2000
0000
3002
0100
,
0103
0010
0100
0001
1000
0100
1000
0001
,
0101
0000
0000
0010
0000
0000
1000
0000
1100
0000
0000
0001
0000
0000
0100
0000
,
0010
1000
0001
0010
1000
0010
0100
0010
,
0001
0100
0001
1000
0200
0000
0320
0000
,
0031
0100
0010
0001
0010
0100
0010
1000
,
1001
0000
0000
0000
0000
0000
1000
0001
0100
0000
0000
0000
0010
0000
1000
0000
,
0100
0000
0000
0000
1000
0001
0000
0001
0200
0000
0000
0000
0310
0000
1000
0000
,
0100
0000
0000
0000
0010
0001
0000
0001
2000
0000
0000
0000
3010
0000
0100
0000
,
0001
0010
0000
0000
0100
1000
0000
0000
0110
0000
0001
0000
0100
0000
0010
0000
,
1000
0100
0001
0100
0010
1000
0010
0001
,
0100
0000
0000
0000
0001
1000
0000
1000
0020
0000
0000
0000
0130
0000
0001
0000
,
1000
0000
0000
0000
0100
0010
0000
0010
0002
0000
0000
0000
0103
0000
0001
0000
,
1000
0010
0000
0000
0100
0001
0000
0000
0011
0000
0100
0000
1000
0000
0010
0000
,
0100
1000
0100
0001
0100
0010
1000
0001
,
0010
0001
0100
0001
1000
1000
1000
0000
,
0100
0000
0010
0000
0001
0000
0100
0000
0010
1000
0010
0000
0100
0000
0001
0000
,
1000
0100
1000
0001
0010
0010
0010
0000
,
0001
0100
0000
0000
0010
1000
0000
0000
0100
0010
0001
0000
1000
0000
0100
0000
,
1000
0001
0010
0001
0100
0100
0100
0000
,
0010
0000
1000
0000
0001
0000
1000
0000
0100
0010
0100
0000
1000
0000
0001
0000
,
0010
0100
1000
0010
0001
0001
0001
0000
,
0100
0001
0000
0000
0010
0100
0000
0000
0110
0000
0000
1000
0001
0000
0100
0000
,
2002
0000
0000
3003
;
