#TITLE:SUN;
#SUBTITLE:(Kousen);
#ARTIST:Des-ROW Gumi Special z;
#BANNER:SUN (Kousen)-bn.png;
#BACKGROUND:SUN (Kousen)-bg.png;
#JACKET:SUN (Kousen)-jacket.png;
#MUSIC:SUN (Kousen).ogg;
#SAMPLESTART:91.355;
#SAMPLELENGTH:20;
#DISPLAYBPM:155;
#BPMS:0=155;
#BGCHANGES:;

//---------------dance-single - ----------------
#NOTES:
     dance-single:
     :
     Beginner:
     4:
     :
0000
0000
0000
0000
,
0000
0000
0000
0000
,
0000
0000
0000
0000
,
0000
0000
0000
0000
,
0000
0000
0000
0000
,
1000
0000
0001
0000
,
0100
0000
0010
0000
,
1000
0000
0100
0000
,
0010
0000
0001
0000
,
0100
0000
0010
0000
,
1000
0000
0001
0000
,
0010
0000
0001
0000
,
1000
0000
0100
0000
,
1000
0000
0001
0000
,
1000
0000
0001
0000
,
0100
0000
0010
0000
,
0100
0000
0010
0000
,
1000
0000
0001
0000
,
0010
0000
0010
0000
,
0001
0000
0100
0000
,
0010
0000
1000
0000
,
0100
0000
0010
0000
,
0100
0000
0100
0000
,
1000
0000
0001
0000
,
0110
0000
1001
0000
,
0000
0010
0000
1000
,
0000
0100
0000
0010
,
0000
0001
0000
1000
,
0000
1000
0000
0010
,
0010
0000
0100
0000
,
0001
0001
0001
0000
,
1000
0000
0000
0001
,
0001
0000
0000
0100
,
0000
0010
0000
0010
,
0000
1000
0000
0001
,
0000
1000
0000
0100
,
0000
1000
0000
0010
,
0000
0100
0000
0100
,
0000
0001
0000
0100
,
0100
0000
0000
0010
,
0010
0000
0000
0000
,
1000
0000
0001
0000
,
1000
0000
0001
0000
,
0010
0000
0010
0000
,
0100
0000
0100
0000
,
2000
0000
0000
0000
,
3000
0000
0001
0000
,
1000
0000
1000
0000
,
0001
0000
0001
0000
,
0100
0000
0000
0010
,
0020
0000
0030
0000
,
1000
0000
0001
0000
,
0010
0000
0100
0000
,
0010
0000
0001
0000
,
0100
0000
1000
0000
,
0001
0000
0010
0000
,
0100
0000
1000
0000
,
0010
0000
1000
0000
,
0001
0000
0100
0000
,
0001
0000
0010
0000
,
0001
0000
0100
0000
,
0010
0000
1000
0000
,
0100
0000
0010
0000
,
0100
0000
0010
0000
,
0001
0000
1000
0000
,
0010
0000
0100
0000
,
0010
0000
1000
0000
,
0001
0001
0001
0001
,
0000
0000
1001
0000
,
0010
0010
0010
0010
,
0000
0000
0110
0000
,
1000
1000
1000
1000
,
0000
1001
0000
0000
,
0100
0100
0100
0100
,
0000
1000
1000
0000
,
0110
0000
0000
0000
;

//---------------dance-single - ----------------
#NOTES:
     dance-single:
     :
     Easy:
     7:
     :
0000
0000
0000
0000
,
0000
0000
0000
0000
,
0000
0000
0000
0000
,
0000
0000
0000
0000
,
0000
0000
0000
0000
,
1000
0001
0100
0000
,
0001
0010
1000
0000
,
0100
0010
0100
0000
,
1000
0001
1000
0000
,
0001
0010
0100
0000
,
1000
0010
0100
0000
,
0001
0010
0001
1000
,
0100
0010
0001
0000
,
1000
0100
1000
0000
,
0001
0100
0001
0000
,
0010
0001
0010
0100
,
1000
0010
0100
0110
,
1001
0010
1000
0100
,
0001
0010
2000
3000
,
0001
0010
0001
0100
,
0010
1000
0002
0003
,
1001
0110
1000
0010
,
1000
0001
0100
0010
,
2000
0000
0001
3100
,
0020
0000
0100
0130
,
0110
0001
0100
1000
,
0010
0100
1000
0001
,
1001
0010
0001
0100
,
1000
0001
1000
0010
,
1001
0010
1000
0100
,
0110
0001
0010
1000
,
0200
0010
0010
1300
,
0002
0000
0000
0103
,
1001
0010
1000
0100
,
1000
0010
0001
0100
,
0110
0001
0010
1000
,
0100
1000
0010
0100
,
0110
0010
0001
0010
,
1001
0100
1000
0001
,
2000
0001
0001
3010
,
0200
0000
1000
0301
,
0010
0100
0100
0010
,
1000
1000
0001
0001
,
2000
3000
0020
0030
,
0200
0300
0002
0003
,
0010
0001
0100
1000
,
0001
0100
0010
1000
,
0200
0300
0020
0030
,
2000
3000
0002
0003
,
0100
0001
0010
1000
,
0001
1000
0010
0100
,
0110
0001
0100
1000
,
0010
0010
1000
1000
,
1001
0010
0001
0100
,
0001
0001
0010
0010
,
1001
0010
1000
0001
,
0100
0100
0001
0001
,
0110
1000
0100
0010
,
0100
0100
1000
1000
,
0001
0010
0001
0100
,
1000
0020
0230
0320
,
1030
0001
0010
0001
,
0100
0002
2003
3002
,
0013
0001
0010
0100
,
1000
0010
2000
3000
,
0100
0010
0100
1000
,
0010
0200
0302
2003
,
3010
0010
1000
0001
,
0100
0002
0023
0230
,
1300
0010
1000
0001
,
0100
0110
1001
0110
,
1001
1000
0100
0010
,
0001
0200
0000
0300
,
1001
0010
0001
0100
,
1000
0010
0001
0100
,
0110
0000
0000
0000
;

//---------------dance-single - ----------------
#NOTES:
     dance-single:
     :
     Medium:
     10:
     :
0000
0000
0000
0000
,
0000
0000
0000
0000
,
0000
0000
0000
0000
,
0000
0000
0000
0000
,
0000
0000
0000
0000
,
1000
0010
0001
0100
0000
0000
0000
0000
,
0000
0001
0010
1000
0000
0000
0000
0000
,
0100
1000
0010
0001
0000
0000
0000
0000
,
0000
1000
0100
0010
0001
0000
0000
0000
,
0010
0000
0001
0100
0010
0000
1000
0000
,
0100
1000
0001
0000
0100
0001
1000
0000
,
0010
1000
0100
0000
1100
0000
0011
0000
,
0101
0000
1010
0000
1000
0001
0100
0000
,
0001
0010
0001
1000
0100
0000
0010
0100
,
0000
1000
0010
1000
0001
0000
0100
0000
,
0001
1000
0010
0100
0000
0000
0000
0000
,
0001
0100
0010
1000
0000
0000
0110
0000
,
1001
0000
0010
1000
0100
0000
1000
0001
,
0000
0010
0001
2000
0000
0000
0000
0000
,
3010
0100
0001
0000
0010
0001
1000
0000
,
0100
0010
0100
1000
0001
0000
0000
0000
,
0101
0000
1100
0000
0001
1000
0001
1000
,
0001
0000
0010
0100
1000
0000
0010
0100
,
0002
0000
0013
0200
0000
1300
0020
0000
,
2030
0000
3000
0000
0001
0010
0100
1000
,
0010
0100
0100
0000
0000
0001
1000
0000
,
0010
1000
0001
0000
0010
0001
0100
0000
,
0000
0001
1000
0000
0000
0100
0010
0000
,
0100
0010
0100
1000
0010
1000
0001
0000
,
0011
0000
1010
0000
0001
1000
0100
0010
,
0100
1000
0001
0000
0010
0001
0100
0010
,
2000
0001
0100
3020
,
0230
0001
0001
0000
1000
0000
0010
0310
,
0100
0001
1000
0000
0000
0100
0010
0000
,
0001
0100
0010
0000
1000
0100
0001
0000
,
0000
0010
0001
0000
0000
0100
1000
0000
,
0001
1000
0001
0010
0100
1000
0001
0000
,
1001
0110
1010
0101
,
1001
0011
1100
0110
,
0002
0010
1000
0203
,
0320
0000
1030
0001
1000
0000
0010
0100
,
0002
0000
0010
0000
1003
0100
1000
0000
,
1000
0001
1000
0001
0100
0000
0010
0000
,
0020
1030
0200
0310
,
0002
0103
2000
3001
,
0020
0001
0100
1000
,
0031
1000
0010
0000
0010
1000
0001
0000
,
2000
3010
0200
0301
,
0020
0130
0002
1003
,
0200
0001
1000
0010
,
1300
0100
0010
0001
0100
0000
0010
0000
,
0110
0000
1001
0000
0010
1000
0001
0000
,
0010
0001
0100
0000
0010
1000
0100
0000
,
1100
0000
0011
0000
1000
0001
0100
0000
,
0010
1000
0100
0000
1000
0010
0001
0000
,
0101
0000
1010
0000
0001
1000
0100
0000
,
0010
0001
0100
0001
0010
0001
0100
0000
,
0010
1000
0001
0000
1000
0100
0001
0000
,
0010
0100
1000
0010
1000
0001
0100
0000
,
0001
0010
0001
0010
0100
0000
1000
0001
,
0000
0002
0203
2300
,
3010
0001
0100
0000
0010
1000
0001
0100
,
0000
2000
3020
0032
,
0103
0000
1000
0001
1000
0000
0010
0100
,
0001
0000
0010
0000
0001
1000
0100
0000
,
1000
0010
1000
0000
0100
0010
0001
0100
,
0000
0101
1100
0101
,
1001
0000
0010
1000
0010
1000
0010
1000
,
0000
0011
1010
0011
,
1001
0000
0100
0001
0100
0001
0100
0001
,
0000
0110
1001
0110
,
1001
0000
1000
0100
1000
0100
1000
0100
,
0000
0110
0001
1000
,
1001
0000
0001
0010
0001
0010
0001
0010
,
0000
0101
1010
1100
,
0011
0000
0000
0000
;

//---------------dance-single - ----------------
#NOTES:
     dance-single:
     :
     Hard:
     13:
     :
0000
0000
0000
0000
,
0000
0000
0000
0000
,
0000
0000
0000
0000
,
0000
0000
0000
0000
,
0000
0000
0000
0000
,
1000
0100
0001
0010
1000
0000
0100
0010
,
0000
0001
0100
1000
0010
0000
0100
0000
,
0001
0010
1000
0100
1000
0000
0001
0100
,
0000
0010
1000
0001
0100
0000
1001
0000
,
0110
0001
0010
0100
1000
0000
0001
0000
,
0010
0001
0100
0001
1000
0000
1100
0000
,
0011
0100
0010
1000
0001
1000
0100
0010
,
0000
0001
1000
0100
0010
0000
0001
1000
,
0010
1000
0100
0010
0100
0000
1000
0001
,
0000
0010
0001
0100
0010
0000
1000
0000
,
1010
0001
1000
0100
1000
0010
0100
0001
,
0000
0010
0100
1000
0001
0000
0101
0000
,
1001
0010
1000
0100
0001
0100
1000
0010
,
0100
0001
1000
0200
0000
0010
0310
0000
,
0001
0100
0010
0100
1000
0100
0001
0100
,
0010
0100
1000
0100
0001
1000
0100
0000
,
0011
0000
1100
0000
0001
1000
0100
0010
,
1000
0010
0100
0010
0001
0100
0010
1000
,
1010
0000
0001
0101
0000
0100
0010
0000
,
0210
0000
0000
0000
0301
0000
0000
0000
1000
0100
1000
0100
1000
0100
1000
0100
,
1000
0010
0100
0001
0010
0100
0110
0000
,
0001
0000
0100
0000
0010
0000
1000
0100
0000
1000
0001
0000
0101
0000
0000
0000
,
0010
1000
0001
0100
0010
1000
1100
0000
,
0010
0000
0001
0000
0100
0000
0010
1000
0000
0001
0100
0000
1001
0000
0000
0000
,
1010
0001
0100
0000
0011
1000
0001
0100
,
0010
0001
0010
1000
0100
0010
0001
0100
,
2000
0010
0010
0000
0001
0100
3200
0000
,
0310
0000
0000
0001
0000
0000
0100
0000
0000
0010
0000
0000
1000
0000
0000
0001
0000
0000
0100
0000
0010
0000
0100
0000
,
0010
1000
0001
0010
0001
0100
0101
0000
,
0010
0000
1000
0000
0100
0000
1000
0001
0000
0001
0100
0000
0110
0000
0000
0000
,
1010
0001
1000
0100
0010
0001
1000
0000
,
0010
0000
1000
0000
0001
0000
1000
0000
0100
0010
0100
0010
0100
0000
0000
0000
,
1100
0010
1000
0100
0010
0100
0001
0100
,
0010
1000
0010
0001
0100
0010
1000
0001
,
0200
0010
0010
0000
1000
1000
0302
0000
,
0013
0000
0001
0000
0100
0000
0010
0000
1000
0001
1000
0000
0100
0000
1000
0001
,
1000
0010
0100
0001
0010
0100
1000
0000
,
0001
1000
0010
0100
1001
0000
0101
0000
,
0020
1000
1030
0000
0002
0100
0103
0000
,
2000
0001
3001
0000
0200
0010
0310
0000
,
0001
0010
0001
0100
0010
1000
0001
0000
,
1000
0010
0100
0000
0100
0001
0010
0000
,
0200
1000
1300
0000
0020
0100
0130
0000
,
2000
0001
3001
0000
0002
0010
0013
0000
,
0001
0100
0010
0100
0001
0010
0100
0000
,
1000
0000
0000
0001
0000
0000
0100
0000
0000
0010
0000
0000
1000
0000
0000
0000
0001
0000
0100
0000
0000
0000
0000
0000
,
1010
0000
1000
0100
1000
0100
0010
0100
,
0010
0001
0100
0001
0010
0100
1000
0001
,
0011
0000
0100
0001
0100
0010
0100
0001
,
0010
1000
0010
0100
0010
0001
1000
0001
,
0101
0000
0010
0100
0010
0100
0010
0001
,
1000
0001
0100
0010
0100
0001
1000
0010
,
1100
0000
0001
0100
1000
0100
0001
0000
,
0010
0001
0010
0100
1000
0001
1000
0100
,
0010
0001
0010
0001
0100
0010
1000
0001
,
0100
0010
2000
0000
3200
0000
0302
0000
,
0013
1000
0010
0100
1000
0100
0001
0010
,
0100
0002
0023
2030
,
3100
0000
0100
1000
0010
0001
0100
0001
,
1000
0001
0010
0001
0010
0100
1000
0000
,
0001
0100
0001
0010
0100
1000
0001
1000
,
0010
1010
0101
1010
,
1001
0000
0010
1000
0100
0010
0001
0100
,
1000
1100
0011
1100
,
1001
0000
0001
0100
0010
0100
0001
1000
,
0100
0110
1001
0110
,
1001
0000
0001
0010
0100
0010
0100
1000
,
0001
0100
0010
0000
1000
0100
0001
0000
,
1001
0000
0010
0001
0100
0010
1000
0100
,
0001
0100
1000
0000
1100
0000
0110
0000
,
0011
0000
0000
0000
;
