#VERSION:0.83;
#TITLE:STULTI;
#SUBTITLE:;
#ARTIST:MAX MAXIMIZER VS DJ TOTTO;
#TITLETRANSLIT:;
#SUBTITLETRANSLIT:;
#ARTISTTRANSLIT:;
#GENRE:;
#ORIGIN:;
#TAGS:;
#CREDIT:;
#BANNER:STULTI.png;
#BACKGROUND:STULTI-bg.png;
#PREVIEWVID:;
#JACKET:STULTI-jacket.png;
#CDIMAGE:;
#DISCIMAGE:;
#LYRICSPATH:;
#CDTITLE:;
#MUSIC:STULTI.ogg;
#OFFSET:0.000000;
#SAMPLESTART:70.674004;
#SAMPLELENGTH:20.000000;
#SELECTABLE:YES;
#DISPLAYBPM:90.000000:182.000000;
#BPMS:0.000000=181.755005,
4.000000=182.000000,
16.000000=90.000000,
36.000000=182.000000;
#STOPS:82.000000=0.330000,
134.000000=0.165000,
137.500000=0.165000,
224.000000=0.330000,
260.000000=0.165000,
263.500000=0.165000,
267.000000=0.165000,
274.500000=0.165000,
278.000000=0.165000;
#DELAYS:;
#WARPS:;
#TIMESIGNATURES:0.000000=4=4;
#TICKCOUNTS:0.000000=4;
#COMBOS:0.000000=1;
#SPEEDS:0.000000=1.000000=0.000000=0;
#SCROLLS:0.000000=1.000000;
#FAKES:;
#LABELS:0.000000=Song Start;
#BGCHANGES:;
#KEYSOUNDS:;
#ATTACKS:
;

//---------------dance-single - ----------------
#NOTEDATA:;
#CHARTNAME:;
#CHARTHASH:2147483647:
#STEPSTYPE:dance-single;
#BANNER:;
#DESCRIPTION:;
#CHARTSTYLE:;
#DIFFICULTY:Beginner;
#METER:4;
#METERF:0.000000;
#RADARVALUES:0.149397,0.306803,0.036061,0.216368,0.000000,116.000000,112.000000,4.000000,24.000000,0.000000,0.000000,0.000000,0.000000,0.000000,0.149397,0.306803,0.036061,0.216368,0.000000,116.000000,112.000000,4.000000,24.000000,0.000000,0.000000,0.000000,0.000000,0.000000;
#CREDIT:;
#DISPLAYBPM:90.000000:182.000000;
#NOTES:
0000
0000
0000
0000
,
0000
0000
0000
0000
,
0000
0000
0000
0000
,
0000
0000
0000
0000
,
0010
0000
0010
0000
,
1000
0000
1000
0000
,
0001
0000
0001
0000
,
0100
0000
0100
0000
,
1001
0000
0000
0000
,
1000
0000
1000
0000
,
0001
0000
0001
0000
,
1000
1000
1000
1000
,
0001
0001
0001
0001
,
0200
0000
0000
0000
,
0000
0300
0000
0000
,
0000
0000
0000
0000
,
0000
0000
0000
0000
,
2000
0000
0000
0000
,
3002
0000
0000
0000
,
2003
0000
0000
0000
,
3002
0000
0003
0100
,
0000
0100
0000
0010
,
0000
0010
0000
1000
,
0000
1000
0000
0001
,
0000
0001
0000
1000
,
1000
1000
0000
0001
,
0001
0001
0000
0100
,
0100
0100
0000
0010
,
0010
0010
0000
0010
,
0000
0010
0000
0100
,
0000
0100
0000
0001
,
0000
0001
0000
1000
,
0000
1000
0000
0002
,
0000
0000
0003
0000
0000
2000
0000
0000
,
0000
3000
0020
0000
,
0030
0000
0100
0100
,
0100
0100
0200
0000
,
0000
0000
0300
0000
,
0000
0000
0020
0000
,
0000
0000
0030
0000
,
0000
0000
2000
0000
,
0000
0000
3000
0000
,
0000
0000
0002
0000
,
0000
0000
0003
0000
,
0000
0000
2002
0000
,
0000
0000
0000
0000
,
0000
0000
3003
0000
,
0000
0000
0110
0000
,
0000
0000
1000
0000
,
1000
0000
0001
0001
,
0001
0000
0001
0000
,
0001
0000
1000
1000
,
1000
0000
0010
0000
,
0000
0000
0100
0000
,
0000
0000
0100
0010
,
0100
0000
0000
0000
0200
0000
0000
0300
,
0000
0001
0000
0001
,
0000
1000
1000
1000
,
0000
1000
0000
1000
,
0000
0001
0001
0001
,
0000
0100
0000
0000
,
0000
0010
0000
0000
,
0000
0100
0010
0100
,
0000
0010
0100
0010
,
0000
2000
0000
3000
,
0000
0002
0000
0000
0000
0003
0000
0000
,
2000
0000
0000
0000
3000
0000
0000
0002
,
0000
0000
0000
0000
0003
0000
0000
0020
,
0000
0000
0030
0200
,
0000
0000
0000
0300
0000
0020
0000
0000
,
0000
0000
0000
0030
0000
0100
0000
0100
,
0000
0100
0000
0000
0000
2002
0000
0000
,
0000
0000
0000
0000
,
0000
0000
0000
0000
,
0000
0000
0000
0000
,
0000
0000
0000
0000
0000
3003
0000
0000
,
0000
0000
0000
0000
;

//---------------dance-single - ----------------
#NOTEDATA:;
#CHARTNAME:;
#CHARTHASH:2147483647:
#STEPSTYPE:dance-single;
#BANNER:;
#DESCRIPTION:;
#CHARTSTYLE:;
#DIFFICULTY:Easy;
#METER:9;
#METERF:0.000000;
#RADARVALUES:0.338719,0.545428,0.297506,0.252430,0.022538,263.000000,230.000000,33.000000,28.000000,0.000000,0.000000,0.000000,0.000000,0.000000,0.338719,0.545428,0.297506,0.252430,0.022538,263.000000,230.000000,33.000000,28.000000,0.000000,0.000000,0.000000,0.000000,0.000000;
#CREDIT:;
#DISPLAYBPM:90.000000:182.000000;
#NOTES:
0000
0000
0000
0000
,
0000
0000
0000
0000
,
0000
0000
0000
0000
,
0000
0000
0000
0000
,
0010
0000
1000
0000
0100
0100
0100
0000
,
0010
0000
0001
0000
0100
0100
0100
0000
,
0001
0000
1000
0000
0100
0100
0100
0000
,
1000
0000
0001
0000
0100
0100
0100
0000
,
2002
0000
0000
3003
,
0010
0001
0110
0110
,
0010
1000
0110
0110
,
0001
1000
0110
0110
,
1001
0110
1001
0110
,
2002
0000
0000
0000
,
0000
0000
3003
0000
,
0000
0000
0000
0000
,
0000
0000
0000
0000
,
0100
0010
0010
0000
0001
0000
1000
0000
,
0100
0010
0010
0000
0001
0000
1000
0000
,
0100
0010
0010
0000
0100
0000
0010
0000
,
0100
0100
0100
0000
1001
0000
1000
0000
,
0010
0100
0100
0001
,
0010
0100
0100
1000
,
0100
0010
0010
0001
,
0100
0110
1001
0001
,
0100
0010
0010
1000
,
0100
0010
0010
0001
,
0010
0100
0100
1000
,
0010
0000
0100
0010
0100
0000
0001
0000
,
0100
0001
0110
1000
,
0100
1000
0110
0010
,
0100
0010
1001
0001
,
1000
0020
0230
0301
,
0010
0000
0100
0100
0000
1000
0000
0010
,
0000
0100
0100
0000
1000
0000
0001
0000
,
0010
0010
0000
0000
0100
0000
0010
0000
,
0100
0000
1000
0010
0200
0000
0000
0000
,
0010
0000
0010
0000
,
0010
0000
0320
0000
,
0100
0000
0100
0000
,
0100
0000
2030
0000
,
0001
0000
0001
0000
,
0001
0000
3002
0000
,
0023
0000
0230
0000
,
0300
0000
2002
0000
,
0000
0000
0000
0000
,
0000
0000
0000
0000
,
0000
3003
0110
0000
,
0000
0000
1000
1000
,
0001
0001
0010
0100
,
0110
0000
0001
0001
,
1000
1000
0010
0100
,
0110
0000
0010
0000
,
0100
0000
0001
0001
,
1000
0000
1000
0000
0001
0100
1000
0000
,
0001
0100
1000
0000
0001
0000
1000
0000
,
2002
3003
0000
0000
0000
0000
0000
0000
0000
0000
0000
0000
0000
0000
0000
0000
0001
0000
0000
0000
0000
0000
0000
0000
0000
0000
0000
0000
0000
0000
0000
0000
0001
0000
0000
0000
0000
0000
0000
0000
0000
0000
0000
0000
0000
0000
0000
0000
1000
0000
0000
0000
0000
0000
0000
0000
0000
0000
0000
0000
0000
0000
0000
0000
,
1000
0010
0100
0110
,
0000
1000
1000
0001
,
0001
0010
0100
0110
,
0100
1000
0010
0000
0000
0000
0100
0000
,
0000
1000
1000
0001
,
0001
0000
1000
0100
0001
0000
1000
0100
,
0001
1000
0001
2002
,
3003
0000
1000
0000
0000
1000
0000
0000
,
2002
3003
0000
0000
0000
0000
0000
0000
0001
0000
0000
0000
0000
0000
0000
0000
0000
0000
0000
0000
0000
0000
0000
0000
0000
0000
0000
0000
0000
0000
0000
0000
0001
0000
0000
0000
0000
0000
0000
0000
0000
0000
0000
0000
0000
0000
0000
0000
0000
0000
0000
0000
0000
0000
0000
0000
2002
3003
0000
0000
0000
0000
0000
0000
,
0010
0000
0000
0010
0000
0000
0110
0100
,
0000
0100
0000
0100
0000
0100
0000
1000
,
0000
0000
0000
0000
0000
0000
0000
0000
0000
0000
0000
0000
0000
0000
0000
0000
0001
0000
0000
0000
0000
0000
0000
0000
0000
0000
0000
0000
0000
0000
0000
0000
0000
0000
0000
0000
0000
0000
0000
0000
2002
3003
0000
0000
0000
0000
0000
0000
0010
0000
0000
0000
0000
0000
0000
0000
0000
0000
0000
0000
0000
0000
0000
0000
,
0000
0000
0000
0000
0000
0000
0000
0000
0100
0000
0000
0000
0000
0000
0000
0000
0000
0000
0000
0000
0000
0000
0000
0000
0000
0000
0000
0000
0000
0000
0000
0000
0220
0330
0000
0000
0000
0000
0000
0000
1000
0000
0000
0000
0000
0000
0000
0000
0100
0000
0000
0000
0000
0000
0000
0000
0001
0000
0000
0000
0000
0000
0000
0000
,
0000
1000
0100
0001
0000
0001
0100
1000
,
0000
0110
0000
0000
0000
2002
0000
0000
,
0000
0000
0000
0000
,
0000
0000
0000
0000
,
0000
0000
0000
0000
,
0000
0000
0000
0000
0000
3003
0000
0000
,
0000
0000
0000
0000
;

//---------------dance-single - ----------------
#NOTEDATA:;
#CHARTNAME:;
#CHARTHASH:72998977:
#STEPSTYPE:dance-single;
#BANNER:;
#DESCRIPTION:;
#CHARTSTYLE:;
#DIFFICULTY:Medium;
#METER:12;
#METERF:0.000000;
#RADARVALUES:0.479101,0.681785,0.333568,0.333568,0.013523,372.000000,335.000000,37.000000,37.000000,0.000000,0.000000,0.000000,0.000000,0.000000,0.479101,0.681785,0.333568,0.333568,0.013523,372.000000,335.000000,37.000000,37.000000,0.000000,0.000000,0.000000,0.000000,0.000000;
#CREDIT:;
#DISPLAYBPM:90.000000:182.000000;
#NOTES:
0000
0000
0000
0000
,
0000
0000
0000
0000
,
0000
0000
0000
0000
,
0000
0000
0000
0000
,
2002
0000
0000
0000
0000
0000
0000
3003
,
0220
0000
0000
0000
0000
0000
0000
0330
,
1000
0000
0001
0000
0000
1000
0100
0000
,
0001
0001
1000
0000
0000
0001
0100
0000
,
2002
0000
0000
0000
0000
0000
0000
3003
,
0011
0011
0011
1001
,
1100
1100
1100
0110
,
0101
0101
0101
1001
,
0110
0110
0110
1010
,
2002
0000
0000
0000
,
0000
0000
3003
0000
,
0000
0000
0000
0000
,
0000
0000
0000
0000
,
0001
1000
0001
1000
0001
1000
0100
1000
,
0010
0100
0010
0100
0010
0100
0001
0100
,
0010
1000
0010
1000
0001
0100
0001
0100
,
0001
1000
0010
0100
2002
3003
0001
0010
,
0001
1000
0100
1000
0000
0000
1000
0100
,
1000
0001
0010
0001
0000
0000
0001
1000
,
0001
0100
0010
0100
0000
0000
0100
0010
,
0100
0001
0200
0000
0302
0000
0013
0100
,
1000
0001
0010
0100
0000
0000
1000
0100
,
0010
0001
1000
0100
0000
0000
0010
0001
,
1000
0010
0100
0001
0000
0000
0001
0010
,
0100
1000
0020
0230
0302
0000
0013
0001
,
0100
0010
1000
0100
0000
0000
0100
0010
,
0001
1000
0010
0100
0000
0000
0100
0010
,
1000
0100
0010
0100
0000
0000
0100
1000
,
0001
0000
0100
0000
0020
0000
0030
0000
0200
0000
0300
0000
0001
1000
0001
0000
,
1000
0000
0100
0000
0010
0000
0001
0000
0000
0000
1000
0001
1000
0000
0001
0000
,
0100
0000
0010
0000
1000
0000
0000
0000
0001
1000
0001
0000
1000
0000
0010
0000
,
0100
0001
0000
0000
0010
0001
0010
0100
,
1000
0100
0010
0001
1002
0000
0000
0000
,
0010
0000
0100
0000
,
0010
0000
2003
0000
,
0010
0000
0100
0000
,
0010
0000
3002
0000
,
0203
0000
0320
0000
,
2030
0000
3001
0100
,
0010
1000
0001
0100
0020
0000
0000
0000
,
0200
0000
0000
0330
2002
0000
0000
0000
,
0000
0000
0000
0000
,
0000
0000
0000
0000
,
0000
0000
0000
3003
0110
0000
0000
0000
,
0000
0000
0000
0000
0010
0001
1000
0010
,
0100
0001
0000
0001
0100
1000
0100
0010
,
0000
0010
0100
1000
0001
0010
0100
0001
,
0100
0010
0000
0010
1000
0100
0010
0001
,
0000
0001
0100
0001
1000
0100
0010
0001
,
0100
0000
0010
0000
1000
0100
1000
0000
,
0001
0100
0001
1000
0100
0010
0001
0100
,
0000
0110
0000
0101
0000
1100
0000
0010
,
0200
0300
0010
1000
0001
0010
0100
1000
,
0000
1000
0100
0001
0100
0010
0000
0010
,
0100
1000
0010
0100
1000
0001
0010
1000
,
0100
0010
0001
0100
0010
0100
0000
0001
,
1000
0100
0020
0000
0000
0032
0000
0000
,
0000
1003
0200
0000
0000
0000
0000
0310
,
0001
0100
0010
1000
0100
0010
0000
0110
,
0000
1100
0000
0101
0000
1001
0020
0000
,
0000
0030
1000
0001
0001
1000
0100
0010
,
0110
0001
0100
0100
0001
0100
0010
0110
,
1000
0010
0010
0100
0010
1000
1001
0010
,
1000
1000
0001
1000
0010
0200
0300
0001
,
1000
1000
0001
0100
0010
1010
0001
1000
,
1000
0100
0010
0001
0101
1000
0010
0010
,
0100
0001
0001
1000
0001
0100
0010
0010
,
1000
0020
0230
0310
0000
2002
0000
0000
,
0000
0000
0000
0000
,
0000
0000
0000
0000
,
0000
0000
0000
0000
,
0000
0000
0000
0000
0000
3003
0000
0000
,
0000
0000
0000
0000
;

//---------------dance-single - ----------------
#NOTEDATA:;
#CHARTNAME:;
#CHARTHASH:2147483647:
#STEPSTYPE:dance-single;
#BANNER:;
#DESCRIPTION:;
#CHARTSTYLE:;
#DIFFICULTY:Hard;
#METER:15;
#METERF:0.000000;
#RADARVALUES:0.719940,0.988589,0.306522,0.180307,0.635582,559.000000,525.000000,34.000000,20.000000,0.000000,0.000000,0.000000,0.000000,0.000000,0.719940,0.988589,0.306522,0.180307,0.635582,559.000000,525.000000,34.000000,20.000000,0.000000,0.000000,0.000000,0.000000,0.000000;
#CREDIT:;
#DISPLAYBPM:90.000000:182.000000;
#NOTES:
0000
0000
0000
0000
,
0000
0000
0000
0000
,
0000
0000
0000
0000
,
0000
0000
0000
0000
,
2000
0000
0000
0000
,
3002
0000
0000
0000
,
0013
0001
0000
1000
0100
0000
1000
0001
0100
0010
0000
0100
0001
0010
0100
0000
,
1000
0100
0000
0010
0001
0000
0100
0010
1000
0001
0000
0100
1000
0000
0101
0000
,
2002
0000
0000
3003
,
1010
1010
0101
0101
,
0011
0011
1100
1100
,
0010
1000
0000
0000
0010
1000
0000
0000
0001
0100
0000
0000
0001
0100
0000
0000
,
0001
0010
0000
0000
0001
0010
0000
0000
0100
1000
0000
0000
0100
1000
0000
0000
,
2002
0000
0000
0000
,
0000
0000
3003
0000
,
0000
0000
0000
0000
,
0000
0000
0000
0000
,
1001
0100
1000
0010
1000
0001
1000
0010
,
0110
0001
1000
0001
0010
0100
0010
0001
,
0110
0010
0001
1000
0001
0100
0001
1000
,
0001
0100
0001
1000
0010
1000
0001
0010
0100
0000
0000
0000
1000
0100
1000
0000
,
0100
0000
1000
0100
1000
0000
1100
0000
0000
0000
0000
0000
0001
0100
0001
0000
,
0100
0000
0001
0100
0001
0000
0101
0000
0000
0000
0000
0000
0001
0010
0001
0000
,
0010
0000
0001
0010
0001
0000
0011
0000
0000
0000
0000
0000
1000
0010
1000
0001
,
1000
0010
1000
0000
0200
0000
0000
0000
0320
0000
0000
0000
0031
0100
0001
0000
,
0100
0000
0001
0100
0001
0000
0101
0000
0000
0000
0000
0000
1000
0100
1000
0000
,
0100
0000
1000
0100
1000
0000
1100
0000
0000
0000
0000
0000
1000
0010
1000
0000
,
0010
0000
1000
0010
1000
0000
1010
0000
0000
0000
0000
0000
0001
0010
0001
1000
,
0001
0010
0001
0000
0010
0000
0100
0000
0100
0000
0000
0000
1000
0100
1000
0100
,
1000
0000
0100
1000
0100
1000
0100
0000
0000
0000
0000
0000
1000
0001
1000
0001
,
1000
0000
0001
1000
0001
1000
0001
0000
0000
0000
0000
0000
0100
0001
0100
0001
,
0100
0000
0001
0100
0001
0100
0001
0000
0000
0000
0000
0000
0010
0001
0010
0100
,
0010
0001
0010
0000
0200
0000
0000
0000
0320
0000
0000
0000
0031
0100
0001
0100
,
0001
0000
0100
0001
0100
0001
0100
0000
0000
0000
0001
1000
0001
1000
0001
0000
,
1000
0001
1000
0001
1000
0000
0000
0000
0100
1000
0100
1000
0100
0000
1000
0100
,
1000
0100
1000
0000
0000
0000
0000
0000
0010
1000
0001
1000
0100
1000
0001
1000
,
0200
0000
0310
0010
0001
1000
0100
0000
,
1000
0010
1000
0000
0001
0100
0001
0000
,
0010
0100
0010
0000
0001
1000
0100
0000
,
1000
0100
0010
0000
0001
0100
0010
0000
,
0100
0000
0000
0010
0000
0000
0100
0000
0000
0000
0000
0000
1000
0000
0100
0000
0010
0000
0001
0000
0000
0000
0000
0000
,
1000
0100
0010
0001
0000
0000
0001
0100
0010
1000
0000
0000
,
0001
0100
0010
1000
0000
0000
0001
0100
0010
1000
0100
0010
,
0001
0010
1000
0010
0001
0100
2000
0000
0000
0000
0000
0000
,
3100
0001
0100
0001
0010
0001
0010
0100
1000
0000
0000
0000
1000
0000
0000
0000
,
0001
0001
1000
1000
,
0001
0001
0100
0100
,
0010
0010
1001
0110
,
1010
0000
0000
0011
0000
0000
1001
0000
1000
0000
0100
1000
0100
0000
0010
0000
,
0100
1000
0100
0000
0010
0000
0001
0000
0100
0001
0100
0000
0010
0000
0100
0000
,
0010
0000
1000
0100
0010
0100
1000
0000
0010
0000
0100
0000
0001
0010
0001
0000
,
0100
0000
0001
0010
0001
0000
1000
0000
0010
0100
0010
0000
0100
0000
2002
0000
,
3003
0001
0100
1000
0100
0001
0010
0100
,
0000
1000
1000
0000
0100
1000
0010
0100
,
0000
0000
0001
0000
0001
0000
0000
0000
1000
0100
1000
0000
0010
0000
0100
0000
,
0001
0100
0001
0000
0010
0000
0100
0000
1000
0100
1000
0001
0100
0010
1000
0100
,
2000
3000
0000
0000
0000
0000
0000
0000
0000
0000
0000
0000
0000
0000
0000
0000
0001
0000
0000
0000
0000
0000
0000
0000
0100
0000
0000
0000
0001
0000
0000
0000
0100
0000
0000
0000
0000
0000
0000
0000
0010
0000
0000
0000
0000
0000
0000
0000
0100
0000
0000
0000
0001
0000
0000
0000
0100
0000
0000
0000
0000
0000
0000
0000
,
0010
0000
1000
0000
0100
1000
0100
0000
0010
0000
0100
0000
0010
0000
0001
0100
,
0010
0100
0001
0000
0010
0000
0100
0000
1000
0010
1000
0000
0100
0000
1000
0010
,
1000
0000
0001
0000
0010
0100
0010
0000
0100
0000
2002
0000
3003
0000
1000
0000
,
0100
0000
0001
0000
0100
1000
0100
0000
0010
0000
0100
0000
1000
0000
0100
1000
,
0100
0000
1000
0000
0001
0100
0001
0000
0100
0000
0010
0000
0100
0001
0100
0000
,
0001
0000
1000
0000
0001
0100
0001
0000
0010
0000
0100
0000
1000
0100
1000
0000
,
0010
0000
0100
0000
0001
0100
0001
1000
0100
0010
0001
0100
0002
0000
0000
0000
,
0003
0000
0001
0010
0010
0011
0100
0100
,
0000
1000
0010
0010
1010
0100
0100
0000
,
0100
0001
0001
0110
1000
1000
0000
0100
,
1000
0000
1000
0000
0101
0000
0010
0000
0100
0000
1001
0000
0000
0000
1000
0100
,
1000
0100
1000
0000
0100
1000
0100
1000
0100
0000
1100
0000
0010
0100
0010
0100
,
0010
0000
0100
0010
0100
0010
0100
0000
0110
0000
0001
0100
0001
0100
0001
0000
,
0100
0001
0100
0001
0100
0000
0001
0000
1000
0000
0001
0100
0001
1000
0001
0000
,
0100
0001
0020
0000
0000
0000
0000
0000
0000
0000
0200
0000
0000
0000
0000
0000
,
0000
0000
0000
0000
,
0000
0000
0000
0000
,
0000
0000
0000
0000
,
0000
0000
0000
0000
0000
0330
0000
0000
;

//---------------dance-double - ----------------
#NOTEDATA:;
#CHARTNAME:;
#CHARTHASH:1006289588:
#STEPSTYPE:dance-double;
#BANNER:;
#DESCRIPTION:;
#CHARTSTYLE:;
#DIFFICULTY:Easy;
#METER:9;
#METERF:0.000000;
#RADARVALUES:0.338719,0.477250,0.279476,0.306522,0.027046,263.000000,232.000000,31.000000,34.000000,0.000000,0.000000,0.000000,0.000000,0.000000,0.338719,0.477250,0.279476,0.306522,0.027046,263.000000,232.000000,31.000000,34.000000,0.000000,0.000000,0.000000,0.000000,0.000000;
#CREDIT:;
#DISPLAYBPM:90.000000:182.000000;
#NOTES:
00000000
00000000
00000000
00000000
,
00000000
00000000
00000000
00000000
,
00000000
00000000
00000000
00000000
,
00000000
00000000
00000000
00000000
,
00000010
00000000
00000001
00000000
00001000
00001000
00001000
00000000
,
00000100
00000000
00010000
00000000
00001000
00001000
00001000
00000000
,
00010000
00000000
00001000
00000000
00100000
00100000
00100000
00000000
,
00010000
00000000
10000000
00000000
01000000
01000000
01000000
00000000
,
20020000
00000000
00000000
30030000
,
00100000
00010000
00011000
00011000
,
00000010
00001000
00011000
00011000
,
01000000
00010000
00011000
00011000
,
00000100
00001000
00011000
00011000
,
00022000
00000000
00000000
00000000
,
00000000
00000000
00033000
00000000
,
00000000
00000000
00000000
00000000
,
00000000
00000000
00000000
00000000
,
00001000
00010000
00010000
00000000
00001000
00000000
00000100
00000000
,
00000010
00000100
00000100
00000000
00000001
00000000
00000010
00000000
,
00000100
00001000
00001000
00000000
00000100
00000000
00010000
00000000
,
00001000
00001000
00001000
00000000
00011000
00000000
00010000
00000000
,
00100000
01000000
01000000
00010000
,
00100000
01000000
01000000
00100000
,
00001000
00010000
00010000
00001000
,
00000100
00001001
00011000
00001000
,
00000010
00000100
00000100
00001000
,
00000010
00000100
00000100
00000010
,
00010000
00001000
00001000
00010000
,
01000000
10010000
00011000
00010000
,
00001000
00000100
00000110
00000100
,
00001000
00010000
00011000
00001000
,
00010000
00000000
01000000
00000000
01100000
00000000
00100000
00010000
,
00100000
00002000
00023000
00031000
,
00000100
00000000
00000010
00000010
00000000
00001000
00000000
00000100
,
00000000
00010000
00010000
00000000
00001000
00000000
00010000
00000000
,
01000000
01000000
00000000
00000000
00100000
00000000
01000000
00000000
,
00100000
00000000
00010000
00100000
00002000
00000000
00000000
00000000
,
00100000
00000000
00100000
00000000
,
00100000
00000000
00023000
00000000
,
00000100
00000000
00000100
00000000
,
00000100
00000000
00032000
00000000
,
01000000
00000000
01000000
00000000
,
01000000
00000000
00023000
00000000
,
00030200
00000000
00000320
00000000
,
00000030
00000000
00002002
00000000
,
00000000
00000000
00000000
00000000
,
00000000
00000000
00000000
00000000
,
00000000
00003003
00000110
00000000
,
00000000
00000000
00000001
00000010
,
00000100
00000000
00001000
00000000
00000100
00010000
00001000
00010000
,
00000000
00000000
00001000
00010000
,
00100000
00000000
01000000
00000000
00100000
01000000
00010000
00100000
,
00000000
00000000
00020000
00000000
,
02030000
00000000
03010000
00010000
,
00100000
00000000
00011000
00000000
00010000
01000000
10000000
00000000
,
00010000
01000000
10000000
00000000
00100000
00000000
01000000
00000000
,
20020000
30030000
00000000
00000000
00000000
00000000
00000000
00000000
00000000
00000000
00000000
00000000
00000000
00000000
00000000
00000000
10000000
00000000
00000000
00000000
00000000
00000000
00000000
00000000
00000000
00000000
00000000
00000000
00000000
00000000
00000000
00000000
00100000
00000000
00000000
00000000
00000000
00000000
00000000
00000000
00000000
00000000
00000000
00000000
00000000
00000000
00000000
00000000
01000000
00000000
00000000
00000000
00000000
00000000
00000000
00000000
00000000
00000000
00000000
00000000
00000000
00000000
00000000
00000000
,
00010000
00000000
01000000
00001000
00010000
00001000
00000000
00000000
,
00000000
00010000
00001000
00000010
,
00000100
00000000
00000010
00000100
00001000
00000010
00000000
00000000
,
00000000
00002000
00000000
00003200
,
00000000
00001300
00001000
00000010
,
00011000
00000000
00001000
00000100
00000001
00000000
00001000
00000100
,
00000001
00000010
00000100
00002002
,
00003003
00000000
00000010
00000000
00000000
00000100
00000000
00000000
,
00002002
00003003
00000000
00000000
00000000
00000000
00000000
00000000
00000100
00000000
00000000
00000000
00000000
00000000
00000000
00000000
00000000
00000000
00000000
00000000
00000000
00000000
00000000
00000000
00000000
00000000
00000000
00000000
00000000
00000000
00000000
00000000
00010000
00000000
00000000
00000000
00000000
00000000
00000000
00000000
00000000
00000000
00000000
00000000
00000000
00000000
00000000
00000000
00000000
00000000
00000000
00000000
00000000
00000000
00000000
00000000
00022000
00033000
00000000
00000000
00000000
00000000
00000000
00000000
,
00001000
00000000
00000000
00000000
00000000
00000000
00000000
00000000
00000000
00000000
00000000
00000000
00000000
00000000
00000000
00000000
00000000
00000000
00000000
00000000
00000000
00000000
00000000
00000000
00100000
00000000
00000000
00000000
00000000
00000000
00000000
00000000
00000000
00000000
00000000
00000000
00000000
00000000
00000000
00000000
00000000
00000000
00000000
00000000
00000000
00000000
00000000
00000000
02200000
03300000
00000000
00000000
00000000
00000000
00000000
00000000
01000000
00000000
00000000
00000000
00000000
00000000
00000000
00000000
,
00000000
10000000
00000000
00100000
00000000
01000000
00000000
00010000
,
00000000
00000000
00000000
00000000
00000000
00000000
00000000
00000000
00000000
00000000
00000000
00000000
00000000
00000000
00000000
00000000
10000000
00000000
00000000
00000000
00000000
00000000
00000000
00000000
00000000
00000000
00000000
00000000
00000000
00000000
00000000
00000000
00000000
00000000
00000000
00000000
00000000
00000000
00000000
00000000
20020000
30030000
00000000
00000000
00000000
00000000
00000000
00000000
00100000
00000000
00000000
00000000
00000000
00000000
00000000
00000000
00000000
00000000
00000000
00000000
00000000
00000000
00000000
00000000
,
00000000
00000000
00000000
00000000
00000000
00000000
00000000
00000000
01000000
00000000
00000000
00000000
00000000
00000000
00000000
00000000
00000000
00000000
00000000
00000000
00000000
00000000
00000000
00000000
00000000
00000000
00000000
00000000
00000000
00000000
00000000
00000000
02200000
03300000
00000000
00000000
00000000
00000000
00000000
00000000
10000000
00000000
00000000
00000000
00000000
00000000
00000000
00000000
01000000
00000000
00000000
00000000
00000000
00000000
00000000
00000000
00010000
00000000
00000000
00000000
00000000
00000000
00000000
00000000
,
00000000
10000000
01000000
00010000
00000000
00010000
00001000
00000100
,
00000000
00000110
00000000
00000000
00000000
00002002
00000000
00000000
,
00000000
00000000
00000000
00000000
,
00000000
00000000
00000000
00000000
,
00000000
00000000
00000000
00000000
,
00000000
00000000
00000000
00000000
00000000
00003003
00000000
00000000
,
00000000
00000000
00000000
00000000
;

//---------------dance-double - ----------------
#NOTEDATA:;
#CHARTNAME:;
#CHARTHASH:2147483647:
#STEPSTYPE:dance-double;
#BANNER:;
#DESCRIPTION:;
#CHARTSTYLE:;
#DIFFICULTY:Medium;
#METER:12;
#METERF:0.000000;
#RADARVALUES:0.475237,0.647696,0.297506,0.333568,0.013523,369.000000,336.000000,33.000000,37.000000,0.000000,0.000000,0.000000,0.000000,0.000000,0.475237,0.647696,0.297506,0.333568,0.013523,369.000000,336.000000,33.000000,37.000000,0.000000,0.000000,0.000000,0.000000,0.000000;
#CREDIT:;
#DISPLAYBPM:90.000000:182.000000;
#NOTES:
00000000
00000000
00000000
00000000
,
00000000
00000000
00000000
00000000
,
00000000
00000000
00000000
00000000
,
00000000
00000000
00000000
00000000
,
00002002
00000000
00000000
00003003
,
00000220
00000000
00000000
00000330
,
00000001
00000000
00000100
00000000
00000000
00000010
00001000
00000000
,
00010000
00001000
00000100
00000000
00000000
00000010
00000100
00000000
,
00002002
00000000
00000000
00000000
00000000
00000000
00000000
00003003
,
00000011
00000110
00000011
00000110
,
00001100
00000110
00001100
00000110
,
00001100
00011000
00001100
00011000
,
00110000
00011000
00110000
00011000
,
20020000
00000000
00000000
00000000
,
00000000
00000000
30030000
00000000
,
00000000
00000000
00000000
00000000
,
00000000
00000000
00000000
00000000
,
01000000
10000000
01000000
10000000
00010000
01000000
00010000
01000000
,
00001000
00010000
00001000
00010000
00000100
00001000
00000100
00001000
,
00000001
00000100
00000001
00000100
00000010
00001000
00000010
00001000
,
00000100
00010000
01000000
10000000
20020000
30030000
00010000
00100000
,
00010000
01000000
00100000
00010000
00000000
00000000
00100000
00010000
,
00001000
00000100
00000010
00001000
00000000
00000000
00000001
00000010
,
00000100
00001000
00000010
00000100
00000000
00000000
00000010
00001000
,
00000100
00010000
00002000
00000000
00023000
00000000
01030000
10000000
,
00010000
10000000
00100000
01000000
00000000
00000000
00100000
01000000
,
00100000
00010000
00001000
00100000
00000000
00000000
00001000
00010000
,
00001000
00000100
00000010
00001000
00000000
00000000
00000001
00000010
,
00000100
00001000
00000200
00020300
00032000
00000000
00103000
00010000
,
01000000
00100000
10000000
00010000
00000000
00000000
01000000
00100000
,
00010000
00001000
00000100
00000010
00000000
00000000
00000100
00000001
,
00000010
00000100
00010000
00000100
00000000
00000000
00010000
00001000
,
00000100
00000000
00001000
00000000
00020000
00000000
00030000
00000000
00002000
00000000
00003000
00000000
00010000
00000100
00010000
00000000
,
00001000
00000000
00000100
00000000
00000010
00000000
00000100
00000000
00000000
00000000
00000001
00000010
00000001
00000000
00000100
00000000
,
00000010
00000000
00001000
00000000
00000100
00000000
00000000
00000000
00001000
00000100
00001000
00000000
00000100
00000000
00010000
00000000
,
00001000
01000000
00000000
00000000
00100000
00010000
00100000
10000000
,
01000000
00100000
00010000
00100000
00002000
00000000
00100000
00000000
,
00010000
01000000
00010000
00000000
,
00100000
00000000
00023000
00000010
,
00001000
00000100
00001000
00000000
,
00000010
00000000
00032000
00000000
,
00003200
00000000
00002300
00000000
,
00023000
00000000
00031000
00000100
,
00000001
00000100
00001000
00000100
00000020
00000000
00000000
00000000
,
00000200
00000000
00000000
00000330
00002002
00000000
00000000
00000000
,
00000000
00000000
00000000
00000000
,
00000000
00000000
00000000
00000000
,
00000000
00000000
00000000
00003003
00000110
00000000
00000000
00000000
,
00000000
00000000
00000000
00000000
00000010
00000001
00000100
00001000
,
00000100
00001000
00000000
00000100
00010000
01000000
10000000
01000000
,
00000000
00100000
01000000
00010000
00100000
00010000
01000000
00010000
,
00100000
00001000
00000000
00000100
00000001
00000010
00000100
00001000
,
00000000
00000001
00000100
00000001
00001000
00000100
00010000
00000100
,
00010000
00000000
01000000
00000000
00100000
00010000
01000000
00000000
,
00100000
10000000
01000000
00000000
01000000
00010000
00001000
00000100
,
00000000
00000110
00000000
00001100
00000000
00011000
00000000
00100000
,
02000000
03000000
00100000
10000000
00010000
00100000
01000000
10000000
,
01000000
00010000
00001000
00000100
00000010
00000100
00000000
00000001
,
00000100
00001000
00000100
00000001
00000010
00000100
00001000
00000100
,
00010000
00100000
01000000
00010000
00100000
01000000
00000000
10000000
,
01000000
10000000
00200000
00000000
00000000
02300000
00000000
00000000
,
00000000
03001000
00020000
00000000
00000000
00000000
00000000
00031000
,
00000100
00000001
00000010
00000100
00010000
00001000
00000000
00110000
,
00000000
01100000
00000000
11000000
00000000
10010000
00200000
00000000
,
00000000
00300000
10000000
00010000
00100000
00001000
00001000
00000100
,
00000000
00000001
00001000
00000010
00010000
00010000
01000000
00000000
,
10000000
00010000
01000000
00001000
00001000
00000010
00000000
00000001
,
00001000
00000100
00010000
00010000
00100000
00200000
00300000
01000000
,
00010000
00100000
01000000
10000000
00100000
01100000
00100000
01000000
,
00001000
00100000
00001000
00010000
00011000
00001000
00000100
00000001
,
00000010
00000100
00000010
00000001
00000100
00000010
00001000
00001000
,
00000100
00020000
00032000
00013000
00000000
00022000
00000000
00000000
,
00000000
00000000
00000000
00000000
,
00000000
00000000
00000000
00000000
,
00000000
00000000
00000000
00000000
,
00000000
00000000
00000000
00000000
00000000
00033000
00000000
00000000
,
00000000
00000000
00000000
00000000
;

//---------------dance-double - ----------------
#NOTEDATA:;
#CHARTNAME:;
#CHARTHASH:417230518:
#STEPSTYPE:dance-double;
#BANNER:;
#DESCRIPTION:;
#CHARTSTYLE:;
#DIFFICULTY:Hard;
#METER:16;
#METERF:0.000000;
#RADARVALUES:0.708348,0.988589,0.243414,0.189322,0.604028,550.000000,523.000000,27.000000,21.000000,0.000000,0.000000,0.000000,0.000000,0.000000,0.708348,0.988589,0.243414,0.189322,0.604028,550.000000,523.000000,27.000000,21.000000,0.000000,0.000000,0.000000,0.000000,0.000000;
#CREDIT:;
#DISPLAYBPM:90.000000:182.000000;
#NOTES:
00000000
00000000
00000000
00000000
,
00000000
00000000
00000000
00000000
,
00000000
00000000
00000000
00000000
,
00000000
00000000
00000000
00000000
,
00002000
00000000
00000000
00000000
,
00023000
00000000
00000000
00000000
,
00031000
00000100
00000000
00000010
00001000
00000000
00000100
00001000
00010000
00100000
00000000
00010000
00100000
01000000
10000000
00000000
,
10000000
01000000
00000000
00100000
00010000
00000000
00100000
00010000
00001000
00000100
00000000
00000100
00000010
00000000
00001001
00000000
,
00000220
00000000
00000000
00000330
,
00000011
00000101
00001010
00001100
,
00011000
00010100
00011000
00110000
,
10100000
11000000
00110000
01010000
,
00011000
00110000
00011000
00001100
,
00022000
00000000
00000000
00000000
,
00000000
00000000
00033000
00000000
,
00000000
00000000
00000000
00000000
,
00000000
00000000
00000000
00000000
,
00000001
00000100
00001000
00000100
00010000
00001000
00000100
00000001
,
00000100
00001000
00000100
00010000
00001000
01000000
10000000
01000000
,
00010000
01000000
00001000
00010000
01000000
10000000
00010000
00100000
,
00001000
00010000
00001000
00010000
00000100
00001000
00000100
00000010
00000100
00000000
00000000
00000000
00000010
00000001
00000010
00000000
,
00000100
00000000
00001000
00000100
00001000
00000000
00000100
00000000
00000000
00000000
00000000
00000000
00001000
00000100
00001000
00000000
,
00000100
00000000
00010000
00001000
00010000
00000000
00001000
00000000
00000000
00000000
00000000
00000000
00010000
00001000
00010000
00000000
,
00001000
00000000
00100000
00010000
00100000
00000000
01000000
00000000
00000000
00000000
00000000
00000000
10000000
01000000
00100000
01000000
,
10000000
01000000
10000000
00000000
00200000
00000000
00000000
00000000
02300000
00000000
00000000
00000000
03100000
10000000
00100000
00000000
,
01000000
00000000
00010000
01000000
00010000
00000000
01000000
00000000
00000000
00000000
00000000
00000000
00010000
01000000
00010000
00000000
,
01000000
00000000
00001000
00010000
00001000
00000000
00010000
00000000
00000000
00000000
00000000
00000000
00001000
00010000
00001000
00000000
,
00010000
00000000
00000010
00001000
00000010
00000000
00000100
00000000
00000000
00000000
00000000
00000000
00000001
00000100
00000010
00000100
,
00000001
00000100
00000001
00000000
00000010
00000000
00000010
00000000
00000200
00000000
00000000
00000000
00000310
00000001
00000010
00000001
,
00000100
00000000
00000010
00001000
00000010
00001000
00000100
00000000
00000000
00000000
00000000
00000000
00000100
00001000
00000100
00001000
,
00000010
00000000
00001000
00000100
00001000
00000100
00010000
00000000
00000000
00000000
00000000
00000000
00010000
00001000
00010000
00001000
,
00100000
00000000
00010000
01000000
00010000
01000000
00100000
00000000
00000000
00000000
00000000
00000000
00100000
10000000
00100000
10000000
,
00100000
00000000
00000000
00000000
00000000
00000000
00000000
00000000
00000000
00000000
00000000
00000000
10000000
00000000
00000000
00000000
00000000
00000000
00000000
00000000
00000000
00000000
00000000
00000000
01000000
00000000
00000000
00000000
00000000
00000000
00000000
00000000
00000000
00000000
00000000
00000000
00000000
00000000
00000000
00000000
00000000
00000000
00000000
00000000
00000000
00000000
00000000
00000000
20000000
00000000
00000000
00000000
00000000
00000000
00000000
00000000
00000000
00000000
00000000
00000000
00000000
00000000
00000000
00000000
00000000
00000000
00000000
00000000
00000000
00000000
00000000
00000000
00000000
00000000
00000000
00000000
00000000
00000000
00000000
00000000
00000000
00000000
00000000
00000000
00000000
00000000
00000000
00000000
00000000
00000000
00000000
00000000
00000000
00000000
00000000
00000000
30020000
00000000
00000000
00000000
00000000
00000000
00000000
00000000
00000000
00000000
00000000
00000000
00000000
00000000
00000000
00000000
00000000
00000000
00000000
00000000
00000000
00000000
00000000
00000000
00000000
00000000
00000000
00000000
00000000
00000000
00000000
00000000
00000000
00000000
00000000
00000000
00000000
00000000
00000000
00000000
00000000
00000000
00000000
00000000
00000000
00000000
00000000
00030000
00100000
00000000
00000000
00000000
00000000
00000000
00000000
00000000
00000000
00000000
00000000
00000000
00010000
00000000
00000000
00000000
00000000
00000000
00000000
00000000
00000000
00000000
00000000
00000000
00100000
00000000
00000000
00000000
00000000
00000000
00000000
00000000
00000000
00000000
00000000
00000000
00010000
00000000
00000000
00000000
00000000
00000000
00000000
00000000
00000000
00000000
00000000
00000000
,
01000000
00000000
00100000
10000000
00100000
10000000
01000000
00000000
00000000
00000000
00100000
00010000
00100000
00010000
01000000
00000000
,
00001000
00010000
00001000
00010000
00000100
00000000
00000000
00000000
00001000
00000100
00001000
00000100
00000010
00000000
00000001
00000100
,
00000001
00000100
00000010
00000000
00000000
00000000
00000000
00000000
00001000
00000100
00001000
00000100
00000010
00000000
00000001
00000100
,
00000020
00000000
00002030
00000000
00003001
00000010
00000100
00001000
00000100
00000000
00001000
00000000
00000010
00000000
00000000
00000000
,
00000100
00000001
00000010
00000000
00000001
00000100
00001000
00000000
,
00010000
00001000
00000100
00000000
00001000
00010000
00100000
00000000
,
00010000
00100000
01000000
00000000
00010000
01000000
00100000
00000000
,
01000000
00000000
00000000
00001000
00000000
00000000
00010000
00000000
00000000
00000000
00000000
00000000
00010000
00000000
00001000
00000000
00000100
00000000
00000010
00000000
00000000
00000000
00000000
00000000
,
00001000
00000100
00000010
00001000
00000000
00000000
00000010
00000001
00000100
00001000
00000000
00000000
,
00000100
00001000
00010000
00100000
00000000
00000000
00100000
10000000
01000000
10000000
01000000
00100000
,
00010000
00001000
00000100
00000001
00000100
00001000
00000020
00000000
00000000
00000000
00000000
00000000
,
00001030
00000100
00001000
00000100
00000010
00000001
00000010
00000001
00000010
00000000
00000000
00000000
00000010
00000000
00000000
00000000
,
00000001
00000001
00000100
00000100
,
00001000
00001000
01000000
01000000
,
00100000
00100000
10010000
01100000
,
10100000
00000000
00000000
00110000
00000000
00000000
10010000
00000000
10000000
00000000
01000000
10000000
01000000
00000000
00100000
00000000
,
00010000
00100000
00010000
00000000
00001000
00000000
00000100
00000000
00001000
00000100
00001000
00000000
00000010
00000000
00000100
00000000
,
00000001
00000000
00000010
00000001
00000100
00000001
00000010
00000000
00000001
00000000
00000100
00000001
00000100
00000000
00000010
00000000
,
00001000
00000010
00001000
00000000
00010000
00000000
01000000
00000000
00010000
01000000
00010000
00000000
00100000
00000000
01000000
00000000
,
10000000
00000000
00100000
10000000
01000000
10000000
00100000
00000000
01000000
00000000
00010000
00000000
00100000
00000000
01000000
00000000
,
10000000
01000000
00010000
00001000
00000010
00000001
00000100
00001000
,
00010000
00000000
01000000
00000000
00100000
00000000
00010000
00000000
10000000
01000000
10000000
00000000
00100000
00000000
01000000
00000000
,
00010000
01000000
00010000
00000000
00100000
00000000
00001000
00000000
00010000
00001000
00010000
00000100
00001000
00000010
00000100
00000001
,
00000200
00000300
00000000
00000000
00000000
00000000
00000000
00000000
00000000
00000000
00000000
00000000
00000001
00000000
00000000
00000000
00000000
00000000
00000100
00000000
00000000
00000001
00000000
00000000
00000100
00000000
00000000
00000000
00000000
00000000
00000010
00000000
00000000
00000000
00000000
00000000
00001000
00000000
00000000
00000010
00000000
00000000
00001000
00000000
00000000
00000000
00000000
00000000
,
00010000
00000000
01000000
00000000
00010000
01000000
00010000
00000000
00100000
00000000
01000000
00000000
10000000
00000000
00100000
10000000
,
01000000
10000000
00100000
00000000
10000000
00000000
01000000
10000000
01000000
00000000
00100000
00000000
00010000
00100000
00010000
00000000
,
00001000
00000000
00000100
00000000
00001000
00000100
00001000
00000000
00000010
00000000
00000100
00000000
00000001
00000000
00000010
00000001
,
00000100
00000001
00000010
00000000
00000100
00000000
00001000
00000000
00000010
00000000
00000200
00000000
00000000
00000000
00000301
00000000
,
00000100
00001000
00010000
00100000
00010000
00002000
00000000
00003010
,
00000001
00000000
00000100
00000000
00000001
00000100
00000001
00000000
00000010
00000000
00000100
00000000
00001000
00000100
00001000
00000000
,
00000010
00000000
00010000
00000000
00001000
00010000
00001000
01000000
00010000
00100000
01000000
00000000
02200000
00000000
00000000
00000000
,
00000000
03300000
10000000
01000000
00010000
00001000
00000010
00000100
,
00000000
00010000
01000000
00010000
00100000
10000000
00100000
00000000
,
00010000
00001000
00000100
00000001
00000010
00000100
00000000
01000000
,
10000000
00000000
01000000
00000000
00100000
00000000
01000000
00000000
00010000
00000000
00100000
00000000
01000000
00000000
10000000
01000000
,
10000000
01000000
10000000
00000000
01000000
10000000
01000000
10000000
01000000
00000000
11000000
00000000
00100000
00010000
00100000
00010000
,
00100000
00000000
00001000
00010000
00001000
00010000
00001000
00000000
00011000
00000000
00010000
00000100
00010000
00000100
00010000
00000000
,
00000100
00001000
00000100
00001000
00000100
00000000
00000010
00000000
00000100
00000000
00001000
00000100
00001000
00000001
00000100
00000000
,
00000001
00001000
00000020
00000000
00000000
00000000
00000000
00000000
00000000
00000000
00020000
00000000
00000000
00000000
00000000
00000000
,
00000000
00000000
00000000
00000000
,
00000000
00000000
00000000
00000000
,
00000000
00000000
00000000
00000000
,
00000000
00000000
00000000
00000000
00000000
00030030
00000000
00000000
,
00000000
00000000
00000000
00000000
;

//---------------dance-single - ----------------
#NOTEDATA:;
#CHARTNAME:;
#CHARTHASH:0:
#STEPSTYPE:dance-single;
#BANNER:;
#DESCRIPTION:;
#CHARTSTYLE:;
#DIFFICULTY:Challenge;
#METER:17;
#METERF:0.000000;
#RADARVALUES:1.017446,1.159035,0.360614,0.450767,1.496547,790.000000,750.000000,40.000000,50.000000,0.000000,0.000000,0.000000,0.000000,0.000000,1.017446,1.159035,0.360614,0.450767,1.496547,790.000000,750.000000,40.000000,50.000000,0.000000,0.000000,0.000000,0.000000,0.000000;
#CREDIT:;
#DISPLAYBPM:90.000000:182.000000;
#NOTES:
// measure 0
0000
0000
0000
0000
,  // measure 1
0000
0000
0000
0000
,  // measure 2
0000
0000
0000
0000
0000
0000
0000
0000
1000
0001
1000
0001
1000
0001
1000
0001
,  // measure 3
1000
0001
1000
0001
1000
0001
1000
0001
0000
0000
0000
0000
0000
0000
0000
0000
,  // measure 4
2010
0100
0001
3100
,  // measure 5
0012
0100
1000
0103
,  // measure 6
0001
0010
0001
0100
1000
1100
0000
0010
0100
0000
0010
1000
0001
0101
0000
0100
,  // measure 7
0010
0000
0100
0001
1000
1001
0000
0001
0100
0000
0001
1000
0010
0100
0001
0010
,  // measure 8
0220
0000
0000
0000
0000
0000
0000
0000
0300
0000
0000
0000
0000
0000
0000
0000
0031
1000
0001
1000
0001
1000
0001
1000
0200
0000
0000
0000
0000
0300
0000
0000
,  // measure 9
1100
0110
0011
0110
,  // measure 10
1010
1001
1100
0011
,  // measure 11
0101
0011
1100
0101
,  // measure 12
1001
1010
0110
1001
,  // measure 13
0011
2000
0002
0000
0000
0000
0000
0000
,  // measure 14
0000
0000
3003
0000
,  // measure 15
0000
0000
0000
0000
,  // measure 16
0000
0000
0000
0000
0000
0000
0000
0000
0000
0000
0000
0000
0000
0000
0000
0000
0000
0000
1000
0000
0100
0000
1000
0000
0100
0000
0000
0010
0000
0000
0000
0000
0000
0010
0000
0000
0001
0000
0000
1000
0000
0000
0001
0000
0000
1000
0000
0000
,  // measure 17
0010
0100
0010
0100
0010
0100
0010
0100
0010
0100
0010
0100
0010
0100
0010
0100
,  // measure 18
0001
1000
0001
1000
0001
1000
0001
1000
0001
1000
0001
1000
0001
1000
0001
1000
,  // measure 19
0001
0010
0100
1000
0010
0100
0001
1000
0010
0001
0100
0010
1000
0100
1000
0001
,  // measure 20
0100
0000
0001
0000
0010
0000
1000
0000
0001
0000
0100
0000
1000
0000
0010
0000
0200
0000
0000
0000
0000
0300
0000
0000
0100
0000
0001
0000
0010
0000
0001
0000
,  // measure 21
0100
0000
0010
1000
0100
1000
0010
0000
1000
0100
0001
0000
0010
0100
1000
0100
,  // measure 22
0010
0000
0001
1000
0100
1000
0001
0000
0100
0010
1000
0000
0001
0010
0100
0010
,  // measure 23
0001
0000
1000
0001
0100
0001
1000
0000
0010
1000
0100
0000
0001
0010
1000
0010
,  // measure 24
0001
0000
0100
0010
0100
0001
0100
0000
0010
1000
0001
0000
0010
0001
1000
0001
,  // measure 25
0010
0000
0001
0100
1000
0100
0001
0000
1000
0010
0001
0000
0100
0010
1000
0010
,  // measure 26
0100
0000
0010
1000
0001
1000
0010
0000
1000
0100
0001
0000
0010
0100
0010
0001
,  // measure 27
0010
0000
0100
1000
0001
1000
0100
0000
1000
0001
0100
0000
0010
0001
0010
0100
,  // measure 28
0010
0000
1000
0000
0010
0000
0000
0000
2001
0000
0000
0000
3200
0000
0000
0000
0302
0000
0000
0000
0000
0003
0000
0000
0001
0000
0010
0000
0100
0000
0010
0000
,  // measure 29
0001
0100
0010
1000
0100
0010
0001
1000
0010
0100
0001
0000
0010
0001
0100
0001
,  // measure 30
0010
0100
1000
0001
1000
0010
0100
0001
1000
0100
0010
0000
0001
0010
0001
0100
,  // measure 31
0001
0010
0100
1000
0100
1000
0001
1000
0010
1000
0100
0000
1000
0010
0100
0001
,  // measure 32
0010
0100
1000
0001
0200
0000
0000
0000
0320
0000
0000
0000
1030
0100
0001
0100
,  // measure 33
1000
0000
0010
0000
0001
0000
0010
0000
1000
0000
0100
0000
0010
0000
0002
0000
0000
0003
0000
0000
0100
0000
0010
0000
1000
0000
0001
0000
0010
0000
0100
0000
,  // measure 34
1000
0000
0001
0000
1000
0000
0010
0000
0100
0000
0002
0000
0000
0003
0000
0000
0001
0000
1000
0000
0010
0000
1000
0000
0100
0000
0010
0000
0001
0000
0100
0000
,  // measure 35
0010
1000
0001
1000
0010
0100
0010
0100
0001
0010
0100
1000
0001
0100
0010
1000
,  // measure 36
0100
0010
0100
1000
0010
1000
0100
0001
0020
0000
0000
0000
0032
0000
0000
0000
,  // measure 37
2003
3020
2030
3200
,  // measure 38
0320
0000
0000
0032
0000
0000
1003
0100
0010
0002
0000
0000
,  // measure 39
0103
0010
1000
0002
0000
0000
0013
0001
0100
0010
1000
0100
,  // measure 40
1000
0010
0100
0002
0000
0000
0013
0001
1000
0010
1000
0100
,  // measure 41
0010
0001
0100
1000
0100
0001
1000
0010
0100
0010
0100
0010
,  // measure 42
1000
0001
1000
0001
0100
0001
0010
0001
1000
0001
0100
0010
,  // measure 43
1000
0010
0001
0100
1000
0100
0020
0000
0000
0000
0000
0000
,  // measure 44
0031
0010
1000
0100
0010
0100
1000
0001
0200
0000
0000
0000
0000
0000
0000
0000
,  // measure 45
0000
0000
0000
0000
0300
0000
0000
0000
0001
1000
0001
1000
0001
1000
0001
1000
,  // measure 46
0200
0000
0000
0000
0300
0000
1000
0010
0002
0100
0000
0000
1000
0000
0000
0000
,  // measure 47
1000
1003
0011
1100
,  // measure 48
1010
0000
0000
0101
0000
0000
0110
0000
1001
0000
0010
1000
0100
0000
0010
0000
,  // measure 49
0001
0000
0100
0010
1000
0001
0010
0100
1000
0000
0010
0000
0100
0000
0001
0000
,  // measure 50
0010
1000
0100
0001
1000
0100
0010
0001
0100
0000
0010
1000
0001
0000
0010
0000
,  // measure 51
0001
0000
0100
0001
0010
0100
1000
0000
0001
0100
0010
0100
0001
0000
0010
0000
,  // measure 52
0100
1000
0001
1000
0010
0100
0001
0010
0100
0000
1000
0010
0001
0000
2200
0000
,  // measure 53
0000
0300
0000
0000
3001
0000
0100
0000
0010
0000
1000
0000
0001
0000
0010
0000
1000
0000
0000
0000
0100
0000
0010
0000
0000
0000
0010
0000
0001
0000
0000
0000
,  // measure 54
0100
0000
0001
0010
1000
0100
0010
0001
0100
0001
0100
0010
0100
1000
0100
0000
,  // measure 55
0100
1000
0100
0010
0100
0001
0100
0000
0110
0000
0001
0100
1000
0000
0001
0020
,  // measure 56
2000
0000
0000
0030
0000
3000
0000
0000
1000
0000
0100
0000
0001
0000
0010
0000
0100
0000
1000
0000
0001
0000
0000
0000
0100
0000
0000
0000
0001
0000
0010
0000
,  // measure 57
1000
0100
1000
0001
0010
0000
0100
1000
0001
0000
0011
0000
0010
0000
0100
1000
,  // measure 58
0010
1000
0100
0001
0010
0001
0010
0100
0010
1000
0010
0000
0010
1000
0010
0100
,  // measure 59
0010
0001
0010
0000
0001
0100
0010
1000
0100
0010
0001
0000
1000
0010
0100
0001
,  // measure 60
0010
0000
0100
0000
0010
0000
0001
0000
1000
0000
0000
0000
0001
0000
1000
0000
0100
0000
0000
0000
2020
0000
0000
0000
0000
0030
0000
0000
3001
0000
0000
0000
,  // measure 61
1000
0000
0100
0010
0001
0000
0100
0001
0000
0001
1000
0000
0010
0000
1000
0100
,  // measure 62
1000
0010
0100
0001
0010
1000
0100
0001
1000
0001
0100
1000
0001
0010
1000
0010
,  // measure 63
0100
0001
1000
0001
0010
0100
1000
0001
0010
0100
0010
0100
0002
0000
2000
0000
,  // measure 64
0000
0000
0000
3003
0000
0000
0000
0000
1000
0000
0010
0000
0001
0000
0010
0000
1000
0000
0000
0000
0001
0000
0100
0000
1000
0000
0100
0000
0001
0000
0000
0000
,  // measure 65
0202
0003
0000
0000
0301
0000
0010
0000
1000
0000
0010
0000
0001
0000
0000
0000
1000
0000
0100
0000
0001
0000
0100
0000
1000
0000
0000
0000
2020
0030
0000
0000
,  // measure 66
3001
0000
0100
0000
1000
0000
0100
0000
0001
0000
0000
0000
1000
0000
0100
0000
0001
0000
0100
0000
1000
0000
0000
0000
2002
3000
0000
0000
0013
0000
0001
0000
,  // measure 67
0100
1000
0010
0100
0001
1000
0010
1000
0001
0100
0010
0001
1000
0100
1000
0010
,  // measure 68
0001
0000
0010
0000
1000
0000
0000
0000
0001
0000
0010
0000
1000
0000
0010
0000
0001
0000
0000
0000
0022
0003
0000
0000
0031
0000
0010
0000
1000
0000
0010
0000
,  // measure 69
0001
0000
0000
0000
1000
0000
0010
0000
0001
0000
0010
0000
1000
0000
0000
0000
0220
0300
0000
0000
1030
0000
0010
0000
0100
0000
0001
0000
0100
0000
1000
0000
,  // measure 70
0001
0100
0010
0001
1000
0100
0010
0001
1000
0010
1000
0100
0001
0100
0010
0001
,  // measure 71
0010
0100
1000
0001
1000
0010
0100
0001
1000
0010
2200
0000
0000
0000
0000
0000
,  // measure 72
0000
0000
0000
0000
,  // measure 73
0000
0000
0000
0000
,  // measure 74
0000
0000
0000
0000
,  // measure 75
0000
0000
0000
0000
0000
3300
0000
0000
;
