#TITLE:STAY (Organic house Version);
#ARTIST:emi;
#BANNER:STAY (Organic house Version).png;
#BACKGROUND:STAY (Organic house Version)-bg.png;
#JACKET:STAY (Organic house Version)-jacket.png;
#MUSIC:STAY (Organic house Version).ogg;
#SAMPLESTART:49.863;
#SAMPLELENGTH:20;
#DISPLAYBPM:125;
#BPMS:0=125;
#BGCHANGES:;

//---------------dance-single - ----------------
#NOTES:
     dance-single:
     :
     Beginner:
     3:
     :
0000
0000
0000
0000
,
0000
0000
0000
0000
,
0000
0000
0000
0000
,
0000
0000
0000
0000
,
0000
0000
0000
0000
,
0010
0000
0000
0000
,
0010
0000
0000
0000
,
1000
0000
0000
0000
,
0001
0000
0000
0000
,
0010
0000
0000
0000
,
0001
0000
0001
0000
,
0010
0000
0000
0000
,
1000
0000
1000
0000
,
0001
0000
0001
0000
,
1000
0000
1000
0000
,
0001
0000
1000
0000
,
0100
0000
0100
0000
,
0010
0000
0010
0000
,
0001
0000
0100
0000
,
1000
0000
0100
0000
,
0001
0000
1000
0000
,
0001
0000
0010
0000
,
0001
0000
1000
0000
,
1000
0000
0010
0000
,
1000
0000
0001
0000
,
0010
0010
0000
0000
,
1001
0000
0000
0000
,
0010
0000
0100
0000
,
0001
0000
0100
0000
,
1000
0000
0100
0000
,
0000
1000
1000
0000
,
0000
0001
0001
0000
,
0000
0100
0000
0100
,
0000
0010
0000
0000
,
1001
0000
0000
0000
,
0001
0000
0001
0000
,
0100
0000
0010
0000
,
1000
0000
1000
0000
,
0000
0010
0010
0000
,
0000
0100
0100
0000
,
0000
0001
0000
1000
,
0000
0100
0000
0000
,
1001
0000
0000
0000
,
0000
0000
0000
0000
;

//---------------dance-single - ----------------
#NOTES:
     dance-single:
     :
     Easy:
     4:
     :
0000
0000
0000
0000
,
0000
0000
0000
0000
,
0000
0000
0000
0000
,
0000
0000
0000
0000
,
0000
0000
0000
0000
,
0010
0000
0000
0000
,
0010
0000
0000
0000
,
1000
0000
0000
0000
,
0001
0000
1001
0000
,
0010
0000
0100
0000
,
0001
1000
0001
0000
,
0010
0000
0100
0000
,
1000
0001
1000
0000
,
0001
0100
0001
0000
,
1000
0100
1000
0000
,
0001
0001
1000
1000
,
0100
0010
1001
0000
,
0010
0000
0010
0000
,
0001
0100
0100
0000
,
1000
0100
0100
0000
,
0001
0010
1000
0100
,
0001
1000
0010
0100
,
0001
0100
1000
0001
,
1000
0000
1001
0000
,
0001
0000
1001
0000
,
0010
0100
0010
0010
,
1001
0000
0000
0100
,
1000
0010
0001
0100
,
1000
0001
0010
0100
,
1000
1000
0001
1001
,
0010
0000
1000
1000
,
0010
0000
0001
0001
,
1000
0100
0001
0100
,
0010
0100
0010
0100
,
1001
0000
0000
0010
,
1000
0001
0100
0001
,
0010
0100
1000
0001
,
0100
1000
0010
0001
,
1001
0000
0010
0010
,
0110
0000
1000
1000
,
0010
0001
0010
1000
,
0002
0003
2000
3000
,
1001
0000
0000
0000
,
0000
0000
0000
0000
;

//---------------dance-single - ----------------
#NOTES:
     dance-single:
     :
     Medium:
     7:
     :
0000
0000
0000
0000
,
0000
0000
0000
0000
,
0000
0000
0000
0000
,
0000
0000
0000
0000
,
0100
0000
0100
0000
,
1000
0001
0100
0100
,
0001
1000
0100
0100
,
0010
0100
0001
0100
,
0010
0100
1000
1001
,
0010
0000
0010
0000
1000
0100
1000
0000
,
0010
0000
0010
0000
0001
0100
0001
0000
,
1000
0000
0001
0000
1000
0001
0100
0000
,
0001
0000
1000
0000
0001
1000
0010
0000
,
0100
0000
1000
0000
0001
0010
0100
0000
,
0100
0000
0001
0000
0100
0010
1000
0000
,
0001
0100
0001
0000
1000
0010
1000
0000
,
0100
1100
0100
0101
,
1000
0000
0001
0000
0010
0100
0010
0000
,
0001
1000
0010
0000
1001
0000
0100
0000
,
0002
1003
2000
3001
,
0200
0310
1000
1100
,
0010
0100
0001
0000
0110
0000
0000
0000
,
0010
0100
1000
0000
0110
0000
0000
0000
,
0001
0000
0001
0000
1000
0000
1000
0020
,
0000
0000
0000
2000
0000
0000
3030
0000
,
0001
1000
0001
0110
,
2002
0000
3003
0100
,
0001
0100
1000
0000
1000
0100
0001
0000
,
0010
0010
0100
0100
,
0010
1000
0100
0000
0010
0001
0100
0000
,
0001
0000
1000
0100
0000
0000
1000
0000
,
1000
0000
0001
0100
0000
0000
0001
0000
,
0100
1000
0010
0001
,
1000
0100
0010
0001
0100
0000
0101
0000
,
2002
0000
3003
0010
,
0001
0100
0010
0000
1000
0100
0010
0000
,
0001
0001
1000
1000
,
0010
1000
0001
1000
0010
0000
0100
0000
,
0010
1000
0001
0100
,
0001
0101
1000
1100
,
0100
0001
0010
1000
,
0001
0100
0010
0000
0110
0000
0100
0000
,
1001
0000
0000
0000
,
0000
0000
0000
0000
;

//---------------dance-single - ----------------
#NOTES:
     dance-single:
     :
     Hard:
     9:
     :
0000
0000
0000
0000
,
0000
0000
0000
0000
,
0000
0000
0000
0000
,
1000
0000
0001
0000
,
0100
0010
0100
0010
,
1000
0001
0100
0000
0010
0000
1010
0000
,
0001
1000
0100
0000
0010
0000
0011
0000
,
0010
0001
0100
0000
1000
0100
0001
0000
,
1000
0100
0001
0100
1000
0000
1001
0000
,
0100
0000
0100
0000
1000
0001
0100
0010
,
1000
0000
1000
0000
0001
0100
0010
0100
,
0001
0000
0001
0000
1000
0100
0010
0001
,
1000
0100
1000
0001
0100
0000
1100
0000
,
0001
0000
0100
0000
0010
0100
0001
1000
,
0100
0000
0010
0000
0100
1000
0010
0100
,
0001
0000
0010
0000
0100
1000
0010
1000
,
0010
1000
0100
0001
0100
1000
0001
0000
,
1000
0000
0110
0000
1000
0010
0100
0002
,
0000
1000
1003
0000
0100
0010
0100
0010
,
0001
0100
1000
0100
0001
0010
0001
0000
,
0011
1100
1010
0101
,
1000
0000
0010
0100
0010
1000
0001
0100
,
0000
0001
1000
0000
0001
0100
0100
0000
,
1000
0000
1000
0000
0001
0000
0100
0001
,
0000
0000
1000
0010
0000
1000
1000
0000
,
0001
0100
0010
0100
0010
1000
0100
0000
,
2002
0000
3003
0100
,
1000
0010
1000
0000
0010
0100
0001
0000
,
1000
0100
0010
0000
0001
0100
0001
1000
,
0000
1010
0000
0001
0000
0101
0000
1000
,
0100
0000
0010
0002
0000
0000
0103
0000
,
0010
0000
1000
0001
0100
0000
1000
0000
,
0010
0100
0001
0000
1000
0010
0100
0000
,
0001
1000
0010
1000
0001
0000
1100
0000
,
0220
0000
0330
0001
,
0010
0001
0001
0000
1000
0010
0010
0000
,
1000
0001
0010
0000
0100
1000
0100
0000
,
1000
0000
0010
1000
0100
1000
0001
0000
,
1000
0010
1000
0000
0001
0010
0001
0000
,
2000
0000
0100
3100
0000
0010
0000
0000
,
0001
0101
1000
1100
,
0010
0100
0010
1000
0001
0000
1100
0000
,
1001
0000
0000
0000
,
0000
0000
0000
0000
;

//---------------dance-single - ----------------
#NOTES:
     dance-single:
     :
     Challenge:
     12:
     :
0000
0000
0000
0000
,
0000
0000
0000
0000
,
0000
0000
0000
0000
,
0000
0000
0000
0000
,
0000
0000
0000
0000
,
1000
0000
0100
0000
1000
0001
1000
0001
1000
0000
0010
0000
0100
0000
0001
0000
,
0010
0000
0000
0000
0100
1000
0100
1000
0100
0000
0010
0000
0001
0000
1000
0000
,
0100
0000
0000
0000
0010
0001
0010
0001
0010
0000
0100
0000
1000
0000
0010
0000
,
0100
0000
0000
0000
0001
0000
1000
0100
1000
0000
0010
0000
0100
0000
0001
0000
,
1001
0000
0000
0000
0010
0000
1000
0100
1000
0000
0001
0000
0010
0000
0100
0000
,
1000
0000
0000
0000
0001
0000
0100
0010
0100
0000
0001
0000
0010
0000
1000
0000
,
0100
1000
0001
1000
0100
0010
0001
0010
,
0100
0000
1000
0000
0001
0000
1000
0010
1000
0000
0100
0000
0010
0000
0001
0000
,
0100
0010
1000
0001
1000
0100
0010
0001
,
0100
0000
0000
0000
0010
0000
1000
0001
1000
0000
0100
0000
0001
0000
0010
0000
,
0100
0000
1000
0010
1000
0100
0010
0001
,
0100
1000
0100
0010
0100
0001
0010
1000
,
0110
0000
0001
0000
1000
0010
1000
0001
,
0100
0000
0000
0000
0010
0000
1000
0100
1000
0000
0001
0000
0010
0000
0100
0000
,
0010
0000
0000
0001
0100
0000
0000
0010
1000
0000
0100
0000
1000
0000
0001
0000
,
0010
0000
0100
0000
1000
0000
0010
0000
1000
0000
0001
0000
0100
0000
0010
1000
,
0010
0000
0100
0001
1000
0100
0010
0001
,
0100
0000
1000
0000
0100
0000
0001
0010
0001
0000
0100
0000
1000
0000
0010
0000
,
0100
0000
0001
0000
0010
0000
0001
0000
1000
0000
0100
0000
0010
0000
0100
1000
,
0100
0000
0010
0000
0001
0000
1000
0010
1000
0000
0100
0000
0010
0000
0001
0000
,
1000
0001
1000
0000
0001
1000
0001
0000
1000
0001
1000
0000
0001
1000
0001
1000
,
0001
0000
0000
0010
0100
0000
0000
0100
1000
0000
0010
0000
1000
0000
0001
0000
,
0100
1000
0100
0001
0100
1000
0100
0010
,
1000
0000
0000
0100
0010
0000
0000
0010
0001
0000
1000
0000
0001
0000
0100
0000
,
1000
0100
0010
0100
1000
0100
0001
1000
,
0100
0000
0000
0000
0011
0000
0001
0100
0000
0010
1000
0000
0100
0000
0020
0000
,
0000
0000
0001
0000
0031
0000
1000
0100
0000
1000
0010
0000
0100
0000
0001
0000
,
0010
0000
0000
0000
1010
0000
0010
1000
0000
0100
0010
0000
0001
0000
2000
0000
,
0000
3010
1000
0100
1000
0010
1000
0001
,
1001
0000
0000
0001
0010
0000
0000
0100
0010
0000
0001
0000
1000
0000
0100
0000
,
0001
0100
1000
0100
0010
0100
0001
0100
,
1000
0000
0000
0010
1000
0000
0000
0001
0100
0000
0010
0000
0100
0000
0001
0000
,
0012
0000
1000
1003
0010
0100
0001
1000
,
0100
0000
0000
0000
1000
0000
0001
0100
0001
0000
0010
0000
0100
0000
1000
0000
,
0010
0000
0000
1000
0000
0000
0002
0000
0000
0000
0023
0000
0000
0000
0130
0000
,
1000
0001
2000
0000
0010
0000
0000
0000
0001
0000
0000
0000
3100
0000
0000
0010
,
0100
0000
0001
0000
0010
0000
0100
0000
1000
0000
0010
0000
1000
0001
1000
0001
,
1000
0000
0000
0000
;

//---------------dance-double - ----------------
#NOTES:
     dance-double:
     :
     Easy:
     5:
     :
00000000
00000000
00000000
00000000
,
00000000
00000000
00000000
00000000
,
00000000
00000000
00000000
00000000
,
00000000
00000000
00000000
00000000
,
00000000
00000000
00000000
00000000
,
00100000
00000000
10000000
00000000
,
00100000
00000000
00010000
00000000
,
01000000
00000000
00001000
00000000
,
00010000
00000000
00011000
00000000
,
00000010
00000000
00000100
00000000
,
00000001
00001000
00000001
00000000
,
00000010
00000000
00000100
00000000
,
00010000
00001000
00010000
00000000
,
01000000
00000000
00100000
00000000
,
10000000
00010000
10000000
00000000
,
01000000
00000000
00100000
00000000
,
00001000
00010000
00011000
00000000
,
00000010
00000000
00001000
00000000
,
00000001
00001000
00001000
00000000
,
00000010
00000000
00000001
00000000
,
00000010
00000100
00010000
00011000
,
00100000
00000000
00010000
00000000
,
10000000
00010000
00010000
00000000
,
01000000
00000000
01000000
00000000
,
00001000
00000000
00010000
00000000
,
00000010
00000000
00000100
00000100
,
00001001
00000000
00000000
00000010
,
00000001
00000100
00001000
00000100
,
00020000
00000000
00031000
00100000
,
01000000
00010000
01000000
10000000
,
00100000
00100000
01000000
01000000
,
00001000
00001000
00010000
00010000
,
00000010
00000010
00000100
00000100
,
00000001
00001000
00000100
00010000
,
00011000
00000000
00000000
00100000
,
00010000
10000000
01000000
00010000
,
01000000
00000000
00100000
00000000
,
00001000
00010000
00001000
00010000
,
00000010
00000000
00000010
00000000
,
00001000
00000000
00000001
00000001
,
00001000
00000000
00000010
00000000
,
00010000
00000000
00001000
00000000
,
00011000
00000000
00000000
00000000
,
00000000
00000000
00000000
00000000
;

//---------------dance-double - ----------------
#NOTES:
     dance-double:
     :
     Medium:
     7:
     :
00000000
00000000
00000000
00000000
,
00000000
00000000
00000000
00000000
,
00000000
00000000
00000000
00000000
,
00000000
00000000
00000000
00000000
,
00000000
00000000
00000000
00000000
,
00100000
00010000
01000000
01000000
,
10000000
00010000
01000000
01000000
,
00002000
00003000
00020000
00030000
,
00000010
00000100
00000001
00001001
,
00001000
00000001
00001000
00000010
,
00000100
00001000
00010000
01000000
,
00100000
00010000
10000000
00100000
,
01000000
00010000
01000000
00011000
,
00000100
00000010
00000100
00000010
,
00000001
00001000
00000010
00000100
,
00001000
00010000
00100000
01000000
,
00010000
10000000
00100000
10010000
,
01000000
00100000
00010000
00100000
,
00001000
01000000
00001000
00010000
,
00000020
00001030
00002000
00003001
,
00000001
00001000
00010000
00001000
,
00000001
00001000
00000100
00000000
00001100
00000000
00000000
00000000
,
00000010
00001000
00000100
00000000
00011000
00000000
00000000
00000000
,
00100000
00000000
00010000
00000000
00010000
00000000
10000000
00200000
,
00000000
00000000
00000000
02000000
00000000
00000000
03300000
00000000
,
10000000
01000000
00010000
00001000
,
00000220
00000000
00000330
00000001
,
00000010
00000001
00000100
00000000
00000010
00001000
00000100
00000000
,
00000001
00000100
00000010
00000100
,
00001000
00000000
00010000
00000000
00100000
01000000
00010000
00000000
,
10000000
00000000
00100000
01000000
00100000
00000000
10100000
00000000
,
00010000
00000000
01000000
00001000
00010000
00000000
00011000
00000000
,
00000010
00000100
00000001
00001000
,
00000010
00001000
00000001
00000100
00000010
00000000
00000110
00000000
,
00022000
00000000
00033000
00100000
,
01000000
10000000
00010000
00000000
10000000
01000000
00100000
00000000
,
00010000
00010000
10000000
10000000
,
01000000
00000000
00010000
00000000
00001000
00010000
00001000
00000000
,
00010000
00000000
00000010
00001000
00000100
00000000
00001100
00000000
,
00000010
00000000
00000001
00001000
00000001
00000000
00000101
00000000
,
00001000
00010000
00100000
10000000
,
00010000
01000000
00100000
10000000
00100000
00000000
01100000
00000000
,
10010000
00000000
00000000
00000000
,
00000000
00000000
00000000
00000000
;

//---------------dance-double - ----------------
#NOTES:
     dance-double:
     :
     Hard:
     9:
     :
00000000
00000000
00000000
00000000
,
00000000
00000000
00000000
00000000
,
00000000
00000000
00000000
00000000
,
00000000
00000000
00000000
00000000
,
00001000
00001000
00010000
00010000
,
00000010
00001000
00000100
00000000
00001000
00000000
00001001
00000000
,
00000010
00000001
00001000
00000000
00000100
00000000
00011000
00000000
,
00100000
00010000
01000000
00000000
10000000
01000000
00010000
00000000
,
01000000
01010000
00001000
00011000
,
00000010
00000000
00000010
00000000
00000010
00001000
00000001
00001000
,
00000100
00000000
00000100
00000000
00000100
00010000
00001000
00010000
,
00001000
00000000
00001000
00000000
01000000
00100000
01000000
00010000
,
10000000
01000000
10000000
00010000
01000000
00000000
11000000
00000000
,
00010000
00000000
00001000
00000000
00000010
00000100
00000001
00000100
,
00001000
00000000
00000010
00000000
00000100
00000001
00000100
00001000
,
00010000
00000000
00100000
00000000
10000000
00010000
10000000
01000000
,
10000000
01000000
00100000
00010000
01000000
00000000
10010000
00000000
,
00100000
00000000
00001000
00000000
01000000
00001000
00010000
00000010
,
00001000
00000000
00000001
00000000
00000100
00000010
00000100
00000010
,
00001000
00000001
00000100
00000000
00000010
00001000
00000100
00000000
,
00001001
00011000
10010000
01000000
,
10000000
00000000
00100000
01000000
00010000
01000000
00100000
01000000
,
00000000
00010000
10000000
00000000
01000000
00010000
00001000
00000000
,
00000010
00000000
00000010
00000000
00000001
00000000
00001000
00000010
,
00000000
00000000
00000100
00000001
00000000
00000000
00000100
00000000
,
00000001
00000100
00000010
00000100
00000010
00001000
00000100
00000000
,
00022000
00000000
00033000
01000000
,
10000000
00100000
01000000
00000000
00010000
01000000
00001000
00000000
,
00100000
00010000
01000000
00000000
00100000
01000000
00010000
10000000
,
00000000
10100000
00000000
01100000
00000000
00011000
00000000
00000100
,
00000010
00000000
00000100
00000001
00000100
00000000
00000010
00000000
,
00001000
00000000
00000010
00000100
00001000
00000000
00010000
00000000
,
00000010
00001000
00010000
00000000
00100000
00010000
00001000
00000000
,
00100000
10000000
00100000
01000000
00010000
00000000
00011000
00000000
,
00002002
00000000
00003003
00000100
,
00001000
00010000
01000000
00000000
00010000
00001000
00000010
00000000
,
00000001
00000000
00000100
00000000
00000010
00010000
00000100
00000000
,
00001000
00000000
00000010
00001000
00000100
00010000
00010000
00000000
,
00000100
00001000
00000001
00000000
00000010
00001000
00010000
00000000
,
00100000
00010000
00100000
01000000
00100000
00000000
10000000
00000000
,
00010000
01010000
00100000
00011000
,
00000010
00001000
00000001
00000100
00001000
00000000
00011000
00000000
,
10010000
00000000
00000000
00000000
,
00000000
00000000
00000000
00000000
;
