#TITLE:SPECIAL SUMMER CAMPAIGN!;
#ARTIST:Lucky Vacuum;
#BANNER:SPECIAL SUMMER CAMPAIGN!.png;
#BACKGROUND:SPECIAL SUMMER CAMPAIGN!-bg.png;
#JACKET:SPECIAL SUMMER CAMPAIGN!-jacket.png;
#MUSIC:SPECIAL SUMMER CAMPAIGN!.ogg;
#SAMPLESTART:74.286;
#SAMPLELENGTH:20;
#DISPLAYBPM:168;
#BPMS:0=168;
#BGCHANGES:;

//---------------dance-single - ----------------
#NOTES:
     dance-single:
     :
     Beginner:
     2:
     :
0000
0000
0000
0000
,
0000
0000
0000
0000
,
0000
0000
0000
0000
,
0000
0000
0000
0000
,
0000
0000
0000
0000
,
0001
0000
0000
0000
,
0001
0000
0000
0000
,
1000
0000
1000
0000
,
1001
0000
0000
0000
,
0001
0000
0000
0000
,
0001
0000
0000
0000
,
1000
0000
0000
0000
,
1000
0000
0000
0000
,
0010
0000
0000
0000
,
0010
0000
0000
0000
,
0001
0000
0001
0000
,
1001
0000
0000
0000
,
0100
0000
0100
0000
,
0100
0000
0000
0000
,
0100
0000
0100
0000
,
0100
0000
0000
0000
,
0001
0000
0000
0000
,
1000
0000
0000
0000
,
0001
0000
0001
0000
,
1000
0000
0000
0000
,
0010
0000
0000
0000
,
0001
0000
0000
0000
,
0010
0000
0010
0000
,
0010
0000
0000
0000
,
0100
0000
0000
0000
,
1000
0000
0000
0000
,
0100
0000
0100
0000
,
0100
0000
0000
0000
,
0001
0000
0100
0000
,
0001
0000
0000
0000
,
1000
0000
0100
0000
,
1000
0000
0000
0000
,
0001
0000
1000
0000
,
0001
0000
0000
0000
,
0010
0000
0010
0000
,
0010
0000
0000
0000
,
1000
1000
1000
0000
,
0000
0000
0000
0000
,
0001
0001
0001
0000
,
0000
0000
0000
0000
,
1000
1000
1000
0000
,
0001
0001
0001
0000
,
1000
0000
1000
0000
,
0001
0000
0001
0000
,
1000
0000
0001
0000
,
1000
0000
0001
0000
,
1000
1000
1000
0000
,
1001
0000
0000
0000
,
1000
0000
1000
0000
,
1000
1000
1000
0000
,
0010
0000
0000
0000
,
0100
0000
0000
0000
,
0001
0000
0001
0000
,
0001
0001
0001
0000
,
0010
0000
0000
0000
,
0100
0000
0000
0000
,
1000
0000
1000
0000
,
1000
1000
1000
0000
,
0010
0000
0000
0000
,
0100
0000
0000
0000
,
0001
0000
0001
0000
,
0001
0000
0000
0000
,
0100
0000
0100
0100
,
0100
0000
0000
0000
,
1001
0000
0000
0000
,
0000
0000
0000
0000
;

//---------------dance-single - ----------------
#NOTES:
     dance-single:
     :
     Easy:
     7:
     :
0000
0000
0000
0000
,
0000
0000
0000
0000
,
0000
0000
0000
0000
,
0000
0000
0000
0000
,
0000
0000
0000
0000
,
1001
0000
0000
0000
,
1001
0000
0000
0000
,
1001
0000
1001
0000
,
1001
1001
1001
0000
,
0110
0000
0000
0000
,
0110
0000
0110
0110
,
0110
0000
0000
0000
,
0110
0000
0110
0110
,
0110
0000
0100
0000
,
1001
0000
0001
0000
,
0110
0000
1001
0000
,
0110
0110
0110
0000
,
0001
1000
0001
0100
,
0001
1000
0001
0000
,
0010
1000
0001
1000
,
0100
0001
0010
0000
,
1000
1000
1000
1000
,
0001
0001
0001
0001
,
0100
0100
0010
0010
,
0220
0330
0220
0330
,
1000
0100
0010
0100
,
1000
0100
0010
0001
,
0001
0100
0010
0100
,
0001
0100
0010
1000
,
0001
0100
1000
0100
,
0001
0100
1000
0010
,
0001
0000
0100
0000
0010
0000
0100
0010
,
0100
0001
1000
0000
,
1001
1000
0001
0100
,
0010
0001
0100
0010
,
0110
0001
0100
1000
,
0001
0010
0100
1000
,
1001
0100
0001
0010
,
1001
0100
1000
0010
,
0110
0000
1001
0000
,
0110
0110
0110
0000
,
0001
0001
1001
0000
,
0000
0000
0000
0000
,
0100
0100
0110
0000
,
0000
0000
0000
0000
,
1000
1000
1100
0000
,
0001
0001
0101
0000
,
1001
0000
0110
0000
,
1001
0000
0110
0000
,
1001
1001
1001
1001
,
0110
0110
0110
0110
,
1001
0000
1001
0000
1000
0001
1000
0001
,
1000
0000
0000
0000
,
1000
1000
0100
0010
,
0001
0001
0100
0010
,
2000
0100
3002
0100
,
2003
0010
3001
0000
,
1000
1000
0010
0100
,
0001
0001
0010
0100
,
0110
0000
1100
0000
,
0101
0000
1001
0000
,
0100
0100
0001
1000
,
0010
0010
1000
0001
,
2000
0100
0001
0010
,
3002
0100
1000
0010
,
1003
0001
0010
0100
,
0010
0010
0100
0010
,
1000
0100
0001
0100
,
0010
0010
0110
0000
,
1001
0000
0000
0000
,
0000
0000
0000
0000
;

//---------------dance-single - ----------------
#NOTES:
     dance-single:
     :
     Medium:
     11:
     :
0000
0000
0000
0000
,
0000
0000
0000
0000
,
0000
0000
0000
0000
,
0000
0000
0000
0000
,
0000
0000
0000
0000
,
0011
0000
0000
0000
0100
0000
0100
0010
,
1010
0000
0000
0000
0100
0000
0100
0010
,
0011
0000
1010
0000
,
0012
0000
0000
1000
0000
0000
0103
0000
0000
0000
0100
0000
0010
0000
0000
0000
,
0110
0000
0000
0000
1000
0000
1000
0100
,
0110
0001
0101
1100
,
0110
0000
0000
0000
0001
0000
0001
0100
,
0110
0000
1000
0000
1000
0010
0001
0010
,
1000
0000
0000
0000
1000
0000
1000
0010
,
0110
0000
0000
0000
0001
0000
0001
0010
,
0110
1000
1001
0001
,
0010
0000
0000
1010
0000
0000
1001
0000
0000
0000
0100
0000
0010
0000
0000
0000
,
0001
0000
0010
0000
0001
0000
0000
0000
0001
0000
0000
0010
0000
0000
0001
0000
,
1000
0000
0010
0000
1000
0000
0000
0000
1000
0000
0000
0010
0000
0000
1000
0000
,
0001
0000
0100
0000
0001
0000
0000
0000
0001
0000
0000
0100
0000
0000
0001
0000
,
2000
0000
3010
0100
0010
1000
0100
0000
,
0010
0110
0110
0110
,
0001
0110
0110
0110
,
0001
1100
0001
1010
,
0001
0000
0000
0010
0000
0000
1001
0000
0000
0000
0100
0000
0010
0000
0000
0000
,
1000
0100
1000
0001
,
0010
0000
0100
0000
0010
0001
1000
0000
,
0001
0100
0010
0100
,
1000
0000
0100
0000
1000
0001
0010
0000
,
0001
0000
0100
0000
0010
1000
0001
0000
,
0010
0000
0100
0000
0010
0001
1000
0000
,
0010
0000
0100
0000
0001
0000
1000
0100
,
0010
0000
0100
1000
0001
0100
0010
1000
,
0002
0000
0100
0103
0001
1000
0100
0000
,
0010
0001
1000
0000
0001
0100
0010
0000
,
2000
0000
0100
3100
1000
0001
0100
0000
,
0001
1000
0100
0000
1000
0010
0100
0000
,
0002
0000
0103
0010
1000
0010
0100
0010
,
2000
0000
3001
0100
0010
0100
0001
0000
,
1001
1000
1010
0001
,
0011
0000
0000
0001
0000
0000
1000
0000
0000
0000
0100
0000
0010
0000
0100
0000
,
0110
0101
2200
3300
,
0000
0000
0000
0000
,
0011
0101
2020
3030
,
0000
0000
0000
0000
,
1100
0101
0022
0033
,
0101
1100
2020
3030
,
2100
3010
0102
0013
,
1200
0310
0201
0310
,
1000
0001
1000
0001
0010
0100
0010
0100
,
1000
0010
1000
0010
0001
0010
0001
0010
,
1000
0100
0010
0001
0200
0000
0310
0010
,
0110
0000
0000
0000
,
1001
0000
0100
0000
0010
0001
1000
0000
,
0010
0000
0100
0000
0001
1000
0100
0000
,
0010
0000
0000
0010
0000
0000
0010
0000
0001
0000
0000
0001
0000
0000
0001
0000
,
0100
0000
0000
0100
0000
0000
0100
0000
0010
0000
0000
0010
0000
0000
0010
0000
,
1000
0000
0101
0000
0100
1000
0010
0000
,
0100
0000
1010
0000
0100
1000
0010
0100
,
0001
0000
0000
0001
0000
0000
0001
0000
0000
0100
0000
0000
0001
0000
1000
0000
,
0010
0000
0000
0100
0000
0000
0100
0000
0000
0001
0000
0000
0010
0000
0100
0000
,
1000
0000
0010
0100
0000
0010
1000
0001
,
0010
0000
0100
0010
0000
0001
1000
0010
,
0100
0000
0000
0100
0000
0000
0010
0000
1000
0000
0000
1000
0000
0000
0001
0000
,
0010
0000
0000
0100
0000
0000
1000
0000
0010
0000
0000
0100
0000
0000
0001
0000
,
0020
0000
0100
0000
0031
2000
0000
0010
,
0000
0000
3010
0000
0000
0000
0100
0000
0001
0000
0000
0010
0000
0000
0100
0000
,
1000
0000
0000
0001
0000
0000
0001
0000
1000
0000
0000
0100
0000
0000
0100
0000
,
0010
0001
0100
1000
,
1001
0000
0000
0000
,
0000
0000
0000
0000
;

//---------------dance-single - ----------------
#NOTES:
     dance-single:
     :
     Hard:
     15:
     :
0000
0000
0000
0000
,
0000
0000
0000
0000
,
0000
0000
0000
0000
,
0000
0000
0000
0000
,
0000
0000
0000
0000
,
1010
0000
0000
0000
0100
0000
0000
0000
0100
0000
0000
0000
0100
0000
0001
0010
,
0100
0000
0000
0000
0100
0000
0000
0000
0100
0000
0000
0000
0100
0000
1000
0010
,
0100
0000
0001
0010
1100
0000
1000
0010
,
0101
0000
0000
0001
0000
0000
1000
0000
0000
0000
0100
0000
0110
0000
0000
0000
,
1002
0000
0100
0000
0103
0000
1000
0001
,
2100
0000
3001
0000
0101
0000
0100
0001
,
2010
0000
0000
0000
0100
0000
0000
0000
3100
0000
0000
0000
0001
0000
1000
0010
,
0100
0000
0000
0100
0010
0000
0100
0000
0001
0000
1000
0100
0010
0000
0001
0000
,
0012
0000
0000
0000
0100
0000
0000
0000
0103
0000
0000
0000
0001
0000
0010
0100
,
2000
0000
0000
0000
0100
0000
0000
0000
3100
0000
0000
0000
0001
0000
1000
0010
,
0100
0000
0000
0010
0100
0000
0001
0000
0101
0000
0000
0010
0100
0000
1000
0000
,
1100
0000
0000
1001
0000
0000
0011
0000
0100
0000
0001
1000
0010
0000
0000
0000
,
1000
0000
0010
0000
1000
0010
0000
0010
0100
0000
0001
0010
0000
0010
0100
0000
,
0010
0000
0001
0000
0010
0001
0000
0001
0100
0000
0010
1000
0000
1000
0100
0000
,
0010
0000
0001
0000
1000
0001
0000
0001
0100
0000
0010
1000
0000
1000
0001
0000
,
0010
0100
0010
0001
1000
0010
0100
0010
,
1010
0000
0000
0000
0101
0000
0000
0000
1010
0000
0000
0000
0101
0000
1000
0100
,
0010
0000
0000
0000
1100
0000
0000
0000
0011
0000
0000
0000
1100
0000
0001
0100
,
0010
0000
0000
0000
0101
0000
1000
0100
0010
0000
0000
0000
1100
0000
0001
1000
,
0010
0000
0000
0101
0000
0000
1001
0000
0100
0000
0010
1000
0001
0000
0000
0000
,
1000
0100
0010
0100
1000
0100
0010
0100
,
0001
0010
0100
0010
0001
0010
0100
0010
,
1000
0001
0100
0001
1000
0001
0100
0001
,
0010
1000
0100
1000
0010
1000
0100
1000
,
0010
0001
1000
0001
0010
0001
1000
0001
,
0100
1000
0010
1000
0100
1000
0010
1000
,
0100
0001
1000
0001
0100
0001
1000
0001
,
0010
1000
0010
0001
0100
1000
0100
0001
,
0021
0000
0130
1000
0010
0010
0001
0100
,
1000
0100
1000
0001
0010
0001
0010
1000
,
2010
0000
3100
0010
0001
0001
0100
1000
,
0010
0100
0010
0100
0001
1000
0001
1000
,
1200
0000
0310
0001
0100
0100
1000
0010
,
1020
0000
0130
0001
0010
0010
1000
0100
,
0201
0000
1300
0010
0021
0000
1030
0100
,
1200
0000
0000
0010
0000
0000
0301
0000
0000
0000
0100
0000
0010
0000
0001
1000
,
0010
0000
0000
0000
1001
0000
0000
0000
0202
0000
0000
0000
0303
0000
0010
0001
,
0100
0000
0100
0000
1000
0000
0010
0000
0200
0000
0000
0000
0000
0000
0310
1000
,
0100
0000
0000
0000
1001
0000
0000
0000
0022
0000
0000
0000
0033
0000
0100
1000
,
0010
0000
0010
0000
0001
0000
0100
0000
0020
0000
0000
0000
0000
0000
0130
0001
,
1000
0000
0000
0000
0110
0000
0000
0000
0102
0000
0000
0000
0013
0000
0100
0010
,
0001
0000
0000
0000
0110
0000
0000
0000
2100
0000
0000
0000
3010
0000
0100
0001
,
1000
0000
0001
0000
0010
0000
0100
1000
0001
0000
1000
0000
0010
0000
0100
0001
,
1000
0000
0001
0000
0010
0000
0100
1000
0001
0000
1000
0000
0010
0000
0100
0001
,
1000
0000
1000
0100
0010
0000
0010
0001
0100
0000
0100
0010
1000
0000
1000
0001
,
0010
0000
0010
0100
1000
0000
1000
0010
0100
0000
0100
0001
0010
0000
0010
0001
,
1000
0100
0010
0001
1000
0100
0010
0001
0200
0000
0000
0300
0010
0100
0001
1000
,
0020
0000
0000
0130
,
1000
0000
0010
1000
0000
0010
0000
0100
0001
0000
0000
1000
0100
0000
0010
0000
,
0001
0000
0100
0001
0000
0100
0000
0010
1000
0000
0000
0001
0010
0000
0100
0000
,
0010
0000
0010
0001
1000
0000
0010
0000
0100
0000
0100
0001
1000
0000
0100
0000
,
0010
0000
0010
0001
1000
0000
0010
0000
0100
0001
0100
0001
1000
0010
0000
0010
,
0100
0000
0001
0100
0000
0001
0000
0010
0100
0000
0000
1000
0010
0000
0100
0000
,
0010
0000
1000
0100
0000
1000
0000
0010
0100
0000
0000
0001
0100
0000
0010
0000
,
1000
0000
1000
0010
0100
0000
0100
0000
0001
0000
0001
0010
0100
0000
0100
0000
,
1000
0000
1000
0010
0100
0010
0100
0001
1000
0010
1000
0010
0100
0010
0000
0010
,
1000
0000
0100
1000
0100
1000
0000
1000
0001
0000
0100
0001
1000
0000
0010
0000
,
0100
0000
0001
0100
0001
0100
0000
0100
0010
0000
1000
0001
0100
0000
0010
0000
,
0100
0000
0100
0001
0010
0000
0010
0000
0100
0000
0100
1000
0010
0000
0010
0000
,
0100
0000
0100
0001
0010
0001
0000
0001
0100
0010
0100
0010
1000
0100
0000
0010
,
0002
0000
0000
0003
0200
0000
0000
0310
1000
0000
0100
0000
0010
0000
0001
0000
,
0100
0000
1000
0000
0100
0000
0001
0000
0010
0000
0000
0100
0010
0000
0100
0000
,
1000
0000
1000
0100
0010
0000
0010
0000
0001
0000
0001
0100
0010
0000
0010
0000
,
2000
3200
0302
0013
,
1001
0000
0000
0000
,
0000
0000
0000
0000
;

//---------------dance-single - ----------------
#NOTES:
     dance-single:
     :
     Challenge:
     17:
     :
0000
0000
0000
0000
,
0000
0000
0000
0000
,
0000
0000
0000
0000
,
0000
0000
0000
0000
,
0000
0000
0000
0000
,
0010
0000
0001
1000
0000
1100
0000
2200
0000
0000
3300
0000
0010
0000
0100
0000
,
0001
0000
0010
0100
0000
1000
0000
1001
0000
1001
0000
0010
0100
0000
0001
0000
,
0010
0000
0001
1000
0000
0101
0000
0202
0000
0000
0303
0000
1000
0000
0100
0000
,
1001
0000
0000
0110
0000
0000
1001
0000
0011
0000
0110
0000
1100
0000
0000
0000
,
0010
0000
1000
0001
0000
1010
0000
2020
0000
0000
3030
0000
0100
0000
0001
0000
,
0010
0000
0100
1000
0000
0001
0000
0011
0000
0011
0000
0010
0001
0000
0100
0000
,
0010
0000
1000
0100
0000
0110
0000
0220
0000
0000
0330
0000
0010
0000
0001
0000
,
0200
0000
0000
0302
0000
0000
2003
0000
3020
0000
0230
0000
0302
0000
2003
0000
,
3010
0000
1000
0001
0000
0100
0000
0101
0000
0101
0000
0010
1000
0000
0001
0100
,
0001
0000
0010
0100
0000
1100
0000
1100
0000
0010
1000
0000
0001
0000
1000
0100
,
2000
0000
0000
3020
0000
0000
0230
0000
0302
0000
0000
0023
0000
0000
0130
0000
,
1100
0000
0000
0101
0000
0000
1001
0000
0011
0000
0110
0000
1100
0000
0000
0000
,
0010
0000
1000
0000
0100
0010
0001
0010
0100
1000
0010
1000
0100
0010
0001
0000
,
0100
0000
0001
0000
1000
0010
1000
0001
1000
0100
0010
0001
0010
0100
1000
0000
,
0010
0000
0100
0000
0010
1000
0001
1000
0100
0010
0001
0010
0001
1000
0100
0000
,
1100
0110
0011
0110
1100
1010
1001
0000
,
0110
0000
0001
0000
0010
0100
1000
0010
1000
0001
1000
0100
0010
0001
0100
0000
,
0110
0000
0010
0000
1000
0100
1000
0001
0010
0100
1000
0001
0100
0001
0010
0000
,
0110
0000
0100
0000
1000
0010
0100
0001
0010
0001
1000
0001
0100
0010
1000
0000
,
1010
0000
0000
1001
0000
0000
0101
0000
0000
0000
0001
0010
1000
0000
0000
0000
,
2000
0001
3020
1000
0230
0010
0302
0100
,
0023
0001
0230
0010
2300
0100
3002
1000
,
0023
0100
2030
0001
3200
1000
0302
0010
,
2003
0010
3002
0100
0023
0001
0230
1000
,
0302
1000
0023
0100
2030
0001
3200
0010
,
2300
0100
3002
0010
0203
0001
0320
1000
,
0230
0010
0302
1000
0023
0001
2030
0100
,
3002
0010
0203
0001
2300
0100
3020
1000
,
0130
0001
0101
0101
0000
1010
0000
1100
,
0000
0110
0000
0011
0000
1001
0000
1010
,
1010
0000
0101
1100
0000
1001
0000
0011
,
0000
0110
1100
0110
0000
1010
0000
0101
,
1001
0000
1100
0011
0000
1001
0000
0011
,
0110
0000
0101
1010
0000
0110
0000
1001
,
0110
0000
1010
1100
0000
1001
0101
0011
,
0110
0000
0000
1100
0000
0000
0101
0000
1001
0000
1001
0000
0110
0000
0110
0000
,
1001
0000
0000
0000
1001
0000
0000
0000
1001
0000
0000
0000
0000
0000
0001
0100
,
2000
3002
2003
3020
0230
0000
0300
1000
,
0110
0000
0000
0000
0110
0000
0000
0000
0110
0000
0000
0000
0000
0000
0010
1000
,
0002
2003
3200
0320
0032
0000
0003
0010
,
0101
0000
0000
0000
0101
0000
0000
0000
0101
0000
0001
0010
1000
0000
0100
0000
,
1100
0000
0000
0000
1100
0000
0000
0000
1100
0000
0010
0100
0001
0000
1000
0000
,
1010
0101
1100
0011
,
0101
1100
0011
1010
,
1001
1001
0110
0110
,
1001
0110
1001
0110
,
1100
0000
0011
0000
1100
0000
0011
0000
1000
0010
0100
0001
1000
0100
0010
0001
,
0100
0000
0010
0000
1000
0000
0001
0100
0000
0100
1000
0000
0010
0000
0100
0000
,
0010
0000
1000
0100
1000
0010
0100
0001
0000
0010
0000
0001
1000
0000
0100
0000
,
0010
0000
0100
1000
0010
0100
0001
1000
0000
0001
0000
0100
0001
0000
0010
0000
,
0011
0000
1000
0010
0000
0100
0001
0000
1010
0000
0100
0010
0000
1000
0001
0000
,
1100
0000
0001
0010
0000
0100
1000
0000
0101
0000
0010
1000
0000
0100
0001
0000
,
0010
0001
0010
0100
1000
0010
1000
0001
0000
0100
0000
0010
0100
0000
0001
0000
,
1000
0010
0100
0010
1000
0100
0010
0001
0000
1000
0000
0001
0100
0000
0001
0000
,
1001
0000
0010
1000
0000
1000
0100
0000
0100
0010
0000
0010
0001
0000
0100
0000
,
0110
0000
0010
1000
0000
1000
0100
0000
0100
0010
0000
0010
0001
0000
0100
0000
,
0010
1000
0010
0100
0010
1000
0001
0010
0001
0100
0000
0100
0001
0000
1000
0000
,
0100
0010
0100
1000
0010
0100
0001
1000
0000
0010
0000
0100
0001
1000
0010
0000
,
1010
0000
0100
0001
0000
0010
1000
0000
0101
0000
0010
0100
0000
0001
1000
0000
,
1100
0000
1000
0001
0000
0010
0100
0000
0011
0000
0001
0010
0000
0100
1000
0000
,
2010
0000
3002
0000
0103
0100
0010
0110
,
0000
0000
1001
0000
0000
0000
0011
0000
1001
0000
0000
0101
0000
0000
0011
0000
,
1001
0000
0010
1000
0000
0010
1000
0000
1001
0000
0100
0001
0000
0100
0001
0000
,
0011
1100
0101
1010
,
0110
0000
0000
0000
;

//---------------dance-double - ----------------
#NOTES:
     dance-double:
     :
     Easy:
     7:
     :
00000000
00000000
00000000
00000000
,
00000000
00000000
00000000
00000000
,
00000000
00000000
00000000
00000000
,
00000000
00000000
00000000
00000000
,
00000000
00000000
00000000
00000000
,
00011000
00000000
00000000
00000000
,
01100000
00000000
00000000
00000000
,
00011000
00000000
00000000
00000000
,
00000220
00000000
00000330
00000000
,
00011000
00000000
00000000
00000000
,
01100000
00000000
00010000
00000000
,
00011000
00000000
00000000
00000000
,
00000110
00000000
00001000
00000000
,
00011000
00000000
00000000
00000000
,
01100000
00000000
00010000
00000000
,
00011000
00000000
00001000
00000000
,
00000220
00000000
00000330
00000000
,
00000001
00000000
00000100
00000000
,
00010000
00000000
01000000
00000000
,
10000000
00000000
00100000
00000000
,
00001000
00000000
00000010
00000000
,
00000001
00000001
00000001
00000000
,
00000100
00000100
00000100
00000000
,
00001000
00001000
00010000
00010000
,
00022000
00000000
00000000
00033000
,
00100000
00010000
00100000
00000000
,
00001000
00010000
00001000
00010000
,
00000010
00001000
00000010
00000000
,
00010000
00001000
00010000
00001000
,
01000000
00010000
01000000
00000000
,
00001000
00010000
00001000
00010000
,
00000100
00001000
00000100
00000000
,
00010000
00001000
00011000
00000000
,
00100000
10000000
01000000
00010000
,
00100000
00010000
01000000
10000000
,
00100000
00010000
01000000
00001000
,
00010000
00000100
00001000
00000010
,
00000001
00000100
00001000
00000010
,
00001000
00000100
00000001
00000010
,
00001000
00000100
00000010
00001000
,
00010000
00001000
00011000
00000000
,
01100000
01100000
01100000
00000000
,
00000000
00000000
00000000
00000000
,
00000110
00000110
00000110
00000000
,
00000000
00000000
00000000
00000000
,
01100000
01100000
01100000
00000000
,
00000110
00000110
00000110
00000000
,
00001001
00000000
00001001
00000000
,
00011000
00000000
00011000
00000000
,
10010000
00000000
10010000
00000000
,
00011000
00000000
00011000
00000000
,
00001001
00000000
00000000
00000000
00001000
00000001
00001000
00000001
,
00001000
00000000
00000000
00000000
,
00000001
00000100
00000001
00000100
,
00000010
00010000
00000010
00010000
,
00001000
01000000
00100000
10000000
,
00010000
01000000
00001000
00000000
,
10000000
01000000
10000000
01000000
,
00100000
00001000
00100000
00001000
,
00010000
00000100
00000010
00000001
,
00000100
00001000
00010000
00000000
,
00001000
01000000
00010000
00001000
,
00010000
00000100
00001000
00010000
,
02000000
00100000
03010000
00001000
,
00000200
00000010
00001300
00010000
,
00011000
00011000
00100000
01000000
,
10010000
10010000
01000000
00100000
,
00011000
00011000
00000100
00000010
,
00001001
00001001
00000110
00000000
,
00011000
00000000
00000000
00000000
,
00000000
00000000
00000000
00000000
;

//---------------dance-double - ----------------
#NOTES:
     dance-double:
     :
     Medium:
     12:
     :
00000000
00000000
00000000
00000000
,
00000000
00000000
00000000
00000000
,
00000000
00000000
00000000
00000000
,
00000000
00000000
00000000
00000000
,
00000000
00000000
00000000
00000000
,
00101000
00010000
00010000
00010000
,
00010100
00001000
00001000
00001000
,
01001000
00010000
00110000
00010000
,
01100000
00000000
00000000
01100000
00000000
00000000
01100000
00000000
00000000
00000000
10000000
00000000
00010000
00000000
00000000
00000000
,
00110000
00001000
00001000
00001000
,
00001100
00010000
00011000
01001000
,
01010000
00001000
00001000
00001000
,
00001010
00000100
00000011
00001100
,
00001010
00010000
00010000
00010000
,
11000000
00001000
00001000
00001000
,
00000101
00000010
00011000
01000000
,
11000000
00000000
00000000
11000000
00000000
00000000
10010000
00000000
00000000
00000000
01000000
00000000
00100000
00000000
00000000
00000000
,
10000000
00000000
01000000
00000000
00010000
00000000
00000000
00000000
00010000
00000000
00000000
01000000
00000000
00000000
10000000
00000000
,
01000000
00000000
00010000
00000000
00001000
00000000
00000000
00000000
00000100
00000000
00000000
00001000
00000000
00000000
00010000
00000000
,
00001000
00000000
00000100
00000000
00000001
00000000
00000000
00000000
00000001
00000000
00000000
00000100
00000000
00000000
00001000
00000000
,
00020000
02030000
23000000
30200000
,
00310000
00010010
00010010
00010010
,
00011000
00101000
00101000
00101000
,
11000000
00010000
01001000
00010000
,
00001100
00000000
00000000
00001100
00000000
00000000
00001001
00000000
00000000
00000000
00000100
00000000
00000010
00000000
00000000
00000000
,
00000001
00000100
00001000
00000100
,
00000001
00000100
00000010
00000000
00000010
00000100
00001000
00000000
,
00010000
01000000
10000000
01000000
,
00010000
00001000
01000000
00000000
01000000
00010000
00100000
00000000
,
10000000
00100000
00010000
00100000
,
10000000
00100000
01000000
00000000
01000000
00100000
00010000
00000000
,
00001000
00000000
00000010
00000000
00000001
00000000
00000010
00000100
,
00001000
00000000
00010000
00000000
00001000
00000010
00000100
00000000
,
00002000
00000001
00000100
00003010
,
00020000
00000100
00001000
00130000
,
00002000
00000100
00010000
01003000
,
00020000
10000000
00100000
00031000
,
00000200
00000001
00001000
00000301
,
00000200
00010000
00000001
00010300
,
00001000
00100000
10000000
01000000
,
00100000
00000000
00000000
00100000
00000000
00000000
00100000
00000000
00000000
00000000
01000000
00000000
10010000
00000000
00000000
00000000
,
11000000
00110000
02002000
03003000
,
00000000
00000000
00000000
00000000
,
00000011
00001100
00020020
00030030
,
00000000
00000000
00000000
00000000
,
11000000
01010000
00011000
00000000
,
00000101
00001100
00011000
00000000
,
01200000
00301000
00010020
00000130
,
00002100
00013000
01020000
00031000
,
00000110
00000001
00001000
00010000
,
01100000
10000000
00010000
00001000
,
00000010
00000100
00001000
00010000
00200000
00000000
00300000
00000000
,
10010000
00000000
00000000
00000000
,
10000000
00000000
00000000
10000000
01000000
00000000
00000000
01000000
00020000
00000000
00000000
00000000
01000000
00000000
00000000
00000000
,
00031000
00000000
00000000
00001000
00000100
00000000
00000000
00000100
00000002
00000000
00000000
00000000
00000010
00000000
00000000
00000000
,
00000103
00000000
00000000
00000100
00000000
00000000
00000100
00000000
00001000
00000000
00000000
00001000
00000000
00000000
00001000
00000000
,
00010000
00000000
00000000
00010000
00000000
00000000
00010000
00000000
01000000
00000000
00000000
01000000
00000000
00000000
01000000
00000000
,
10000000
00000000
00000000
10000000
00100000
00000000
00000000
00100000
00020000
00000000
00000000
00000000
00001000
00000000
00000000
00000000
,
00030100
00000000
00000000
00000100
00001000
00000000
00000000
00001000
00000020
00000000
00000000
00000000
00000001
00000000
00000000
00000000
,
00001030
00000000
00000000
00001000
00000000
00000000
00001000
00000000
00000000
00100000
00000000
00000000
00100000
00000000
00100000
00000000
,
00010000
00000000
00000000
00010000
00000000
00000000
00010000
00000000
00000000
00000010
00000000
00000000
00000010
00000000
00000010
00000000
,
00000100
00000000
00000000
00000001
00000010
00000000
00000000
00000010
00002000
00000000
00000000
00000000
00013000
00000000
00000000
00000000
,
01000000
00000000
00000000
10000000
00100000
00000000
00000000
00100000
00020000
00000000
00000000
00000000
00031000
00000000
00000000
00000000
,
00000010
00000000
00000000
00001000
00000000
00000000
00010000
00000000
00001000
00000000
00000000
00010000
00000000
00000000
01000000
00000000
,
00100000
00000000
00000000
00010000
00000000
00000000
00001000
00000000
00010000
00000000
00000000
00001000
00000000
00000000
00000100
00000000
,
00000020
00000001
00000100
00001030
,
00010000
00001000
00101000
01010000
,
00100000
10000000
01000000
00010000
01000000
10000000
00100000
00010000
,
00100000
00010000
00001000
00000010
,
00001001
00000000
00000000
00000000
,
00000000
00000000
00000000
00000000
;

//---------------dance-double - ----------------
#NOTES:
     dance-double:
     :
     Hard:
     15:
     :
00000000
00000000
00000000
00000000
,
00000000
00000000
00000000
00000000
,
00000000
00000000
00000000
00000000
,
00000000
00000000
00000000
00000000
,
00000000
00000000
00000000
00000000
,
00000010
00000000
00000010
00000100
00000000
00001000
00000000
00002000
00000000
00000000
00000000
00000000
00010000
00000000
00013000
00000000
,
01000000
00000000
01000000
00100000
00000000
00010000
00000000
10000000
00000000
10000000
00000000
00010000
10000000
00000000
01000000
00000000
,
00100000
00000000
00100000
01000000
00000000
00010000
00000000
00020000
00000000
00000000
00000000
00000000
00001000
00000000
00031000
00000000
,
00011000
00000000
00000000
00001010
00000000
00000000
00001001
00000000
00000000
00000000
00000100
00000000
00000110
00000000
00000000
00000000
,
00001000
00000000
00001000
00000001
00000000
00000010
00000000
00000200
00000000
00000000
00000000
00000000
00010300
00000000
00001000
00000000
,
00100000
00000000
00100000
00010000
00000000
01000000
00000000
00100000
00000000
00100000
00000000
00100000
00010000
00000000
00001000
00000000
,
00000010
00000000
00000010
00000100
00000000
00010000
00000000
00002000
00000000
00000000
00000000
00000000
01003000
00000000
00010000
00000000
,
00200000
00000000
00000000
00001000
00000000
00000000
10300000
00000000
00100000
00000000
01000000
00100000
01000000
00000000
00010000
00000000
,
00001000
00000000
00010000
00000100
00000000
00000010
00000000
00000001
00000000
00000001
00000000
00000001
00000100
00000000
00000010
00010000
,
00001000
00000000
00001000
01000000
00000000
01000000
00000000
00100000
00000000
00100000
10000000
00000000
00010000
00000000
00100000
00010000
,
01000000
00000000
00000000
01100000
00000000
00000000
10000000
00000000
10010000
00000000
00000000
01000000
00000000
00000000
00010000
00000000
,
00011000
00000000
00000000
00011000
00000000
00000000
00011000
00000000
00000000
00000000
00001000
00010000
00000010
00000000
00000000
00000000
,
00000100
00000000
00000001
00000000
00000100
00000001
00000000
00001000
00000001
00000000
00000010
00000001
00000000
00001000
00000001
00000000
,
00000010
00000000
00001000
00000000
00010000
01000000
00000000
10000000
01000000
00000000
00010000
01000000
00000000
00010000
00001000
00000000
,
01000000
00000000
00100000
00000000
10000000
01000000
00000000
10000000
00010000
00000000
10000000
00100000
00000000
10000000
01000000
00000000
,
00100000
00001000
00010000
00000010
00001000
00010000
00200000
00000000
,
01300000
00000000
10000000
00000000
00010000
01000000
00000000
00001000
00100000
00000000
00001000
00010000
00000000
00000100
00010000
00000000
,
00001000
00000000
00000100
00000000
00000001
00000010
00000000
00001000
00000010
00000000
00000001
00000010
00000000
00000100
00001000
00000000
,
00010000
00000000
00100000
00000000
01000000
10000000
00000000
00010000
01000000
00000000
00100000
00010000
00000000
00001000
00010000
00000000
,
00011000
00000000
00000000
00011000
00000000
00000000
00011000
00000000
00000000
00000000
00010000
00001000
00000010
00000000
00000000
00000000
,
00000001
00000100
00001000
00000010
,
00000001
00000100
00001000
00010000
00001000
00000010
00000001
00000000
,
00000100
00001000
00010000
00100000
,
10000000
01000000
00010000
00001000
00010000
00100000
10000000
00000000
,
01000000
00010000
00100000
10000000
,
01000000
00010000
00001000
00000100
00001000
00010000
01000000
00000000
,
00100000
00000000
00010000
00000000
00001000
00000000
00000010
00000100
,
00000001
00000000
00000001
00000100
00001000
00010000
00100000
00000000
,
10000000
00100000
10000000
00100000
00010000
00100000
00010000
00100000
,
10000000
00010000
00100000
00001000
00010000
00000010
00001000
00000000
,
00000001
00000100
00000001
00000100
00001000
00000100
00001000
00000100
,
00000001
00001000
00000010
00010000
00001000
00100000
00010000
00000000
,
10000000
01000000
00010000
00001000
00100000
00010000
00001000
00000100
,
00000001
00000100
00001000
00010000
00000010
00001000
00010000
00100000
,
10000000
00100000
01000000
00001000
00010000
00000100
00000010
00000001
,
00000011
00000000
00000000
00001001
00000000
00000000
00000101
00000000
00000000
00000000
00000100
00000000
00000010
00000000
00001000
00000001
,
00001000
00000000
00000000
00000000
00000110
00000000
00000000
00000000
00022000
00000000
00000000
00000000
00033000
00000000
00010000
00000100
,
00001000
00000000
00000010
00000000
00010000
00000000
00001000
00000000
02000000
00000000
00000000
00000000
00000000
00000000
03010000
10000000
,
00010000
00000000
00000000
00000000
01100000
00000000
00000000
00000000
00022000
00000000
00000000
00000000
00033000
00000000
00001000
01000000
,
00100000
00000000
00010000
00000000
00001000
00000000
00000010
00000000
00000200
00000000
00000000
00000000
00000000
00000000
00001300
00000001
,
00000010
00000000
00000000
00000000
00001100
00000000
00000000
00000000
00012000
00000000
00000000
00000000
00103000
00000000
00010000
10000000
,
00100000
00000000
00000000
00000000
01010000
00000000
00000000
00000000
00021000
00000000
00000000
00000000
00030010
00000000
00001000
00000001
,
00001000
00010010
00011000
00101000
,
10010000
01010000
00011000
00010100
,
00001001
00011000
10010000
00011000
,
00001001
00011000
10010000
00011000
,
00000001
00000000
00001000
00000000
00010000
00000000
10000000
00000000
02000000
00000000
00000000
00000000
03010000
00001000
00010000
00001000
,
00000020
00000000
00000000
00000000
00000000
00000030
00000110
00000000
,
00000001
00000000
00000100
00000001
00001000
00000001
00000000
00001000
00000100
00000000
00000000
00000010
00000001
00000000
00000100
00000000
,
00001000
00000000
00010000
00001000
00100000
00001000
00000000
00100000
01000000
00000000
00000000
00100000
00010000
00000000
10000000
00000000
,
01010000
00000000
00010000
10000000
00100000
00000000
00010000
00000000
00011000
00000000
00001000
00010000
00000100
00000000
00000010
00000000
,
00000011
00000000
00000001
00000100
00000010
00000000
00010000
00000000
00011000
00000000
00001000
01000000
00010000
00000000
00100000
00000000
,
01000000
00000000
10000000
00010000
00100000
00001000
00000000
01000000
00010000
00000000
00000000
00100000
00001000
00000000
00010000
00000000
,
00000100
00000000
00001000
00000010
00000100
00000001
00000000
00001000
00000010
00000000
00000000
00000100
00000001
00000000
00000010
00000000
,
00000110
00000000
00000000
00010000
00001000
00000000
00000100
00000000
00001000
00010000
00000000
01000000
10000000
00000000
00010000
00000000
,
10010000
00000000
00000000
11000000
00000000
00000000
01010000
00000000
00000000
00011000
00000000
00000000
00001010
00000000
00000101
00000000
,
00000010
00000000
00000001
00000100
00000010
00000100
00000000
00000010
00001000
00000000
00000000
00010000
00100000
00000000
01000000
00000000
,
10000000
00000000
00100000
01000000
00100000
00010000
00000000
00010000
00001000
00000000
00000000
00001000
00000010
00000000
00000001
00000000
,
00000100
00000000
00001000
00000100
00001000
00000000
00000100
00000000
00000010
00000000
00010000
00001000
00010000
00000000
00001000
00000000
,
00100000
00000000
01000000
00100000
01000000
00000000
00100000
00000000
00010000
01000000
00100000
01000000
00010000
10000000
01000000
00100000
,
00020000
00000000
00000000
00000000
00031000
00000000
00000000
00001000
00000010
00000000
00000100
00000000
00000010
00000000
00001000
00000000
,
00000001
00000000
00001000
00000000
00000100
00000000
00000010
00000001
00000010
00000000
00000000
00000001
00001000
00000000
00000010
00000000
,
00000100
00000000
00000001
00001000
00000010
00000000
00010000
00000000
00001000
00010000
00001000
00010000
01000000
10000000
01000000
10000000
,
00020000
10000000
00100000
00031000
,
00011000
00000000
00000000
00000000
,
00000000
00000000
00000000
00000000
;
