#TITLE:SP-TRIP MACHINE;
#SUBTITLE:(for beatmania II);
#ARTIST:dj TAKA feat. DE-SIRE;
#BANNER:SP-TRIP MACHINE (for beatmania II)-bn.png;
#BACKGROUND:SP-TRIP MACHINE (for beatmania II)-bg.png;
#JACKET:SP-TRIP MACHINE (for beatmania II)-jacket.png;
#MUSIC:SP-TRIP MACHINE (for beatmania II).ogg;
#SAMPLESTART:12.857;
#SAMPLELENGTH:20;
#DISPLAYBPM:168;
#BPMS:0=168;
#BGCHANGES:;

//---------------dance-single - ----------------
#NOTES:
     dance-single:
     :
     Beginner:
     5:
     :
0000
0000
0000
0000
,
0000
0000
0000
0000
,
0000
0000
0000
0000
,
0000
0000
0000
0000
,
0000
0000
0000
0000
,
1000
1000
2000
0000
,
0000
0000
3000
0000
,
0001
0000
0100
0000
,
0010
0010
1000
0001
,
0100
0100
0000
0001
,
1000
0000
0010
0010
,
0000
0110
0000
0001
,
0001
0000
0010
0100
,
1000
1000
0000
0001
,
0100
0000
0001
0001
,
0000
1001
0000
0010
,
0010
0000
1000
0001
,
0100
0010
0000
1000
,
1000
0000
0001
0010
,
0000
0110
0000
0100
,
0100
0000
0010
0010
,
0001
1000
0000
0010
,
1000
0000
0100
0100
,
0000
1001
0000
1000
,
1000
0000
0001
0100
,
0020
0000
0030
0000
,
1000
0001
0100
0000
,
0000
0001
0000
0001
,
0000
1000
0000
1000
,
0010
0100
0000
0001
,
0000
1000
0000
0100
,
1000
0000
0001
0000
,
0100
0000
0010
0010
,
1000
0001
1001
0000
,
0000
0100
1000
0001
,
0100
0010
0110
0000
,
1000
1000
0001
0100
,
0001
1000
1001
0000
,
0000
0010
1000
0001
,
0010
0100
0110
0000
,
1000
1000
0010
0100
,
0001
2000
0000
0000
,
3000
0000
0010
0010
,
1000
0001
0010
0010
,
0000
0100
0000
0100
,
1000
0001
1000
0000
,
0010
0000
0100
0100
,
0001
1000
0100
0100
,
0010
0000
0010
0000
,
0002
0000
0000
0003
,
0000
1000
0000
0010
,
0000
0100
0001
1000
,
0001
0000
0010
0100
,
1000
2000
0000
3000
,
0000
0010
1000
0100
,
0010
0000
0010
0000
,
0001
1000
0001
1000
,
0000
0020
0000
0000
0000
0000
0000
0000
,
0000
0000
0000
0000
,
0000
0000
0000
0030
;

//---------------dance-single - ----------------
#NOTES:
     dance-single:
     :
     Easy:
     9:
     :
0000
0000
0000
0000
,
0000
0000
0000
0000
,
0000
0000
0000
0000
,
0000
0000
0000
0000
,
0000
0000
0000
0000
,
1000
0010
0100
0002
0000
0000
0000
0000
,
0000
0000
0000
0003
,
0010
0100
0000
2000
0000
0000
0000
0000
,
3001
0100
0001
1000
0010
0100
0010
0100
,
0001
0000
2020
0000
3000
0001
0000
1000
,
0000
0100
0000
1030
0001
0010
0001
0100
,
0000
1000
2000
0000
0000
0001
0000
0100
,
0000
0001
0000
3010
0000
1000
0100
0010
,
0001
0000
0022
0000
0003
1000
0000
0001
,
0000
0100
0000
0031
0010
0001
1000
0100
,
0000
0010
0020
0000
0000
1000
0000
0001
,
0000
0100
0000
0031
0010
0100
0010
0100
,
1000
0000
0202
0000
0003
0010
0000
0010
,
0000
0301
0000
1000
0001
0010
0100
1000
,
0000
0001
0002
0000
0000
0010
0000
0010
,
0000
1000
0000
1000
0000
0103
0001
0010
,
0100
0000
2200
0000
0300
0001
0000
0001
,
0000
0100
0000
3010
1000
0100
1000
0001
,
0000
0100
0200
0000
0000
1000
0000
0001
,
0000
0010
0000
0301
0100
0010
0100
0001
,
1000
0200
0000
0000
0000
0300
0000
0110
,
0000
0001
1000
0002
0000
0000
0000
0000
,
0013
0200
0000
0000
0000
0300
0000
1001
,
0000
1000
0000
0010
1000
0001
0000
0100
,
0010
0000
0110
0000
0000
0001
0000
1000
,
0200
0000
0310
0001
2000
0000
3010
0100
,
0001
0000
0010
0001
0000
1000
0100
0020
,
0000
0000
0000
0000
0031
1000
0001
0100
,
0010
1000
0001
0000
1001
0000
0000
0000
,
0000
1000
0100
2000
0000
0001
3001
0000
,
0100
0010
1000
0000
1100
0000
0000
0002
,
0000
2003
0000
3002
0000
0100
0103
0000
,
0010
1000
0001
0000
0101
0000
0000
0000
,
0000
0001
0010
0100
0000
1000
1000
0000
,
0010
0100
0001
0000
0011
0000
0000
1010
,
0000
1100
0000
0101
0000
0001
0001
0000
,
1001
0000
0010
0100
0000
0000
0000
0000
,
0001
0000
0000
0010
0001
1000
0001
1000
,
0100
0000
0010
0001
0000
0011
0000
0000
,
1000
0010
1000
0000
1000
0010
1000
0000
,
1010
0000
0100
1000
0000
0000
0001
0010
,
0100
0000
0000
1000
0001
1000
0001
0100
,
0010
0000
1000
0100
0000
0110
0000
0000
,
0002
0000
0000
0013
0001
1000
0001
1000
,
0100
0020
0000
0000
0000
0000
0000
0000
,
0000
0031
1000
0001
0000
0101
0000
0000
,
1000
0002
0100
0000
0010
0000
0100
0000
,
1003
0010
0100
0010
2000
0000
3001
0000
,
0100
2200
0000
0300
,
0000
3001
1000
0001
0000
0011
0000
0000
,
1001
0100
0110
1000
,
0100
0010
0001
2000
0000
3010
1000
0001
,
0000
2020
0000
0000
0000
0000
0000
0000
,
0000
0000
0000
0000
,
0000
0000
0000
3030
;

//---------------dance-single - ----------------
#NOTES:
     dance-single:
     :
     Medium:
     12:
     :
0000
0000
0000
0000
,
0000
0000
0000
0000
,
0000
0000
0000
0000
,
0000
0000
0000
0000
,
0000
0000
0000
0000
,
1000
0001
0010
0100
0000
1000
0000
0001
,
0000
0010
0001
0000
0100
0010
0000
1000
,
0001
1000
0010
0100
0000
0001
1000
0001
,
0010
0100
0010
0001
1000
1000
1000
1000
,
0001
0100
0020
0000
1030
0001
1000
0100
,
0000
0110
0000
0001
1000
0010
1000
0001
,
0010
0100
0200
0000
1300
0010
1000
0001
,
0000
1001
0000
0010
0001
0100
0001
1000
,
0100
0010
0002
1000
1003
0010
0100
0001
,
0000
0011
0000
0100
0010
0100
0001
1000
,
0100
0010
0020
0001
0031
1000
0010
0100
,
0000
1010
0000
0001
1000
1000
1000
1000
,
0001
0010
0200
0010
0310
0100
1000
0001
,
0000
1100
0000
0001
0010
0100
1000
0010
,
1000
0001
0002
1000
1003
0010
0100
0010
,
0000
0101
0000
0100
0001
0010
0100
1000
,
0010
0000
1001
0010
1000
0001
1000
0100
,
0000
0110
0000
0001
0010
0100
1000
0010
,
0100
0001
0011
0000
0001
0100
0010
1000
,
0000
1100
0000
0001
1000
0010
0010
0100
,
0001
0102
0000
0103
0010
1000
0001
1010
,
0000
0000
0001
0000
0100
0000
2000
0000
0000
0000
0000
0000
3010
0100
0010
0000
,
1000
0001
0000
0100
0010
0000
1000
0100
,
0000
1000
0010
1000
0100
0010
0001
2000
,
0000
0000
3002
0000
0000
0000
0000
0000
0000
0000
0103
0000
0000
0010
0000
1000
,
0001
0010
0100
1000
1000
0010
0100
0001
,
0010
0001
1000
0010
1000
0001
0200
0020
,
0000
0000
0000
0000
0300
0000
0000
0000
1030
0001
1000
0000
0100
0000
0010
0000
,
0001
0100
0110
0000
0110
0000
0000
0000
,
0000
1000
0010
0100
0001
1000
0100
0000
,
1000
0001
1001
0000
1001
0000
0100
0010
,
0000
1000
1000
0001
1000
0010
0100
0001
,
0010
0100
1100
0000
1100
0001
0100
0010
,
1000
0100
0000
0100
0010
0001
1000
0000
,
0001
0100
0101
0000
0101
0000
1000
1010
,
0000
0011
0000
1010
0000
0001
0001
0100
,
0010
0000
1000
0000
0100
0000
0100
0000
0000
0000
1000
0000
0001
0000
0100
0010
,
0200
0000
0300
0001
1000
0001
1000
0100
,
0010
0000
0001
0000
0100
0000
0100
0000
0000
0010
1000
0000
0001
0000
1000
0000
,
0100
0000
0010
0000
0001
0000
0100
0000
0000
0000
0001
1000
0001
0000
0100
0000
,
0010
0000
1000
0000
0100
0000
0100
0000
0000
0000
1000
0000
0001
0000
0010
0100
,
0020
0000
0030
0001
1000
0001
1000
0010
,
0100
0000
0001
0000
1000
0000
1000
0000
0000
0100
0010
0000
0001
0000
1000
0000
,
0001
0100
0010
0100
0010
1000
0001
1000
,
0100
0022
0000
0030
0000
1003
0001
0100
,
0000
0010
1000
1100
0000
0101
0000
0000
,
1000
0001
1000
0010
0100
0001
0010
0100
,
1000
0001
1000
0001
0100
0010
1000
0010
,
0100
0001
1000
0200
0000
0010
0310
0001
,
0100
0010
1000
1001
0000
0110
0000
0000
,
0002
1000
1003
0000
0020
0100
0130
0000
,
0002
1000
1003
0010
1000
0001
0100
0011
,
0000
2020
0000
0000
0000
0000
0000
0000
,
0000
0000
0000
0000
,
0000
0000
0000
3030
;

//---------------dance-single - ----------------
#NOTES:
     dance-single:
     :
     Hard:
     15:
     :
0000
0000
0000
0000
,
0000
0000
0000
0000
,
0000
0000
0000
0000
,
0000
0000
0000
0000
,
0000
0000
0000
0000
,
1000
0001
0010
0100
0000
1000
1000
1000
,
0010
0000
0100
0000
0001
0000
1000
0000
0001
0000
0010
0000
0100
1000
0100
1000
,
0100
0010
0001
1000
0000
0010
0010
0100
,
0001
0010
0001
0010
0001
0000
1000
0000
0010
0000
0010
0000
0100
0000
0100
0000
,
0001
0000
0010
0000
1000
0000
0100
0000
0010
0000
0001
0100
0001
0000
1000
0000
,
0010
0000
1000
0000
0100
0000
0010
0000
0001
1000
0001
0000
0100
0000
0010
0000
,
1000
0000
1100
0000
1100
0000
0001
0000
0010
0100
0010
0000
0001
0000
1000
0000
,
0010
1000
0100
0010
0001
0100
1000
0001
,
0100
0000
0010
1000
0010
0000
0100
0000
0001
0010
0001
0000
1000
0000
0100
0000
,
0010
0000
0001
0000
1000
0000
0001
0000
0100
0010
0100
0000
0001
0000
1000
0000
,
0010
0000
1010
0000
1010
0000
1000
0001
1000
0000
0100
0000
0010
0000
0001
0000
,
0100
0001
1000
0001
0010
0010
0100
0100
,
1000
0000
0010
0000
0001
0100
0001
0000
0010
0000
0100
1000
0100
0000
0001
0010
,
0001
0000
0100
0000
0010
0000
1000
0000
0100
0010
0001
0000
1000
0001
0100
0000
,
0010
0000
0110
0000
0110
0000
0100
0001
0100
0000
0010
1000
0010
0000
0001
0000
,
0100
0000
0010
0000
1000
0001
0100
0001
1000
0000
0010
0000
0100
0001
0010
0000
,
0100
0000
1000
0000
0010
1000
0001
0000
0010
0000
0100
0010
0001
0000
1000
0000
,
0010
0000
1000
0000
0010
0000
0100
0000
0001
1000
0100
1000
0001
0000
0010
0100
,
1000
0000
1001
0000
1001
0000
0001
0000
0010
0100
1000
0100
0010
0000
0001
0000
,
0100
0000
0010
1000
0010
0000
0100
0000
0001
0000
0011
0000
0011
0000
0100
0000
,
1000
0000
0001
0000
0010
0000
0100
1000
0100
1000
0100
0000
0010
0000
1100
0000
,
0000
0000
0002
0000
0203
0000
0320
0000
0000
1030
0010
0000
0100
0000
0001
0000
,
0010
0000
0001
0000
1000
0000
0100
0010
0100
0010
0100
0000
1000
0000
0011
0000
,
0001
0000
1000
0010
0000
1000
0010
0100
0001
1000
0001
0000
0100
0010
0100
0010
,
0100
0000
0001
0000
1000
0000
0100
0000
0010
0000
0001
1000
0000
0001
1000
0000
,
0010
0100
0010
0100
0001
1000
0010
0100
0010
0100
0010
0100
0001
1000
0010
0100
,
0001
0000
0001
0000
0010
0000
0100
0000
0100
0000
1000
0000
0010
1000
0020
0000
,
0000
0000
0100
0000
0100
0000
0130
0000
0001
1000
0001
1000
0010
1000
0001
1000
,
0010
0000
0100
0000
0110
0000
0000
0000
0110
0000
1000
0000
0100
0010
0001
0010
,
0100
0000
2000
0000
3002
0000
0023
0000
0031
0000
0100
0010
1000
0000
0100
0010
,
0001
0000
1000
0000
1001
0000
0000
0000
1001
0000
0010
0000
1000
0001
0100
0000
,
0010
2000
3200
0320
0032
0203
0302
2003
,
3010
0000
0100
0000
0101
0000
0000
0000
0101
0000
0001
0000
1000
0010
1000
0100
,
1000
0000
0010
0000
0100
0000
0001
0000
0010
0000
0100
0000
1000
0001
1000
0001
,
1000
0000
0010
0000
1100
0000
0000
0000
1100
0000
0001
0010
0100
0000
1000
0001
,
0100
0000
0010
0000
0100
0000
0001
0000
1000
0100
1000
0100
1000
0010
1000
0010
,
0100
0000
0001
0000
1000
0100
0010
0000
0000
0001
0100
0001
1000
0000
0010
0100
,
0010
0000
1000
0000
0100
0000
0010
0000
0001
0100
0001
0100
0001
0000
1000
0010
,
0100
0000
0001
0000
1000
0001
0010
0000
0000
0100
1000
0001
1000
0000
0010
0000
,
0100
0000
0001
0000
0010
0000
0010
0000
0001
1000
0010
1000
0100
0000
0100
0000
,
0010
0000
0001
0000
0100
0010
1000
0000
0000
0100
1000
0001
1000
0000
0001
0010
,
0100
0000
1000
0000
0001
0000
0010
0000
0100
0010
0100
1000
0001
0000
1000
0010
,
1000
0000
0100
0000
0010
0001
1000
0000
0000
0010
0100
0000
0001
0000
1000
0001
,
0100
0000
0010
0000
0010
0000
0010
0000
1000
0001
0100
0001
1000
0000
1000
0000
,
0100
0000
0011
0000
0001
0100
0002
0000
0000
0000
0013
0000
0100
1000
0100
1000
,
0010
0000
0200
0000
0302
0000
1003
0100
0010
0000
0200
0000
1300
0000
0001
1000
,
0010
0000
0102
0000
2003
0000
3002
0000
0013
0001
0100
0000
0010
1000
0010
1000
,
0001
0000
0100
0000
0100
0000
0010
0000
1000
0001
1000
0000
1000
0000
0100
0000
,
0010
0000
0001
0000
0100
0000
0020
0000
0000
0000
1000
0000
1030
0100
0010
0001
,
0100
0000
0010
0000
1000
0000
0100
0010
0001
0000
2000
0000
3010
0000
1000
0001
,
0100
0000
0010
0000
1000
0000
0100
0000
0010
0000
0001
0000
1000
0010
1000
0010
,
1000
0000
0100
0000
0010
0000
0001
0000
0100
0000
0001
1000
0001
0000
0110
0000
,
0000
2020
0000
0000
0000
0000
0000
0000
,
0000
0000
0000
0000
,
0000
0000
0000
3030
;
