#TITLE:SOUL BOSSA NOVA;
#SUBTITLE:(KCP REMIX);
#ARTIST:X-TREME;
#BANNER:SOUL BOSSA NOVA (KCP REMIX)-bn.png;
#BACKGROUND:SOUL BOSSA NOVA (KCP REMIX)-bg.png;
#JACKET:SOUL BOSSA NOVA (KCP REMIX)-jacket.png;
#MUSIC:SOUL BOSSA NOVA (KCP REMIX).ogg;
#OFFSET:0.05;
#SAMPLESTART:25.4;
#SAMPLELENGTH:20;
#DISPLAYBPM:170;
#BPMS:0=169.98;
#BGCHANGES:;

//---------------dance-single - ----------------
#NOTES:
     dance-single:
     :
     Beginner:
     3:
     :
0000
0000
0000
0000
,
0000
0000
0000
0000
,
0000
0000
0000
0000
,
0000
0000
0000
0000
,
0000
0000
0000
0000
,
0000
0000
0000
0000
,
1000
0000
0000
0001
,
0001
0000
0000
1000
,
1000
0000
0000
0010
,
0010
0000
0100
0000
,
1001
0000
0000
1000
,
1000
0000
0001
0000
,
0100
0000
0000
0010
,
0010
0000
0100
0000
,
0110
0000
0000
0001
,
0001
0000
0000
1000
,
1000
0000
0010
0000
,
0100
0000
0001
0000
,
1001
0000
0000
0100
,
0100
0000
0000
0010
,
0010
0000
0000
1000
,
1000
0000
0000
0001
,
0001
0000
0000
0010
,
0010
0000
0000
0100
,
0100
0000
0000
1000
,
1000
0000
0001
0000
,
0110
0000
0000
0000
,
0001
0000
1000
0000
,
1001
0000
0000
0000
,
1000
0000
0100
0000
,
0110
0000
0000
0000
,
0010
0000
0001
0000
,
0100
0000
0010
0000
,
1000
0000
0000
0000
,
1001
0000
0000
0000
,
0000
0100
0000
0010
,
0010
0000
0000
0000
,
0000
1000
0000
0100
,
0100
0000
0000
0000
,
0000
1000
0000
0001
,
0001
0000
0000
0000
,
0100
0000
0010
0000
,
0110
0000
0000
0000
,
0000
1000
0000
0010
,
0010
0000
0000
0000
,
0000
0100
0000
0001
,
0001
0000
0000
0000
,
0000
0000
1000
0000
,
0001
0000
0001
0000
,
0001
0000
0100
0000
,
1001
0000
0000
1000
,
1000
0000
0000
0100
,
0100
0000
0000
1000
,
1000
0000
0000
0001
,
0001
0000
0000
0010
,
0010
0000
0000
0001
,
0001
0000
0000
0100
,
0100
0000
0010
0000
,
0110
0000
0000
0000
,
1000
0000
0000
0000
,
0100
0000
0000
0000
,
0010
0000
0001
0000
,
1001
0000
0000
0000
,
0110
0000
0000
0000
,
1000
0000
0001
0000
,
0100
0100
0100
0000
,
0010
0000
0000
0000
;

//---------------dance-single - ----------------
#NOTES:
     dance-single:
     :
     Easy:
     7:
     :
0000
0000
0000
0000
,
0000
0000
0000
0000
,
0000
0000
0000
0000
,
0000
0000
0000
0000
,
0000
0000
0000
0000
,
0000
0000
0000
0000
,
1000
0010
1000
0001
,
0010
0001
0100
0010
,
1000
0100
1000
0001
,
0101
1100
0101
1100
,
1001
0010
1000
0100
,
0010
0000
0011
1100
,
0001
0010
0001
0100
,
2000
3000
0002
0003
,
1001
0010
1000
0100
,
0001
0010
0001
0100
,
0110
0000
1001
0000
,
1000
0010
1000
0001
,
1001
0010
0001
0100
,
0110
0010
1000
0100
,
0011
0100
0001
0010
,
1100
0010
1000
0001
,
0101
0001
0010
0100
,
1100
0010
1000
0100
,
0110
0010
0001
0100
,
1010
0000
0001
1000
,
0020
0200
0000
0000
0000
0000
0330
0000
,
0001
0000
1000
0001
0000
0010
0000
0000
,
0200
2000
0000
0000
0000
0000
3300
0000
,
0010
0000
0100
0001
0000
1000
0000
0000
,
0002
0200
0000
0000
0000
0000
0303
0000
,
0001
0000
1000
0100
0000
0010
0000
0000
,
0011
1100
0101
1100
,
1001
0010
1000
0100
,
1001
0010
0000
0001
,
0000
0100
0010
1000
,
0100
0010
0000
0001
,
0000
0100
0001
1000
,
0010
1000
0000
0100
,
0000
1000
0010
0001
,
1000
0100
0000
0010
,
0002
2003
3002
2003
,
3010
0100
0000
0001
,
0000
0010
0001
0100
,
1000
0001
0000
0010
,
0000
1000
0100
0010
,
0002
2000
0000
0003
,
0000
0010
0000
3010
,
0101
0000
1100
0000
,
0101
0000
1010
0101
,
1001
0010
1000
0100
,
1000
0010
0001
0100
,
0001
0010
0100
1000
,
0010
0110
1001
0110
,
1001
0001
0100
1000
,
0010
1000
0100
0010
,
1000
0001
1000
0100
,
0010
0000
0001
1000
,
0010
0000
0000
1000
,
0001
0000
0000
0000
0000
0000
1000
0001
,
0100
0000
0000
0010
,
1000
1000
0001
0001
,
1001
0010
1000
0100
,
0001
0010
0001
0100
,
0101
0000
1100
0000
,
0101
0000
1010
0000
1100
0000
0001
1000
,
0010
0000
0000
0000
;

//---------------dance-single - ----------------
#NOTES:
     dance-single:
     :
     Medium:
     10:
     :
0000
0000
0000
0000
,
0000
0000
0000
0000
,
0000
0000
0000
0000
,
0000
0000
0000
0000
,
0000
0000
0000
0000
,
0000
0000
0000
0000
,
1000
0001
0000
0000
0000
0010
0001
0100
,
0001
1000
0000
0000
0000
0010
1000
0100
,
1000
0001
0000
0000
0000
0010
0001
0100
,
0001
1000
0101
1100
,
1001
0000
0100
0010
0000
1000
0010
0100
,
0001
1000
0000
0000
0110
0000
1000
0001
,
1000
0100
0000
0000
0000
0010
0001
0100
,
0001
0010
0000
0000
1000
0100
0000
0000
,
1000
0010
0000
0000
0000
1000
0100
0010
,
0001
0010
0000
0000
0000
0001
1000
0010
,
1000
0100
0000
0000
0010
0001
1000
0001
,
0100
0010
1000
0000
0001
0010
0001
0100
,
0010
0010
0000
1000
0000
0100
1000
0001
,
0100
0100
0000
0001
0000
1000
0010
1000
,
0001
0001
0000
0010
0000
0100
1000
0010
,
1000
1000
0000
0001
0000
0010
0001
0100
,
0001
0001
0000
1000
0000
0100
0010
0100
,
1000
1000
0000
0001
0000
0010
0001
0010
,
0100
0100
0000
1000
0000
0010
1000
0001
,
0010
0010
0000
0000
2000
0000
3002
0000
,
0103
0020
1000
0000
0001
0000
1000
0000
,
0130
0000
0001
0010
0000
0100
1000
0000
,
0001
0200
0010
0000
1000
0000
0010
0000
,
0301
0000
1000
0001
0000
0010
0100
0000
,
1000
0002
0010
0000
1000
0000
0100
0000
,
0013
0000
0001
1000
0000
0100
0010
0000
,
0001
0000
0100
0010
0100
0001
0010
0100
,
1000
0000
0020
0000
1030
0100
0001
0100
,
1000
0000
0001
0100
0000
0001
0000
0010
,
0000
0100
1000
0001
0000
1000
0010
0100
,
0001
0000
0010
0001
0000
0100
0000
1000
,
0000
0010
1000
0100
0000
1000
0010
0001
,
0100
0000
0010
1000
0000
0100
0000
0001
,
0000
1000
0001
0010
0000
0001
0100
0010
,
1000
0000
0100
1000
0000
0010
0000
0100
,
0001
1000
0101
1100
,
1001
0000
0010
1000
0000
0100
1000
0001
,
0000
0010
0001
0100
0000
0001
0010
0100
,
1000
0000
0010
0100
0000
0010
1000
0001
,
0000
1000
0100
0001
0000
0010
0001
0100
,
0010
0110
0000
0001
,
0000
0000
1000
0010
0000
1000
0100
0010
,
0002
0103
2000
3100
,
0011
1100
0101
1010
,
1001
0000
0010
1000
0000
0100
1000
0001
,
0100
0000
0010
0100
0000
0001
1000
0001
,
0010
0000
0100
0010
0000
0001
1000
0001
,
0100
0001
1000
0001
1000
0000
0110
0000
,
1000
0000
0010
0100
0000
0001
0010
0100
,
0010
0000
0001
0100
0000
1000
0001
1000
,
0010
0000
0100
0001
0000
0010
0001
1000
,
0010
0100
0000
0000
0001
0010
0100
1000
,
0001
1000
0000
0000
0000
0010
1000
0100
,
1000
0001
0000
0000
0000
0010
0001
0100
,
0001
0100
0000
0000
0000
0010
1000
0001
,
2000
3200
0320
0032
,
0103
0010
0000
0100
0000
0001
0010
0100
,
1000
0001
0000
1000
0000
0010
1000
0001
,
0010
0100
0000
1000
0000
0010
1000
0100
,
0010
0001
0100
0000
0101
0000
1100
1000
,
0010
0000
0000
0000
;

//---------------dance-single - ----------------
#NOTES:
     dance-single:
     :
     Hard:
     13:
     :
0000
0000
0000
0000
,
0000
0000
0000
0000
,
0000
0000
0000
0000
,
0000
0000
0000
0000
,
0000
0000
0000
0000
,
0000
0000
0000
0000
,
1000
0001
0010
0001
0000
0100
0010
1000
,
0001
0010
0001
0100
0000
0010
1000
0100
,
1000
0001
0010
0100
0000
1000
0010
0100
,
0101
1100
0101
1100
,
1001
0000
1000
0100
0000
0010
0001
0100
,
0110
0000
1000
0010
0000
1000
0100
0001
,
0011
0000
0001
1000
0000
0001
0010
0100
,
2100
3001
0102
1003
,
1001
0000
0010
1000
0100
0010
0001
1000
,
1010
0000
0001
0010
0001
1000
0100
0010
,
0011
0000
1000
0001
0110
0000
0100
0010
,
1002
0000
0000
0000
2003
0000
0000
0000
3001
0010
0001
0000
0100
0000
0010
0000
,
1001
1000
0100
0010
0000
0001
0100
0001
,
0011
0010
0100
1000
0000
0010
1000
0001
,
0101
0010
1000
0100
0000
1000
0010
0100
,
0110
0001
0010
1000
0000
0100
1000
0001
,
1010
0100
0010
1000
0000
0001
0010
0100
,
1100
1000
0010
0100
0000
0001
0010
0100
,
0110
1000
0100
0001
0000
0010
0001
0100
,
0101
1000
0001
1000
0010
0100
0001
0000
,
0010
0001
0010
1000
0010
0001
0010
1000
,
0010
0001
0010
0100
0010
1000
0010
0000
,
0001
0100
0010
0100
1000
0100
0001
0100
,
1000
0100
0010
0100
1000
0100
0001
0000
,
0010
1000
0010
0001
0100
0010
0100
1000
,
0100
0001
0100
0010
0001
0010
1000
0000
,
0001
0000
1000
0100
1000
0000
0001
0100
0001
0000
0010
0000
0100
0000
1000
0000
,
1100
0000
0000
0000
0011
0000
0000
0000
1000
0001
1000
0000
0010
0000
0100
0000
,
1001
0000
0010
1000
0100
0010
0001
0100
,
0001
0010
0100
2000
0000
3001
1000
0010
,
0110
0000
0001
0010
0001
0100
0010
1000
,
0100
0010
0001
0200
0000
0310
1000
0001
,
1010
0000
0100
0001
0010
0001
1000
0100
,
0001
0100
1000
0020
0000
1030
0001
0010
,
0011
0000
1000
0010
0100
0001
0010
0100
,
1100
0101
1100
0101
,
1001
0000
0001
0010
1000
0010
0001
0010
,
0100
0001
0100
2000
0000
3001
0010
1000
,
1100
0000
0010
0001
0100
0001
0010
0100
,
1000
0010
0001
2000
0000
3001
0010
0100
,
1000
0001
0010
0001
0000
1000
0100
0010
,
0000
0001
0100
0002
0000
0013
0100
1000
,
1001
0000
0100
0010
1001
0000
0100
0010
,
1001
0000
1000
0100
0011
0000
1100
0000
,
1001
0010
0001
0100
0001
0010
0100
1000
,
0010
1000
0001
1000
0100
0010
0001
0100
,
0001
0010
1000
0010
0100
0010
1000
0010
,
0001
1000
1000
1000
1000
0010
0100
0001
,
0010
0100
1000
0010
1000
0001
0010
0100
,
0001
0100
1000
0010
1000
0100
0001
0010
,
0100
1000
0010
1000
0100
0001
0010
1000
,
0001
0010
1000
0001
1000
0010
0100
0001
,
0010
0100
0000
1000
0000
0001
0010
1000
,
0100
0000
0010
0000
0000
0000
0001
0000
0000
0000
0100
0000
0001
1000
0001
1000
,
0001
0100
0000
0010
0000
1000
0100
0001
,
2000
3020
0230
0302
,
0013
0100
1000
0010
0000
1000
0100
0001
,
0010
0001
1000
0010
0000
1000
0100
1000
,
0010
0100
0001
1000
0000
0001
0010
0100
,
1000
0000
0010
0000
0100
0000
0010
0000
1000
0000
0001
0000
0010
0100
0010
0100
,
0010
0000
0000
0000
;
