#VERSION:0.83;
#TITLE:SOMEWHERE OVER THE RAINBOW;
#SUBTITLE:(DJ Kambel Remix);
#ARTIST:COSMIC GATE;
#TITLETRANSLIT:;
#SUBTITLETRANSLIT:;
#ARTISTTRANSLIT:;
#GENRE:;
#ORIGIN:;
#TAGS:;
#CREDIT:;
#BANNER:SOMEWHERE OVER THE RAINBOW (DJ Kambel Remix)-bn.png;
#BACKGROUND:SOMEWHERE OVER THE RAINBOW (DJ Kambel Remix)-bg.png;
#PREVIEWVID:;
#JACKET:SOMEWHERE OVER THE RAINBOW (DJ Kambel Remix)-jacket.png;
#CDIMAGE:;
#DISCIMAGE:;
#LYRICSPATH:;
#CDTITLE:;
#MUSIC:SOMEWHERE OVER THE RAINBOW (DJ Kambel Remix).ogg;
#OFFSET:0.000000;
#SAMPLESTART:77.726997;
#SAMPLELENGTH:20.000000;
#SELECTABLE:YES;
#DISPLAYBPM:44.000000:176.000000;
#BPMS:0.000000=44.000000,
16.000000=88.000000,
32.000000=176.000000,
64.000000=44.000000,
68.000000=88.000000,
72.000000=176.000000;
#STOPS:;
#DELAYS:;
#WARPS:;
#TIMESIGNATURES:0.000000=4=4;
#TICKCOUNTS:0.000000=4;
#COMBOS:0.000000=1;
#SPEEDS:0.000000=1.000000=0.000000=0;
#SCROLLS:0.000000=1.000000;
#FAKES:;
#LABELS:0.000000=Song Start;
#BGCHANGES:;
#KEYSOUNDS:;
#ATTACKS:
;

//---------------dance-single - ----------------
#NOTEDATA:;
#CHARTNAME:;
#CHARTHASH:0:
#STEPSTYPE:dance-single;
#BANNER:;
#DESCRIPTION:;
#CHARTSTYLE:;
#DIFFICULTY:Hard;
#METER:12;
#METERF:0.000000;
#RADARVALUES:0.481073,0.755915,0.141956,0.607256,0.354890,427.000000,409.000000,18.000000,77.000000,0.000000,0.000000,0.000000,0.000000,0.000000,0.481073,0.755915,0.141956,0.607256,0.354890,427.000000,409.000000,18.000000,77.000000,0.000000,0.000000,0.000000,0.000000,0.000000;
#CREDIT:;
#DISPLAYBPM:44.000000:176.000000;
#NOTES:
0000
0000
0000
0000
,
0000
0000
0000
0000
,
0020
2030
3200
0302
,
0203
2300
3020
0032
,
0023
0000
0230
0000
,
0302
0000
1003
0010
0200
0000
0301
0000
,
0022
0030
2000
0003
,
0200
0000
0000
3300
,
2010
0000
0000
0010
0000
0000
0010
0000
0000
0010
0000
0000
3010
0000
0100
0000
,
0002
0000
0000
0010
0000
0000
0010
0000
0000
0010
0000
0000
0013
0000
0100
0000
,
2000
0000
0000
0001
0000
0000
0001
0000
0000
0001
0000
0000
3001
0000
0100
0000
,
0020
0000
0000
1000
0000
0000
1000
0000
0000
1000
0000
0000
1030
0000
0001
0000
,
0020
0000
0000
1000
0000
0000
1000
0000
0000
1000
0000
0000
1030
0000
0010
0000
,
0002
0000
0000
0100
0000
0000
0100
0000
0000
0100
0000
0000
0103
0000
0010
0000
,
2000
0000
0000
0100
0000
0000
0100
0000
0000
0100
0000
0000
3100
0000
0010
0000
,
0200
0000
0000
0001
0000
0000
0001
0000
0000
0001
0000
0000
0301
0000
0100
0000
,
2200
0000
0000
0300
0002
0000
0000
3003
0102
0000
0103
0010
2000
0000
0002
3003
,
0010
1000
0010
1000
0001
0100
0001
0100
0001
0010
0001
0010
0100
1000
0100
1000
,
0220
0000
0000
0000
,
0000
0000
0000
0030
,
0301
0100
1000
0001
0100
0010
0000
0000
,
1001
0000
0010
0000
1000
0000
0001
0000
0010
0000
0000
0100
0000
0000
1000
0000
,
0001
0000
0000
0100
0000
0000
0010
0000
0000
1000
0000
0000
0001
0000
0100
0000
,
0001
0000
0010
0000
0000
0001
0000
0000
1000
0000
0000
0010
0000
0000
0100
0000
,
0010
0000
0000
0100
0000
0000
0001
0000
0000
0010
0000
0000
1000
0000
0001
0000
,
0100
0000
0000
0010
0000
0000
1000
0000
0000
0010
0000
0000
0100
0000
0001
0000
,
0010
0000
0000
0100
0000
0000
1000
0000
0000
0001
0000
0000
0001
0000
0100
0000
,
0001
0000
0000
0010
0000
0000
0001
0000
0000
0100
0000
0000
1000
0000
0010
0000
,
1000
0000
0000
0001
0000
0000
0010
0000
0000
0100
0000
0000
1000
0000
0010
0000
,
1002
0000
0000
0010
0000
0000
2003
0000
0000
0001
0000
0000
3100
0000
0010
0000
,
0002
0000
0000
0100
0000
0000
0023
0000
0000
1000
0000
0000
0130
0000
0010
0000
,
0002
0000
0000
1000
0000
0000
0203
0000
0000
1000
0000
0000
0301
0000
0010
0000
,
0200
0000
0000
1000
0000
0000
0320
0000
0000
1000
0000
0000
0031
0000
0100
0000
,
0210
0000
0000
0001
0000
0000
2300
0000
0000
0001
0000
0000
3010
0000
0100
0000
,
0002
0000
0000
0010
0000
0000
2003
0000
0000
0001
0000
0000
3100
0000
0010
0000
,
0200
0000
0000
1000
0000
0000
0302
0000
0000
1000
0000
0000
0013
0000
0100
0000
,
2000
0000
0000
3020
0000
0000
0230
0000
0000
0302
0000
0000
1003
0001
1000
0001
,
2000
0000
3010
0100
0001
0010
0100
1000
,
0020
0000
0130
0001
1000
0100
0010
0001
,
0200
0000
0310
1000
0001
0010
0100
1000
,
0020
0100
0130
0010
1000
0001
0100
0000
,
0201
0000
1300
0100
0001
0010
0100
1000
,
0002
0000
1003
0001
0010
1000
0010
0100
,
2000
0000
3010
1000
0100
0001
0100
0010
,
0002
0000
0000
0000
0103
0000
0010
0000
1000
0000
0001
0100
0000
0001
0100
0000
,
1020
0000
0130
0001
0100
0010
1000
0001
,
0020
0000
1030
0010
0100
1000
0001
0100
,
0002
0000
0013
0100
1000
0010
1000
0001
,
0020
0100
0130
1000
0010
0100
0001
0000
,
0012
0000
0103
0010
1000
0001
0010
0000
,
2000
0010
3010
0100
0001
1000
0100
0000
,
1100
0001
1000
0010
0100
1000
0100
0001
,
0010
0100
0001
0100
1000
0001
0100
0010
,
0110
0000
0000
0001
0000
0000
1000
0000
0010
0000
0000
0100
0000
0000
0001
0000
,
2000
0000
0000
0010
0000
0000
0100
0000
0000
3010
0000
0000
1000
0000
0001
0000
,
0020
0000
0000
0001
0000
0000
0130
0000
1000
0000
0010
0000
0100
0000
0001
0000
,
0010
1000
0010
0001
0100
0010
1000
0000
,
2100
0000
0000
0001
0000
0000
0010
0000
0000
0001
0000
0000
3100
0000
0010
0000
,
0200
0000
0000
1000
0000
0000
0010
0000
0000
1000
0000
0000
0301
0000
0010
0000
,
0001
0000
0000
1000
0000
0000
0010
0000
1010
0000
0000
0000
0001
0000
0100
0000
,
0010
0000
0000
1000
0000
0000
0100
0000
0000
0010
0000
0000
0001
0000
1000
0000
,
0201
0000
0000
0001
0000
0000
0001
0000
0000
0001
0000
0000
0301
0000
1000
0000
,
0020
0000
0000
0100
0000
0000
0100
0000
0000
0100
0000
0000
0130
0000
0001
0000
,
0020
0000
0000
1000
0000
0000
1000
0000
0000
1000
0000
0000
1030
0000
0010
0000
,
0002
0000
0000
1000
0000
0000
1000
0000
0000
1000
0000
0000
1003
0000
0010
0000
,
0200
0000
0000
0001
0000
0000
1300
0000
0100
0000
0001
0000
1000
0000
0010
0000
,
2000
0000
0000
0100
0000
0000
3001
0000
0200
0000
0000
0010
0000
0000
0301
0000
,
0011
0000
0000
0010
0000
0000
0001
0000
0000
0010
0000
0000
0100
0000
1000
0000
,
0010
0000
0000
1000
0000
0000
0100
0000
0000
0010
0000
0000
0001
0000
1000
0000
,
2002
0000
0000
0000
,
0000
0000
0000
0000
,
3003
0000
0000
0000
;

//---------------dance-single - ----------------
#NOTEDATA:;
#CHARTNAME:;
#CHARTHASH:0:
#STEPSTYPE:dance-single;
#BANNER:;
#DESCRIPTION:;
#CHARTSTYLE:;
#DIFFICULTY:Medium;
#METER:10;
#METERF:0.000000;
#RADARVALUES:0.388689,0.531940,0.189274,0.339117,0.003943,345.000000,321.000000,24.000000,43.000000,0.000000,0.000000,0.000000,0.000000,0.000000,0.388689,0.531940,0.189274,0.339117,0.003943,345.000000,321.000000,24.000000,43.000000,0.000000,0.000000,0.000000,0.000000,0.000000;
#CREDIT:;
#DISPLAYBPM:44.000000:176.000000;
#NOTES:
0000
0000
0000
0000
,
0000
0000
0000
0000
,
0010
1000
0001
0100
,
0010
0100
0001
1000
,
0020
0000
0230
0000
,
0301
0000
0001
1000
0100
0000
0100
0000
,
0022
0030
0200
0003
,
0320
0000
0000
0030
,
2010
0001
0001
3001
,
0200
0010
0010
0310
,
0002
0010
0010
0013
,
2000
0100
0100
3100
,
0020
1000
1000
1030
,
0002
0100
0100
0103
,
0002
1000
0010
0103
,
2000
0010
0100
3001
,
2100
0000
0000
0000
3001
0000
0000
0000
0101
0000
0100
0010
2000
0000
3001
0000
,
0010
0001
1000
0001
1000
0100
0010
0100
,
0220
0000
0000
0000
,
0000
0000
0000
0030
,
1000
0000
1000
0000
1300
0010
0000
0000
,
0100
0001
0100
0001
1000
0000
1001
0000
,
0010
0000
0010
0000
1000
0001
1000
0100
,
0010
0000
0001
0100
1000
0000
0010
0000
,
1000
0000
0001
0010
0001
0000
0100
0010
,
1000
0000
0001
0000
0100
0000
0010
1000
,
0100
0000
0010
0000
0001
0100
0001
1000
,
0100
0000
0010
0001
1000
0000
0010
0100
,
0001
0000
0010
0001
1000
0010
1000
0100
,
0010
0000
0011
0000
0001
0100
1000
0000
,
0010
0000
1010
0000
1000
0100
0001
0000
,
1000
0000
1100
0000
0010
0100
0001
0000
,
0100
0000
0010
0000
1000
0001
1000
0001
,
0100
0000
0101
0000
0001
0010
1000
0000
,
0100
0000
0110
0000
0010
0001
1000
0000
,
0010
0000
1001
0000
1000
0001
0100
0000
,
0001
0000
0010
0000
0001
0100
0010
1000
,
0002
0010
0000
1000
0000
0010
0000
0103
,
0020
1000
0000
0001
0000
1000
0000
0130
,
0002
0000
0103
0000
0010
1000
0001
0000
,
1000
0000
0010
0100
0002
0000
1003
0000
,
2010
0000
3001
1000
0000
0010
0000
0100
,
0002
0000
0013
0100
0000
1000
0000
0001
,
0200
0000
0310
1000
0000
0001
0000
0100
,
0001
0000
0010
0100
1000
0000
0101
0000
,
1200
0000
1300
0001
0000
0010
0000
0100
,
0020
0000
0031
0100
0000
0010
0000
1000
,
0200
0000
1300
0001
1000
0000
0011
0000
,
0002
0000
0103
0010
2000
0000
3100
0000
,
1001
0000
0100
0010
2000
0000
3001
0000
,
0020
0031
0200
0310
,
0210
0000
0301
0000
1000
0100
1000
0000
,
0001
0100
0001
0000
0010
0100
0010
0000
,
0110
0000
0001
0000
0100
0000
0010
1000
,
0100
0000
0010
0000
0001
0000
1000
0010
,
0100
0000
0001
0010
0100
0000
1100
0000
,
0001
0010
0100
0000
1000
0010
0100
0000
,
0101
0000
0001
0000
0010
0100
1000
0001
,
0100
0000
0010
1000
0100
0010
0001
0000
,
1000
0000
0001
0100
0010
1000
0100
0000
,
1000
0010
0100
0000
0001
0010
1000
0000
,
2010
0010
0100
3010
,
0002
1000
0100
1003
,
0020
0001
1000
0031
,
2000
0100
0001
3100
,
0020
0000
1030
0100
2000
0000
3001
0000
,
0010
0001
0100
0000
0010
1000
0100
0000
,
0021
0001
0001
0001
,
1000
0000
0001
0000
0130
0010
0100
0000
,
2002
0000
0000
0000
,
0000
0000
0000
0000
,
3003
0000
0000
0000
;

//---------------dance-single - ----------------
#NOTEDATA:;
#CHARTNAME:;
#CHARTHASH:0:
#STEPSTYPE:dance-single;
#BANNER:;
#DESCRIPTION:;
#CHARTSTYLE:;
#DIFFICULTY:Easy;
#METER:7;
#METERF:0.000000;
#RADARVALUES:0.244479,0.335962,0.110410,0.473186,0.000000,217.000000,203.000000,14.000000,60.000000,0.000000,0.000000,0.000000,0.000000,0.000000,0.244479,0.335962,0.110410,0.473186,0.000000,217.000000,203.000000,14.000000,60.000000,0.000000,0.000000,0.000000,0.000000,0.000000;
#CREDIT:;
#DISPLAYBPM:44.000000:176.000000;
#NOTES:
0000
0000
0000
0000
,
0000
0000
0000
0000
,
0020
0030
0200
0300
,
0002
0003
2000
3000
,
0020
0030
0200
0300
,
0001
0010
0001
1000
,
0020
0030
0200
0300
,
0220
0000
0000
0330
,
2000
0000
0000
3000
,
0002
0000
0000
0003
,
0020
0030
0001
0100
,
0002
0003
2000
3000
,
0020
0030
1000
0100
,
2000
3000
0002
0003
,
0020
0000
0000
0000
,
0000
0000
0000
0030
,
1001
0100
0010
1000
,
0001
0000
0010
0001
1000
0000
0100
0000
,
0220
0000
0000
0000
,
0000
0000
0000
0330
,
1000
0001
0020
0030
,
0001
0100
1000
0010
,
0100
0100
0100
0000
,
0010
1000
0100
0001
,
0010
0010
0010
0000
,
0001
0100
0001
1000
,
0100
0010
0100
1000
,
0010
1000
0100
0010
,
0001
0001
0001
0000
,
1001
0100
1000
1000
,
0001
0100
0001
0010
,
0100
1000
0010
0100
,
0010
1000
0100
0010
,
0110
0001
0100
1000
,
1001
0010
1000
0001
,
0110
0100
0001
0010
,
1000
1000
1000
0000
,
2001
0010
0010
3010
,
0002
1000
1000
1003
,
0200
0300
0010
0100
,
0001
0010
2000
3000
,
0020
0100
0100
0130
,
0002
0010
0010
0013
,
2000
0001
0100
0100
,
0010
0100
0002
3003
,
0210
0001
0001
0301
,
2000
0100
0100
3100
,
0020
0030
0001
0010
,
0100
1000
0020
0030
,
0200
0300
0001
1000
,
0020
1030
0200
0300
,
2000
0001
0010
3001
,
0100
0010
0100
0001
,
1002
0100
0010
0103
,
2000
0010
0100
3010
,
0002
0003
1000
0100
,
0010
0100
2000
3000
,
0020
1000
0100
1030
,
0002
0010
0100
0013
,
2000
0001
0010
0010
,
0001
0100
0200
3300
,
0220
0000
0000
0330
,
2000
0000
0000
3000
,
0002
0003
0100
0010
,
2000
3000
0002
0003
,
2002
3003
0010
0100
,
0002
0003
2000
3000
,
0220
0000
0000
0330
,
1000
0001
1000
0100
,
2002
0000
0000
0000
,
0000
0000
0000
0000
,
3003
0000
0000
0000
;

//---------------dance-single - ----------------
#NOTEDATA:;
#CHARTNAME:;
#CHARTHASH:0:
#STEPSTYPE:dance-single;
#BANNER:;
#DESCRIPTION:;
#CHARTSTYLE:;
#DIFFICULTY:Beginner;
#METER:3;
#METERF:0.000000;
#RADARVALUES:0.121676,0.163249,0.031546,0.157729,0.000000,108.000000,104.000000,4.000000,20.000000,0.000000,0.000000,0.000000,0.000000,0.000000,0.121676,0.163249,0.031546,0.157729,0.000000,108.000000,104.000000,4.000000,20.000000,0.000000,0.000000,0.000000,0.000000,0.000000;
#CREDIT:;
#DISPLAYBPM:44.000000:176.000000;
#NOTES:
// measure 0
0000
0000
0000
0000
,  // measure 1
0000
0000
0000
0000
,  // measure 2
0010
0000
0100
0000
,  // measure 3
0001
0000
1000
0000
,  // measure 4
0010
0000
1000
0000
,  // measure 5
0001
0000
0100
0000
,  // measure 6
0010
0000
0010
0000
,  // measure 7
0010
0000
0000
0000
,  // measure 8
2000
0000
3000
0000
,  // measure 9
0002
0000
0003
0000
,  // measure 10
0200
0000
0300
0000
,  // measure 11
0020
0000
0030
0000
,  // measure 12
2000
0000
3000
0000
,  // measure 13
0200
0000
0300
0000
,  // measure 14
0020
0000
0030
0000
,  // measure 15
0002
0000
0003
0000
,  // measure 16
0100
0000
0010
0000
,  // measure 17
1000
0000
0001
0000
,  // measure 18
0110
0000
0000
0000
,  // measure 19
0000
0000
0000
0000
,  // measure 20
1000
0000
0010
0000
,  // measure 21
1001
0000
0010
0000
,  // measure 22
1000
0000
0100
0000
,  // measure 23
1000
0000
0010
0000
,  // measure 24
0100
0000
0001
0000
,  // measure 25
0010
0000
0001
0000
,  // measure 26
0100
0000
0010
0000
,  // measure 27
1000
0000
0001
0000
,  // measure 28
1000
0000
0100
0000
,  // measure 29
0010
0000
0010
0000
,  // measure 30
0100
0000
0100
0000
,  // measure 31
1000
0000
0001
0000
,  // measure 32
1000
0000
0001
0000
,  // measure 33
0010
0000
0010
0000
,  // measure 34
0100
0000
0100
0000
,  // measure 35
1000
0000
0001
0000
,  // measure 36
1000
0000
0001
0000
,  // measure 37
0200
0000
0300
0000
,  // measure 38
0020
0000
0030
0000
,  // measure 39
1000
0000
1000
0000
,  // measure 40
0001
0000
0100
0000
,  // measure 41
0002
0000
0003
0000
,  // measure 42
2000
0000
3000
0000
,  // measure 43
0020
0000
0000
0000
,  // measure 44
0030
0000
0000
0000
,  // measure 45
0200
0000
0300
0000
,  // measure 46
0020
0000
0030
0000
,  // measure 47
1000
0000
0001
0000
,  // measure 48
0010
0000
0010
0000
,  // measure 49
0001
0000
0100
0000
,  // measure 50
0001
0000
1000
0000
,  // measure 51
0200
0000
0000
0000
,  // measure 52
0300
0000
0000
0000
,  // measure 53
1000
0000
0001
0000
,  // measure 54
0100
0000
0010
0000
,  // measure 55
1000
0000
0100
0000
,  // measure 56
0010
0000
0001
0000
,  // measure 57
0100
0000
0100
0000
,  // measure 58
0010
0000
0010
0000
,  // measure 59
1000
0000
0001
0000
,  // measure 60
1000
0000
0100
0000
,  // measure 61
0020
0000
0030
0000
,  // measure 62
0002
0000
0003
0000
,  // measure 63
2000
0000
3000
0000
,  // measure 64
0200
0000
0300
0000
,  // measure 65
1000
0000
0010
0000
,  // measure 66
0100
0000
0001
0000
,  // measure 67
0110
0000
0000
0000
,  // measure 68
0000
0000
0000
0000
,  // measure 69
1001
0000
0000
0000
;
