#TITLE:SODA;
#ARTIST:SLAKE;
#BANNER:SODA-bn.png;
#BACKGROUND:SODA-bg.png;
#JACKET:SODA-jacket.png;
#MUSIC:SODA.ogg;
#SAMPLESTART:42;
#SAMPLELENGTH:20;
#DISPLAYBPM:160;
#BPMS:0=160;
#BGCHANGES:;

//---------------dance-single - ----------------
#NOTES:
     dance-single:
     :
     Beginner:
     3:
     :
0000
0000
0000
0000
,
0000
0000
0000
0000
,
0000
0000
0000
0000
,
0000
0000
0000
0000
,
0001
0000
1000
0000
,
0100
0000
0010
0010
,
0000
0001
0000
0000
,
1000
0000
0100
0100
,
0000
0000
0010
0000
,
0001
0000
1000
1000
,
0000
0001
0000
0000
,
0100
0000
0010
0010
,
0000
1000
1000
0000
,
0001
0000
0001
0000
,
0100
0000
0010
0000
,
1000
0000
0100
0000
,
1000
0000
0001
0000
,
0010
0000
0001
0000
,
0100
0000
0010
0000
,
1000
0000
1000
0000
,
0000
1001
0000
0000
,
0020
0000
0030
0000
,
0200
0000
0300
0000
,
0002
0000
0003
0000
,
0000
0110
0000
0000
,
0000
0000
1000
0000
,
0100
0100
0100
0000
,
0000
1000
1000
0000
,
1001
0000
0010
0000
,
0200
0000
0300
0000
,
0002
0000
0003
0000
,
1000
0000
0001
0000
,
0110
0000
0001
0000
,
2000
0000
3000
0000
,
0020
0000
0030
0000
,
0100
0000
0001
0000
,
0000
0010
0010
0000
,
0001
0001
0001
0000
,
0100
0100
0100
0000
,
0010
0010
0010
0000
,
1000
1000
1000
0000
,
0100
0100
0100
0000
,
1000
1000
1000
0000
,
0001
0000
0100
0100
,
0200
0300
0000
0001
,
0000
0010
0000
0001
,
0000
0010
0000
0100
,
0000
1000
0000
0010
,
0000
0100
0000
0010
,
0000
0100
0000
0010
,
0000
1000
0000
0001
,
0000
1000
0000
0001
;

//---------------dance-single - ----------------
#NOTES:
     dance-single:
     :
     Easy:
     8:
     :
0000
0000
0000
0000
,
0000
0000
0000
0000
,
0000
0000
0000
0000
,
0000
0000
0000
0000
,
0001
0000
0000
1000
0000
0000
0000
0010
,
0000
1000
0000
1010
0000
1010
0000
0000
,
0000
0100
0000
0100
0010
0000
0000
0001
,
0000
1000
0000
0000
1100
0000
0011
0000
,
0100
0000
0000
0010
0000
0000
0000
1000
,
0000
0001
0000
0101
0000
0101
0000
0000
,
0000
0010
0000
0010
0100
0000
0000
0001
,
0000
1000
0000
0000
1100
0000
0011
0000
,
0100
0000
0000
0000
0001
0000
0000
0001
0000
0000
0000
0000
0000
0000
0110
0000
,
0000
0000
0000
0000
0010
0000
0000
0010
0000
0000
0000
0000
0000
0000
1001
0000
,
0000
0000
0000
0000
1000
0000
0000
1000
0000
0000
0000
0000
0000
0000
0110
0000
,
0000
0000
0000
0000
0100
0000
0000
0100
0000
0000
0000
0000
0001
0000
1000
0000
,
0000
0000
0010
0000
1000
0000
0000
1000
0000
0000
0000
0000
0000
0000
1001
0000
,
0000
0000
0100
0000
0010
0000
0000
0010
0000
0000
0000
0000
0001
0000
1000
0000
,
0000
0000
1000
0000
0001
0000
0000
0001
0000
0000
0000
0000
0100
0000
0010
0000
,
0000
0000
0100
0000
0001
0000
0000
0001
0000
0000
0000
0000
2000
0000
0000
0000
,
3010
0102
1000
0103
,
2010
0001
0010
3001
,
1200
0001
0010
1300
,
0021
0100
1000
0031
,
0000
0000
1001
0000
0010
0100
0001
0000
,
0000
0000
0000
0010
2000
0000
3002
0000
,
0023
0230
2300
3000
,
0000
0010
0002
0000
2003
0000
3100
0000
,
0110
0001
1001
0100
,
2002
3000
1000
0103
,
0022
0030
0100
0013
,
2000
3001
1100
1100
,
0202
0003
1000
0301
,
2020
3000
0001
0130
,
0220
0030
0001
0310
,
2000
0000
0001
0000
3100
0000
0100
0010
,
0000
0000
0001
0000
1000
0000
0000
1000
0000
0000
0000
0000
0100
0000
0010
0000
,
0000
0000
0010
0000
0001
0000
0000
0001
0000
0000
0000
0000
0100
0000
0010
0000
,
0000
0000
1000
0000
0010
0000
0000
0010
0000
0000
0000
0000
1000
0000
0100
0000
,
0000
0000
0010
0000
0100
0000
0000
0100
0000
0000
0000
0000
1000
0000
0001
0000
,
0000
0000
0010
0000
0001
0000
0000
0001
0000
0000
0000
0000
1000
0000
0100
0000
,
0000
0000
1000
0000
0010
0000
0000
0010
0000
0000
0000
0000
0100
0000
0001
0000
,
0000
0000
0001
0000
0100
0000
0000
0100
0000
0000
0000
0000
0001
0000
1000
0000
,
0000
0000
0001
0000
0100
0000
1000
0000
0000
1000
0000
0000
0010
0000
0000
0000
,
0110
0001
0010
1000
,
0100
1100
0010
0001
,
1000
0011
0001
0100
,
0010
1001
0100
0010
,
1000
1100
0100
0110
,
0010
0011
0001
0101
,
0100
0110
0010
1010
,
1000
1001
0001
1001
;

//---------------dance-single - ----------------
#NOTES:
     dance-single:
     :
     Medium:
     10:
     :
0000
0000
0000
0000
,
0000
0000
0000
0000
,
0000
0000
0000
0000
,
0000
0000
0000
0000
,
0001
0100
1000
0010
0000
0000
0000
0100
,
0000
0010
0000
1010
0000
1000
0001
0000
,
0000
0010
0001
0100
1000
0000
0000
0101
,
0000
0000
0000
1100
0000
0000
0000
0000
0000
0000
0000
0000
1000
0000
0001
0000
1000
0000
0001
0000
1000
0000
0000
0000
,
1001
0000
0010
0100
0000
0001
1000
0100
,
0000
0010
0000
0011
0000
1000
0001
0000
,
0000
0010
1000
0100
0001
0000
0000
0011
,
0000
0000
0000
1100
0000
0000
0000
0000
0000
0000
0000
0000
1000
0000
0001
0000
1000
0000
0001
0000
1000
0000
0000
0000
,
0010
0000
0100
0000
0001
0000
0000
0101
0000
0000
0000
0000
0000
0000
2010
0000
,
0000
0000
0001
0000
3001
0000
0000
1000
0000
0000
0000
0000
0100
0000
0020
0000
,
0000
0000
0100
0000
0130
0000
0000
0110
0000
0000
0000
0000
0001
0000
2000
0000
,
0000
0000
3100
0010
0001
0100
1000
0002
,
0000
0000
0013
0000
0001
0000
0000
0110
0000
0000
0000
0000
1000
0000
0200
0000
,
0000
0000
1300
0000
0010
0000
0000
1001
0000
0000
0000
0000
0100
0000
0001
0000
,
1000
0000
0100
0000
1000
0000
0000
0011
0000
0000
0000
0000
0000
0000
0100
0000
,
0020
0000
0000
0000
1030
0000
0000
1010
0000
0000
0000
0000
1000
0000
0000
0001
,
1000
0000
0100
0010
0000
0000
0001
0000
,
0101
0000
1010
0000
1000
0001
0100
0000
,
0011
0000
1100
0000
0001
0010
1000
0000
,
0102
0000
1000
0000
0013
0001
0100
0000
,
0001
1000
0010
1000
0000
0000
0120
0000
,
0130
0000
0000
0000
1000
0000
0001
0000
1000
0000
0000
0010
0000
0000
0100
0000
,
0001
0000
0000
0010
0000
0000
2000
0000
0000
0000
0000
0000
3000
0000
0000
0000
,
0000
0100
0010
0100
0010
0100
0010
0100
,
0020
0000
0000
0000
0031
0000
0000
0000
1001
0000
0000
0000
1000
0100
0000
1000
,
0200
0000
0000
0000
0310
0000
0000
0000
1000
0000
0000
1000
0000
0000
0001
0000
,
2000
0000
3010
0100
0001
0000
0010
0001
,
0200
0000
0000
0000
0301
0000
0000
0000
0010
0000
0000
0010
0000
0000
0001
0000
,
2000
0000
3100
1000
0001
0000
0010
0001
,
0200
0000
0000
0000
0301
0000
0010
0000
0100
0000
0000
1000
0000
0000
1000
0000
,
0020
0000
1030
0001
0100
0000
0010
1000
,
0001
0000
0000
0000
0101
0000
0000
1000
0001
0000
0000
0000
0010
0000
0100
0000
,
0010
0000
0001
0000
1000
0000
0000
1000
0000
0000
0100
0000
0010
0000
0002
0000
,
0000
0000
0103
0000
0001
0000
0000
0001
0000
0000
1000
0000
0100
0000
0010
0000
,
0001
0000
0100
0000
0010
0000
0000
0010
0000
0000
1000
0000
0001
0000
0200
0000
,
0000
0000
0301
0000
0100
0010
0000
0100
0010
0000
0000
0000
1000
0000
0001
0000
,
0000
0000
0001
0000
0010
0100
0000
0010
0100
0000
0000
0000
1000
0000
0020
0000
,
0000
0000
0130
0000
0001
0000
0000
1000
0000
0000
1000
0000
0100
0000
0020
0000
,
0000
0000
0130
0000
1000
0001
0000
1000
0001
0000
0000
0000
0100
0000
0010
0000
,
0000
0000
1000
0000
0100
0000
0001
0000
0000
0110
0000
0000
1001
0000
0000
0010
,
0100
0000
0000
0000
0001
0000
0000
0000
1000
0000
0100
0000
0001
0000
0000
0010
,
0100
0000
0000
0000
1000
0000
0000
0000
0001
0000
0100
0000
1000
0000
0000
0010
,
0100
0000
0000
0000
0001
0000
0000
0000
0010
0000
0001
0000
1000
0000
0000
0100
,
1000
0000
0000
0000
0010
0000
0000
0000
1000
0000
0100
0000
0001
0000
0000
0010
,
0001
0100
0010
0000
1000
0100
1000
0000
,
0001
0000
0010
0000
1000
0000
0000
0000
0100
0000
0010
0000
0001
0000
0000
1000
,
0001
0010
0001
0000
0010
0100
1000
0000
,
0100
0000
1000
0000
0001
0000
0000
0000
0010
0000
0100
0000
1000
0000
0000
0001
;

//---------------dance-single - ----------------
#NOTES:
     dance-single:
     :
     Hard:
     14:
     :
0000
0000
0000
0000
,
0000
0000
0000
0000
,
0000
0000
0000
0000
,
0000
0000
0000
0000
,
0001
0100
1000
0010
0000
0100
0001
1000
,
0000
0000
0010
0000
0100
0000
1010
0000
0000
0000
1010
0000
0001
0000
1000
0100
,
1000
0000
0010
0000
0100
0001
0000
0100
0000
0000
0010
0000
1000
0000
0200
0000
,
0000
0000
0000
0000
0000
0000
0310
0000
0000
0000
0000
0000
0002
0000
0000
0000
0000
0000
0000
0000
0000
0000
0000
0000
1003
0000
0000
0000
0001
0000
0000
0000
1000
0000
0000
0000
0001
0000
0000
0000
1000
0000
0000
0000
0000
0010
0000
0000
,
0100
0001
0010
1000
0000
0100
0010
0001
,
0000
0000
1000
0000
0001
0000
0011
0000
0000
0000
0011
0000
0100
0000
1000
0010
,
1000
0000
0100
0000
1000
0001
0000
0100
0000
0000
0010
0000
1000
0000
0002
0000
,
0000
0000
0000
0000
0000
0000
0013
0000
0000
0000
0000
0000
0200
0000
0000
0000
0000
0000
0000
0000
0000
0000
0000
0000
1300
0000
0000
0000
0001
0000
0000
0000
1000
0000
0000
0000
0001
0000
0000
1000
0000
0000
0001
0000
0000
1000
0000
0000
,
0001
0000
0010
0000
1100
0000
0000
1100
0000
0000
0100
0000
1000
0000
0020
0000
,
0000
0000
0100
0000
0130
0010
0000
1000
0000
0002
0000
0000
0013
0000
0001
1000
,
0001
0000
0100
0000
1010
0000
0000
1010
0000
0000
1000
0000
0001
0000
0010
0000
,
0200
0000
0000
0000
1300
0010
0000
1000
0000
0001
0000
0000
0010
0000
0001
0100
,
0001
0000
1000
0000
0110
0000
0000
0110
0000
0000
0100
0000
0001
0000
0020
0000
,
0000
0000
0001
0000
0031
1000
0000
0100
0000
1000
0000
0000
0010
0000
0200
0000
,
0000
0000
0001
0000
0301
1000
0000
1100
0000
0000
0010
0000
1000
0000
0200
0000
,
0000
0000
0010
0000
0310
0001
0000
0011
0000
0000
0100
0000
1000
0000
0001
1000
,
0001
0000
0000
0010
0200
0000
0000
1000
0000
0000
0301
0000
0100
0000
1000
0000
,
1010
0000
0000
0000
0101
0000
0000
0001
0010
0000
0100
0000
1000
0000
0001
0100
,
0001
0000
0000
0000
0011
0000
0000
1000
0001
0000
0100
0000
0010
0000
1000
0000
,
0102
0000
0000
0000
1003
0000
0000
0010
0001
0000
0100
0000
0010
0000
1000
0001
,
1000
0000
0000
0000
0020
0100
0000
0100
0000
0000
1000
0000
1030
0000
0001
0000
,
0010
0000
0000
0000
0001
1000
0001
0000
0020
0000
0000
0230
0000
0000
1300
0000
,
1001
0000
0000
1010
0000
0000
1100
0000
0000
0000
0001
0000
0100
0000
0010
1000
,
0000
0200
2300
3020
2030
3002
0023
0230
,
2300
0000
3010
0000
0100
0001
0000
0001
0100
0000
0000
0010
0000
0010
0000
1000
,
0002
0000
0000
0000
0103
0010
0100
0010
0100
0000
0000
0110
0000
0000
1001
0000
,
2001
0000
0000
0000
3100
0010
0100
0010
0100
0000
0000
1000
0000
0001
1000
0000
,
0010
0000
0100
0000
0001
1000
0000
0001
1000
0000
0000
1100
0000
0000
0001
1000
,
0200
0000
0000
0000
0310
0001
0010
0001
0100
0000
0000
0001
0000
1000
0000
0100
,
0020
0000
0000
0000
0031
0100
0000
0100
0001
0000
0000
0011
0000
0000
1100
0000
,
2100
0000
0000
0000
3001
1000
0001
1000
0001
0000
0100
0010
0000
0100
0010
0000
,
1000
0000
1000
0000
0001
0010
0001
0010
0001
0000
0000
0000
0101
0000
0010
0000
,
0000
0000
0100
0000
1010
0000
0000
1010
0000
0000
0001
0000
1000
0000
0200
0000
,
0000
0000
1300
0000
0001
1000
0000
0101
0000
0000
0010
0000
0100
0000
0002
0000
,
0000
0000
0013
0000
0001
0100
0000
1000
0000
0000
0010
0000
0100
0000
2020
0000
,
0030
0000
0001
0000
3001
0100
0000
1001
0000
0000
0010
0000
1000
0000
0100
0010
,
0100
0000
1000
0000
0001
0010
0000
0010
0000
0001
1000
0000
0010
0000
0202
0000
,
0300
0000
1000
0000
1003
0100
0000
0100
0000
0010
0000
0000
0001
0000
1000
0001
,
0100
0000
0010
0000
1000
0001
0000
1000
0000
0001
0100
0000
0010
0000
1000
0010
,
1000
0000
0001
0000
0100
0000
0110
0000
0000
1001
0000
0001
1000
0000
0100
0010
,
0001
0000
0000
0000
0011
0000
0000
1000
0000
1000
0000
0000
0010
0000
0100
0001
,
0100
0000
0000
0000
1010
0000
0000
0001
0000
0001
0000
0000
1000
0000
0000
0010
,
0100
0000
0100
0000
0001
0000
0000
0010
0000
0010
0000
0000
0001
0000
1000
0100
,
1000
0000
0100
0000
0010
0000
0000
0001
0000
0001
0000
0000
0100
0000
0010
1000
,
0010
0000
0100
0000
0110
0000
0000
0001
0000
1000
0000
0000
0100
0000
1000
0001
,
1000
0000
0010
0000
0100
0000
0000
0001
0000
0010
0000
0000
0001
0000
1000
0100
,
1000
0000
0010
0000
1100
0000
0000
0001
0000
0100
0000
0000
0011
0000
1000
0001
,
1000
0000
0010
0000
1001
0000
0000
0100
0000
0001
0000
0000
0011
0000
0100
1000
;
