#TITLE:SODA GALAXY;
#ARTIST:KO3;
#BANNER:SODA GALAXY.png;
#BACKGROUND:SODA GALAXY-bg.png;
#JACKET:SODA GALAXY-jacket.png;
#MUSIC:SODA GALAXY.ogg;
#SAMPLESTART:87.041;
#SAMPLELENGTH:20;
#DISPLAYBPM:178;
#BPMS:0=178;
#BGCHANGES:;

//---------------dance-single - ----------------
#NOTES:
     dance-single:
     :
     Beginner:
     3:
     :
0000
0000
0000
0000
,
0000
0000
0000
0000
,
0000
0000
0000
0000
,
0000
0000
0000
0000
,
0000
0000
0000
0000
,
0001
0000
0000
0000
,
0001
0000
0000
0000
,
0001
0000
0100
0000
,
0001
0000
0000
0000
,
1000
0000
1000
0000
,
1000
0000
1000
0000
,
1000
0000
1000
0000
,
1000
0000
0000
0000
,
0001
0000
0001
0000
,
0001
0000
0001
0000
,
0001
0000
0001
0000
,
0002
0000
0000
0000
,
0003
0000
0000
0000
,
0001
0000
0000
0000
,
0001
0000
0010
0000
,
0001
0000
0000
0000
,
2000
0000
0000
0000
,
3000
0000
0000
0000
,
1000
0000
0010
0000
,
1000
0000
0000
0000
,
0001
0001
0001
0000
,
0001
0000
0000
0000
,
0002
0000
0000
0000
,
0003
0000
0000
0000
,
1000
1000
1000
0000
,
1000
0000
0000
0000
,
2000
0000
0000
0000
,
3000
0000
0000
0000
,
1001
0000
0000
0000
,
0000
0000
0000
0000
,
0000
0000
0000
0000
,
0000
0000
0000
0000
,
0001
0000
0001
0000
,
0001
0000
0000
0000
,
0001
0000
0010
0000
,
0001
0000
0000
0000
,
1000
0000
0000
0000
,
1000
0000
0000
0000
,
1000
0000
0010
0000
,
1000
0000
0000
0000
,
0001
0000
0000
0000
,
0001
0000
0000
0000
,
0001
0000
0010
0000
,
0001
0000
0000
0000
,
2000
0000
0000
0000
,
3000
0000
0000
0000
,
1000
1000
1000
0000
,
1000
0000
0000
0000
,
0002
0000
0000
0000
,
0003
0000
0000
0000
,
0001
0001
0001
0000
,
0001
0000
0000
0000
,
0001
0000
0100
0000
,
0001
0000
0100
0000
,
0001
0000
0100
0000
,
0001
0000
0000
0000
,
1000
0000
0100
0000
,
1000
0000
0100
0000
,
2000
0000
0000
0000
,
3000
0000
0000
0000
,
0001
0000
0000
0000
,
0001
0000
0000
0000
,
0001
0000
0010
0000
,
0001
0000
0000
0000
,
1000
0000
0000
0000
,
1000
0000
0000
0000
,
1000
0000
0010
0000
,
1000
0000
0000
0000
,
0001
0000
0001
0000
,
0001
0000
0010
0000
,
0001
0000
0100
0000
,
0001
0000
0000
0000
,
1000
0000
1000
0000
,
1000
0000
0010
0000
,
1000
0000
0100
0000
,
1000
0000
0000
0000
,
0000
0000
0000
0000
;

//---------------dance-single - ----------------
#NOTES:
     dance-single:
     :
     Easy:
     6:
     :
0000
0000
0000
0000
,
0000
0000
0000
0000
,
0000
0000
0000
0000
,
0000
0000
0000
0000
,
0000
0000
0000
0000
,
0001
0000
0001
0000
,
1000
0100
1000
0000
,
1000
0000
1000
0000
,
0001
0100
0001
0000
,
0010
0010
0010
0000
,
1000
1000
1000
0000
,
0100
0100
0100
0000
,
0001
0001
0001
0000
,
0010
0010
1000
1000
,
0100
0100
0001
0001
,
0010
0010
0010
0020
,
0000
0000
0030
0000
,
2000
0000
3010
0000
,
1000
0010
1000
0000
,
0002
0000
0013
0000
,
0001
0010
0001
0000
,
2000
0000
3100
0000
,
1000
0100
1000
0000
,
0002
0000
0103
0000
,
0001
0100
0001
0000
,
2002
0000
0000
0000
,
3003
0000
0000
0000
,
0010
0100
0010
0000
,
0100
0010
0100
0000
,
0002
0000
1003
0000
,
0100
0010
0100
0000
,
2000
0000
3001
0000
,
0100
0010
0100
0000
,
0002
0000
0003
0000
,
0020
0000
0030
0000
,
0200
0000
0300
0000
,
2000
0000
3000
0000
,
0001
0100
0001
0000
,
1000
0000
1000
0000
,
1000
0100
1000
0000
,
0001
0000
0001
0000
,
1000
0000
1001
0000
,
0001
0000
1001
0000
,
1000
0000
1001
0000
,
0001
0000
0000
0000
,
0010
0000
0110
0000
,
0100
0000
0110
0000
,
0010
0000
0110
0000
,
0100
0000
0000
0000
,
0001
0000
1000
0000
,
0001
1000
0001
0000
,
0010
0000
0100
0000
,
0010
0100
0010
0000
,
1000
0000
0001
0000
,
1000
0001
1000
0000
,
0100
0000
0010
0000
,
0100
0010
0100
0000
,
0000
1001
0000
0110
,
0000
1001
0000
0110
,
0000
1001
0000
0110
,
0000
1001
0000
0110
,
0010
0010
0010
0000
,
0100
0100
0100
0000
,
0001
1000
0001
1000
,
2002
0000
0000
3003
,
0010
1000
0001
0100
,
0001
0010
0100
1001
,
0100
0010
1000
0100
,
0001
0100
1000
1001
,
0100
0001
1000
0100
,
0010
0001
0100
1001
,
0010
1000
0001
0100
,
0010
1000
0001
0001
,
1000
0100
0001
0100
,
1000
0100
0001
0100
,
1000
0010
0001
0010
,
1000
0010
0001
0010
,
1000
0100
1000
1000
,
0001
0100
0001
0001
,
1000
0100
0010
0001
,
0200
0000
0300
1001
,
0000
0000
0000
0000
;

//---------------dance-single - ----------------
#NOTES:
     dance-single:
     :
     Medium:
     9:
     :
0000
0000
0000
0000
,
0000
0000
0000
0000
,
0000
0000
0000
0000
,
0000
0000
0000
0000
,
0000
0000
0000
0000
,
0001
0000
0100
0000
0001
0000
1000
0100
,
0000
1000
0100
0000
1100
0000
0000
0000
,
1000
0000
0010
0000
1000
0000
0001
0010
,
0001
0010
0000
0010
0002
0000
2003
0000
,
3010
0100
0001
1000
,
0100
0010
0001
1000
,
0001
0010
0100
1000
,
0001
0100
0010
1000
,
1000
0100
1000
0000
0001
0100
0001
0000
,
1000
0010
0100
0000
0001
0010
0100
0000
,
1000
0001
1000
0001
1000
0001
1000
0020
,
0000
0000
0030
0110
,
2001
0000
3001
0000
1000
0000
0001
0100
,
0000
0010
0000
0100
0010
0000
1000
0000
,
0002
0000
0100
0000
1003
0000
0100
0010
,
0000
0100
0000
0010
0001
0000
1000
0000
,
0120
0000
0130
0000
0001
0000
0010
0100
,
0000
1000
0000
0001
1000
0000
0001
0000
,
1000
0001
1000
0001
1000
0000
0010
0200
,
0000
0320
0000
1030
0000
1000
0100
0000
,
1002
1003
0100
0010
,
0210
0310
1000
0001
,
0010
0100
0010
0100
0010
0000
0001
0100
,
0000
0010
0000
1000
0000
0010
0000
0100
,
0002
0000
0000
0000
1003
0000
0100
1000
,
0000
0010
0000
1000
0000
0100
0000
1000
,
0001
1000
0001
0000
0010
0000
0100
2000
,
0000
3020
0000
0130
0000
0010
1000
0000
,
2000
0000
0000
0000
0000
0000
0000
3200
,
0000
0000
0000
0300
,
0002
0000
0000
0000
0000
0000
0000
0203
,
0000
0000
0000
0300
,
1000
0001
1000
1000
,
0001
1000
0001
0001
,
0100
0010
0100
0100
,
0010
0100
0010
0000
,
0001
0000
0011
0000
,
1000
0010
0001
0000
,
1000
0000
1010
0000
,
0001
0010
1000
0000
,
0001
0000
0101
0000
,
1000
0100
0001
0000
,
1000
0000
1100
0000
,
0001
0100
1000
0000
,
0001
0001
1000
1000
,
0001
0001
1000
1000
,
0001
0001
1000
1000
,
0001
0001
1000
1000
,
0010
0010
0100
0100
,
0010
0010
0100
0100
,
0010
0010
0100
0100
,
0010
0010
0100
0100
,
0001
1010
0000
1100
,
0000
0101
0000
0011
,
0000
1010
0000
1100
,
0000
0101
0000
0011
,
1000
0010
1000
0000
1000
0100
1000
0000
,
0001
0010
0001
0000
0001
0100
0001
0000
,
1000
0001
1000
0001
1000
0001
1000
0000
,
2002
0000
0000
3003
,
0001
0000
0010
0000
0100
1000
0010
0000
,
0100
0000
0001
0000
0010
0001
0100
0000
,
1000
0000
0010
0000
0100
0001
0010
0000
,
0100
0000
1000
0000
0010
0100
0001
0000
,
0001
0000
1000
0000
0001
1000
0100
0000
,
0010
0000
0100
0000
1000
0001
0100
0000
,
0001
0000
1000
0000
0001
1000
0100
0000
,
0020
0000
0130
1001
,
0001
0010
1000
0010
,
0001
0010
1000
0110
,
0001
0000
0100
0000
0101
0000
1000
0100
,
0000
0010
0000
0100
1000
0000
1001
0000
,
0010
0000
0000
1010
0000
0000
1100
0000
,
0010
0000
0000
0011
0000
0000
0101
0000
,
0010
0000
1000
0000
0100
0010
0100
0020
,
0000
0100
0000
0100
0030
0000
1001
0000
,
0000
0000
0000
0000
;

//---------------dance-single - ----------------
#NOTES:
     dance-single:
     :
     Hard:
     12:
     :
0000
0000
0000
0000
,
0000
0000
0000
0000
,
0000
0000
0000
0000
,
0000
0000
0000
0000
,
0000
0000
0000
0000
,
0001
0000
0001
0000
0101
0000
1000
0100
,
0000
1000
0100
0000
1100
0000
0000
0000
,
1000
0000
1000
0000
1010
0000
0001
0010
,
0001
0010
0000
0010
0001
1000
0001
1000
,
0010
0110
0001
1001
,
0100
0110
1000
1001
,
0010
0110
0001
1001
,
0100
0110
1000
1001
,
1000
0100
0001
0000
1000
0100
0010
0000
,
0001
0100
1000
0000
0100
0010
1000
0000
,
0001
0100
0001
0100
0010
1000
0010
1000
,
0000
1010
0000
0101
0000
0100
0001
0010
,
0200
0000
0310
0000
1000
0010
0100
0001
,
0000
1100
0000
0110
0000
0011
0000
0001
,
2000
0000
3020
0000
0130
1000
0001
0010
,
0000
1010
0000
1000
0100
0010
0100
1000
,
0002
0000
1003
0000
0001
0010
0100
1000
,
0000
0011
0000
0110
0000
1100
0000
1000
,
0001
0010
0001
0010
1000
0001
0100
2000
,
0000
3020
0000
0130
0000
1000
0100
0000
,
0001
0000
1000
0000
0001
0000
1000
0000
0010
0000
0000
0100
0000
0000
0110
0000
,
0000
1001
0000
1000
0200
0000
0310
0000
,
2000
0000
3002
0000
0103
0010
0100
0010
,
0000
0110
0000
1010
0000
0011
0000
0100
,
2000
0000
3100
0000
0001
0100
0001
0100
,
0000
0011
0000
1010
0000
0110
0000
0100
,
0010
1000
0010
1000
0001
0100
1000
0002
,
0000
0023
0000
1030
0000
1000
0100
0010
,
0001
0010
0001
0000
0010
1000
0010
0000
,
1000
0100
1000
0000
0100
0001
0100
0000
,
0001
0100
0001
0000
0100
1000
0100
0000
,
1000
0010
1000
0000
0010
0001
0010
0000
,
0001
0000
0001
0000
0110
0000
1000
0100
,
0000
0001
0100
0000
0110
0000
0000
0000
,
0100
0000
0100
0000
1001
0000
0010
0001
,
0000
0100
0001
0000
1001
0000
0200
0000
,
0310
0000
1000
0000
1100
0000
0010
0001
,
0000
0001
0010
0000
1001
0000
0000
0000
,
0010
0000
0001
0000
0011
0000
0100
1000
,
0000
1000
0100
0000
1001
0000
0200
0000
,
0301
0000
1000
0000
0110
0000
1000
0100
,
0000
0100
1000
0000
0110
0000
0010
0100
,
1000
0000
0001
0000
0110
0000
0001
0100
,
0000
0100
0001
0000
0100
0010
1000
0100
,
1000
0000
0000
0001
0010
0001
0000
1100
,
0000
0110
0000
0011
0000
1000
0100
1000
,
0100
0000
0000
1000
0010
1000
0000
1010
,
0000
1001
0000
0011
0000
0000
0100
0000
,
1001
0000
0000
0100
0001
0010
0000
1100
,
0000
0101
0000
1001
0000
0100
1000
0100
,
1000
0000
0000
0001
0100
0000
0100
0001
,
0000
0100
0000
0020
0000
0000
0030
0000
,
1000
0110
0001
0110
,
1000
0110
0001
0110
,
1000
0110
0001
0110
,
1000
0110
0001
0110
,
1000
0100
0010
0000
0001
0100
0010
0000
,
1000
0010
0100
0000
0001
0100
0010
0000
,
1000
0010
0001
0010
1000
0100
0010
0000
,
2002
0000
0000
3003
,
1000
0001
0100
0010
1000
0010
0001
1000
,
0100
0001
1000
0100
0010
0001
1000
0000
,
0010
0100
0001
0010
0100
1000
0010
0001
,
0010
0100
0001
1000
0100
0010
0100
0000
,
0001
1000
0010
0100
0001
0100
1000
0001
,
0010
1000
0001
0010
0100
1000
0001
0000
,
0100
0010
1000
0100
0010
0001
0100
1000
,
0100
0010
1000
0001
0010
0100
0010
0000
,
0001
0011
1000
1010
,
0001
0101
1000
0100
,
1000
0010
0100
0000
0001
0010
0100
0010
,
0000
0011
0000
1000
0002
0000
2003
0000
,
3010
0000
0100
0001
0000
1000
0100
0000
,
0110
0000
0001
0010
0000
0100
1000
0000
,
0001
0000
1000
0000
0010
0000
0100
0000
0001
0000
1000
0000
0001
1000
0001
0000
,
0000
0101
0000
1100
0000
0000
1001
0000
,
0000
0000
0000
0000
;

//---------------dance-single - ----------------
#NOTES:
     dance-single:
     :
     Challenge:
     15:
     :
0000
0000
0000
0000
,
0000
0000
0000
0000
,
0000
0000
0000
0000
,
0000
0000
0000
0000
,
0000
0000
0000
0000
,
0001
1000
1000
0010
0010
0100
0100
0001
,
0010
1000
0001
0010
0100
1000
0100
0001
,
0010
0100
1000
0010
0001
0001
0001
0001
,
1000
0010
0100
0100
0001
1000
1000
1000
,
0010
0000
1000
0100
1000
0000
0001
0000
0010
0000
0100
1000
0100
0000
0001
0000
,
0100
0000
0010
0001
0010
0000
0100
0000
1000
0000
0001
0100
0001
0000
1000
0000
,
0010
0000
1000
0001
1000
0000
0100
0000
0010
0000
0001
1000
0001
0000
0010
0000
,
0100
0000
0010
0001
1000
0000
0001
0000
0100
0000
0010
1000
0001
0000
0100
0000
,
0001
0010
0100
0010
0001
0000
1000
0100
1000
0000
0010
0100
0001
0000
1000
0000
,
0100
0010
0001
0010
0100
0000
1000
0010
1000
0000
0001
0100
0001
0000
1000
0000
,
0001
0010
0100
1000
0100
0010
0001
0010
0100
1000
0100
0010
0001
0000
0101
0000
,
0000
1010
1000
0110
0000
1001
1100
0011
,
0100
0000
0001
0010
0001
0000
1000
0100
1000
0000
0020
0000
0230
0000
0302
0000
,
0013
0110
1000
0020
0130
2000
3100
0002
,
0013
0000
0001
1000
0100
0000
0000
0000
1001
0000
2000
0000
3020
0000
0230
0000
,
0301
0010
0001
0000
1000
0010
2000
0000
3100
0000
0020
0000
0031
1000
0200
0000
,
0310
0000
0100
1000
0010
0000
0100
0001
0010
0000
0200
0000
2300
0000
3002
0000
,
0013
0001
0100
0000
1000
0000
0200
0000
0301
0010
0002
0000
1003
0000
0200
0000
,
0310
0010
0010
0010
0002
0203
0302
2003
,
3010
1000
0200
0000
1300
0001
0020
0000
0031
0000
0100
0001
2000
0000
3020
0000
,
0130
0000
0001
0000
0010
0000
1000
0000
1100
0000
0000
0011
0000
0000
0101
0000
,
0000
0010
0001
0100
0010
1000
1010
0000
,
1000
0000
0010
1000
0001
0000
0100
0010
1000
0000
0002
0000
2003
0000
3020
0000
,
0130
0001
0100
0010
1000
0001
0200
0000
0310
1000
0002
0000
1003
0100
0020
0000
,
0031
0100
1000
0100
0001
2000
3020
0230
,
0301
0010
0100
1000
0001
0000
0200
0000
0301
0000
0020
0000
0031
0000
2000
0000
,
3100
0100
0100
0100
0020
0032
0203
0302
,
0013
0200
0310
0002
0103
0020
2030
3002
,
0103
0010
0100
1000
0100
0010
0100
0001
,
0010
1000
0010
0100
0010
1000
0010
0001
,
0100
1000
0100
0001
0020
0230
2300
3002
,
0103
2000
3010
0002
1003
0020
0230
0320
,
0031
1000
0010
1000
0100
0100
0010
0001
,
0001
0010
0001
0010
1000
1000
0100
0100
,
0100
0010
1000
0010
0001
0001
0100
1000
,
1000
0001
0010
0100
1000
0010
0100
0001
,
0020
0130
1000
0002
2003
3002
0013
0200
,
0310
0002
0103
2000
3010
0002
0023
0230
,
2300
3001
0100
0002
0023
0230
0320
0032
,
0013
2000
3001
0200
0310
2000
3002
0103
,
2000
3010
1000
0200
0320
0032
2003
3002
,
0013
0200
0310
0002
0103
2000
3200
0320
,
0230
0301
0010
2000
3002
2003
3200
0320
,
0130
0002
1003
0010
1000
0100
0010
0001
,
0101
0000
0010
1000
1100
0001
0100
1010
,
0000
1001
0000
0011
0000
0010
0110
1000
,
1100
0000
0001
0010
1001
0100
0010
0101
,
0000
0011
0000
0110
0000
1000
1010
0001
,
1001
0000
0010
1000
1010
0001
0100
1100
,
0000
0110
0000
0011
0000
0100
0101
0100
,
0011
0000
0010
0001
0101
0010
1000
1001
,
0000
1010
0000
1100
0001
0100
0110
0010
,
1000
0010
1010
0010
0100
0001
0011
0010
,
0100
1000
1100
0001
0100
0010
0101
1000
,
0010
1000
1100
0001
0010
0100
0011
0100
,
0001
1000
0101
0010
1000
0001
1010
0100
,
1001
0010
1000
0100
1001
0010
0001
0100
,
0110
0001
0010
1000
0110
1000
0100
0001
,
1000
0010
1000
0010
0100
0001
0100
0001
0010
0001
0010
0001
1000
0100
1000
0100
,
0010
0001
0001
0001
1000
0100
1000
0001
,
0110
0000
0010
0000
0001
0000
0100
0000
1000
0001
1000
0000
0100
0000
0010
0000
,
0001
0000
0100
0010
1000
0000
0100
0010
0001
0000
1000
0000
0001
0000
0100
0000
,
1010
0000
0100
0001
0100
0000
0010
0000
0001
0000
0010
0000
1000
0000
0100
0000
,
0001
0100
0010
0100
0001
0100
1000
0010
,
0101
0000
0001
0000
0010
0000
1000
0000
0100
0010
0100
0000
1000
0000
0001
0000
,
0010
0000
0001
0100
0001
0000
0010
0100
1000
0000
0010
0000
1000
0000
0001
0000
,
1100
0000
0001
0000
0010
0000
1000
0000
0100
1000
0001
0000
0100
0000
0010
0000
,
1001
0011
0000
0100
0010
0001
0010
1000
,
0100
0000
1000
0010
1000
0001
0100
0110
,
0000
1010
0000
1100
0001
0100
0011
1000
,
0101
0000
0001
0010
0001
0000
0100
0010
1000
0000
0001
0000
1000
0000
1001
0000
,
0000
0000
0010
0001
0100
0000
0010
0000
0000
0000
1000
0001
0100
0000
0000
0000
,
0010
0100
1000
0100
0001
1000
0001
0010
,
0100
0010
1000
0001
0100
1000
0001
0010
,
1000
0000
0100
0000
0010
0000
0001
0000
0100
0010
0100
0010
1000
0001
1000
0001
,
0010
0000
0101
0000
0000
0000
1100
0000
0000
0000
0001
0010
0100
0020
0002
0000
,
0000
0000
0000
0000
,
0000
0000
0000
0000
,
0033
0000
0000
0000
;

//---------------dance-double - ----------------
#NOTES:
     dance-double:
     :
     Easy:
     6:
     :
00000000
00000000
00000000
00000000
,
00000000
00000000
00000000
00000000
,
00000000
00000000
00000000
00000000
,
00000000
00000000
00000000
00000000
,
00000000
00000000
00000000
00000000
,
00010000
00000000
00010000
00000000
,
01000000
10000000
01000000
00000000
,
00100000
00000000
00100000
00000000
,
00010000
00001000
00010000
00000000
,
00001000
00000100
00001000
00000000
,
00000001
00000010
00000001
00000000
,
00000010
00001000
00000010
00000000
,
00001000
00010000
00001000
00000000
,
00010000
00010000
00100000
00100000
,
10000000
10000000
01000000
01000000
,
00010000
00001000
00010000
00001000
,
00022000
00000000
00033000
00000000
,
00002000
00000000
00003100
00000000
,
00000010
00000001
00000010
00000000
,
00000002
00000000
00000103
00000000
,
00000010
00001000
00000010
00000000
,
00020000
00000000
00031000
00000000
,
01000000
00010000
01000000
00000000
,
00200000
00000000
10300000
00000000
,
01000000
00010000
00001000
00000000
,
00022000
00000000
00033000
00000000
,
00010000
00001000
00010000
00000000
,
00010000
00001000
00000010
00000000
,
00000001
00001000
00000001
00000000
,
00000002
00000000
00000103
00000000
,
00001000
00010000
00001000
00000000
,
00020000
00000000
01030000
00000000
,
10000000
00010000
10000000
00000000
,
02000000
00000000
03000000
00000000
,
00020000
00000000
00030000
00000000
,
00002000
00000000
00003000
00000000
,
00000020
00000000
00000030
00000000
,
00000001
00000000
00000101
00000000
,
00000100
00000000
00001000
00000000
,
00010000
00000000
00011000
00000000
,
00001000
00000000
00100000
00000000
,
01000000
00000000
11000000
00000000
,
00100000
00000000
00001000
00000000
,
00010000
00000000
00011000
00000000
,
00001000
00000000
00000010
00000000
,
00000001
00000000
00000101
00000000
,
00001000
00000000
00000100
00000000
,
00010000
00000000
00011000
00000000
,
01000000
00000000
00100000
00000000
,
20000000
00000000
32000000
00000000
,
03020000
00000000
00032000
00000000
,
00023000
00000000
00230000
00000000
,
00320000
00000000
00032000
00000000
,
00003200
00000000
00002300
00000000
,
00023000
00000000
00032000
00000000
,
00003020
00000000
00000032
00000000
,
00000203
00000000
00001300
00000000
,
00000000
00011000
00000000
00101000
,
00000000
00011000
00000000
00001010
,
00000000
00011000
00000000
01010000
,
00000000
11000000
00000000
10010000
,
01000000
00001000
00010000
00000000
,
01000000
00010000
00001000
00000000
,
00000010
00000100
00001000
00000001
,
00001001
00000000
00000000
00000000
,
00100000
10000000
01000000
00010000
,
00001000
00010000
00100000
00010000
,
00001000
00000100
00000001
00000010
,
00000100
00001000
00000100
00010000
,
00001000
00000010
00000001
00000100
,
00001000
00010000
00100000
10000000
,
01000000
00010000
00001000
01000000
,
00010000
01000000
00001000
00010000
,
00001000
00000010
00000001
00000100
,
00001000
00000100
00000001
00000110
,
00001000
00010000
00100000
10000000
,
01000000
00010000
01000000
10010000
,
01000000
01000000
00010000
00001000
,
00000010
00000010
00000100
00010000
,
00001000
00100000
01000000
00010000
,
00002000
00000000
00000000
00013000
,
00000000
00000000
00000000
00000000
;

//---------------dance-double - ----------------
#NOTES:
     dance-double:
     :
     Medium:
     8:
     :
00000000
00000000
00000000
00000000
,
00000000
00000000
00000000
00000000
,
00000000
00000000
00000000
00000000
,
00000000
00000000
00000000
00000000
,
00000000
00000000
00000000
00000000
,
10000000
01000000
00100000
00000000
,
00010000
01000000
00000000
00001000
00010000
00000000
00000000
00000000
,
00010000
00000100
00001000
00000000
,
00000100
00000010
00000000
00000001
00000020
00000000
00002030
00000000
,
00013000
01000000
10000000
00100000
,
10000000
00000000
01000000
00000000
00010000
00001000
00010000
00000000
,
00001000
00000100
00000001
00000010
,
00000001
00000000
00000100
00000000
00001000
00010000
00001000
00000000
,
00010000
00000000
00010000
00000000
00100000
01000000
00100000
00000000
,
10000000
00000000
10000000
00000000
01000000
00010000
00001000
00000000
,
00000010
00000000
00000100
00000000
00010000
00001000
00010000
00002000
,
00000000
00000000
00003000
00011000
,
00001000
00000000
00000100
00000000
00000010
00000000
00000010
00000001
,
00000000
00000100
00000000
00000010
00001000
00000000
00000100
00000000
,
00010000
00000000
00001000
00000000
00010000
00000000
00100000
01000000
,
00000000
00100000
00000000
10000000
01000000
00000000
00100000
00000000
,
00100000
00000000
00001000
00000000
00010000
00000000
00010000
00000100
,
00000000
00001000
00000000
00000100
00000010
00000000
00000001
00000000
,
00000100
00000000
00001000
00000000
00010000
00000000
00100000
20000000
,
00000000
32000000
00000000
03100000
00000000
00001000
00010000
00000000
,
00001000
00000010
00000100
00000001
,
00000100
00001000
00010000
00000000
,
00200000
00000000
20300000
00000000
30010000
00000000
10000000
00100000
,
00000000
00010000
00000000
00001000
00000000
00000100
00000000
00000010
,
00001000
00000000
00010000
00000000
00001000
00000000
00010000
01000000
,
00000000
00100000
00000000
00010000
00000000
01000000
00000000
00100000
,
00010000
00000000
00010000
00000000
00100000
00000000
01000000
00020000
,
00000000
00230000
00000000
00301000
00000000
00010000
00001000
00000000
,
00000010
00000010
00000010
00000000
,
00000001
00000001
00000001
00000000
,
00000100
00000100
00000100
00000000
,
00001000
00001000
00001000
00000000
,
00010000
00000000
00100000
00000000
01000000
00000000
10000000
01000000
,
10000000
01000000
00000000
00000000
01100000
00000000
00000000
00000000
,
00010000
00000000
00001000
00000000
00000100
00000000
00000010
00001000
,
00000010
00001000
00000000
00000000
00001001
00000000
00000000
00000000
,
00000001
00000000
00000100
00000000
00000110
00000000
00000000
00001000
,
00010000
00001000
00000000
00000000
00011000
00000000
00000000
00000000
,
00100000
00000000
01000000
00000000
01100000
00000000
00000000
10000000
,
01000000
00100000
00000000
00000000
01100000
00000000
00000000
00000000
,
00010000
00000000
00100000
00000000
00101000
00000000
00000000
00001000
,
00010000
00001000
00000000
00000000
00011000
00000000
00000000
00000000
,
00010000
00000000
00000100
00000000
00001100
00000000
00000000
00000010
,
00000001
00000010
00000000
00000000
00000002
00000000
00000000
00000000
,
00000103
00000100
00001000
00001000
,
00010000
00010000
00100000
00100000
,
01000000
01000000
00001000
00001000
,
00010000
00000010
00010000
00010000
,
00001000
00000010
00001000
00001000
,
00010000
00100000
00010000
00010000
,
00001000
00000100
00001000
00010000
,
01000000
10000000
00100000
00000000
,
00000000
10100000
00000000
11000000
,
00000000
01010000
00000000
00011000
,
00000000
00001010
00000000
00000110
,
00000000
00000101
00000000
00000011
,
00000001
00000100
00000010
00001000
,
00000100
00010000
00001000
00100000
,
00010000
10000000
01000000
00000000
00100000
00001000
00010000
00000000
,
00022000
00000000
00000000
00033000
,
00001000
00000010
00001000
00000100
,
00000001
00000000
00000100
00000000
00000010
00000001
00000100
00000000
,
00001000
00010000
00100000
01000000
,
10000000
00000000
00100000
00000000
00010000
00100000
10000000
00000000
,
01000000
00100000
00001000
00010000
,
00000010
00000000
00000100
00000000
00001000
00000100
00000001
00000000
,
00000010
00001000
00010000
01000000
,
20000000
00000000
00010000
30010000
,
10000000
00100000
10000000
01000000
,
00010000
00000000
00001000
00000000
00010000
00001000
00010000
00000000
,
00001000
00000000
00000010
00000000
00000001
00000000
00000100
00000010
,
00000000
00001000
00000000
00000010
00001000
00000000
00000100
00000000
,
00010000
00000000
00001000
00000000
00100000
00010000
00100000
00000000
,
01000000
00000000
10000000
00000000
00010000
01000000
00010000
00000000
,
00100000
00000000
00001000
00000000
00010000
00000000
00010000
00000200
,
00000000
00000010
00000000
00000010
00000300
00000000
00001001
00000000
,
00000000
00000000
00000000
00000000
;

//---------------dance-double - ----------------
#NOTES:
     dance-double:
     :
     Hard:
     12:
     :
00000000
00000000
00000000
00000000
,
00000000
00000000
00000000
00000000
,
00000000
00000000
00000000
00000000
,
00000000
00000000
00000000
00000000
,
00000000
00000000
00000000
00000000
,
00000001
00000000
00000001
00000000
00000101
00000000
00001000
00000100
,
00001000
00000100
00001000
00000000
00001100
00000000
00000000
00000000
,
00010000
00000000
00010000
00000000
00011000
00000000
00100000
00010000
,
00100000
00010000
00000000
00010000
01000000
00010000
01000000
00000000
,
00100000
10100000
01000000
01010000
,
00001000
00011000
00010000
00011000
,
00000100
00001100
00000010
00000011
,
00000001
00000101
00001000
00001100
,
00000001
00000100
00000001
00000100
00000010
00001000
00000010
00001000
,
00000100
00010000
00000100
00010000
00001000
00010000
00001000
00010000
,
00001000
00100000
00001000
00100000
01000000
00100000
01000000
00200000
,
00000000
00000000
00010000
00310000
,
02000000
00000000
03100000
00000000
10000000
01000000
00010000
01000000
,
00000000
00100000
00000000
00001000
00000000
00010000
00011000
00000000
,
00002000
00000000
00003200
00000000
00000301
00000010
00000001
00000010
,
00000000
00000100
00000000
00001000
00000100
00010000
00000100
00000000
,
00020000
00000000
01030000
00000000
00100000
01000000
10000000
01000000
,
00000000
00100000
00000000
00010000
01000000
10000000
01000000
00000000
,
00001000
00100000
00001000
00100000
00001000
00010000
00000100
00020000
,
00000000
02030000
00000000
03100000
00000000
00001000
00010000
00000000
,
00000100
00000000
00001000
00000000
00000100
00000000
00001000
00000000
00000100
00000000
00000000
00000100
00000000
00000000
00000100
00000000
,
00000000
00000110
00000000
00000001
00000000
00000100
00000110
00000000
,
00002000
00000000
00023000
00000000
00130000
01000000
00100000
01000000
,
00000000
10000000
00000000
01000000
00000000
00100000
00000000
10000000
,
02000000
00000000
03010000
00000000
00001000
00000010
00001000
00000010
,
00000000
00000001
00000000
00001000
00000000
00000100
00000000
00000001
,
00000100
00010000
00001000
00010000
00001000
01000000
00010000
20000000
,
00000000
32000000
00000000
03100000
00000000
00010000
00100000
01000000
,
10000000
01000000
10000000
00000000
00100000
00000000
00010000
00000000
,
00001000
00010000
00001000
00000000
00000100
00000000
00000001
00000000
,
00000010
00001000
00000010
00000000
00001000
00000000
00010000
00000000
,
01000000
10000000
01000000
00000000
01000000
00000000
00010000
00000000
,
00001000
00000000
00000010
00000000
00000011
00000000
00000001
00000100
,
00000000
00000100
00001000
00000000
00011000
00000000
00010000
00100000
,
10000000
00000000
01000000
00000000
10010000
00000000
10000000
00100000
,
00000000
00100000
00010000
00000000
00002000
00000000
00003200
00000000
,
00000301
00000000
00000010
00000000
00000110
00000000
00001000
00000100
,
00000000
00001000
00000100
00000000
00001100
00000000
00010000
00000000
,
00001000
00000000
00010000
00000000
00011000
00000000
00100000
00010000
,
00000000
00100000
00010000
00000000
00110000
00000000
20000000
00000000
,
31000000
00000000
00010000
00000000
00011000
00000000
00010000
00001000
,
00000000
00010000
00001000
00000000
00011000
00000000
00000100
00000010
,
00000001
00000000
00001000
00000000
00001001
00000000
00000001
00000100
,
00000000
00000001
00000100
00000000
00001000
00010000
00001000
00010000
,
00001000
00000000
00000000
00010000
00100000
00010000
00000000
10100000
,
00000000
10100000
00000000
01100000
00000000
10000000
01000000
10000000
,
01000000
00000000
00000000
10000000
01000000
00010000
00000000
00011000
,
00000000
00011000
00000000
00001010
00000000
00000000
00000001
00000000
,
00000101
00000000
00000000
00001000
00000100
00010000
00000000
00011000
,
00000000
00011000
00000000
01010000
00000000
00100000
10000000
00100000
,
10000000
00000000
00000000
00010000
01000000
00001000
01000000
00010000
,
00000000
00100000
00000000
00002000
00000000
00000000
00003000
00000000
,
00000000
00000011
00000000
00000101
,
00000000
00001010
00000000
00001100
,
00000000
00011000
00000000
00110000
,
00000000
11000000
00000000
01100000
,
10000000
01000000
10000000
01000000
00100000
00010000
00100000
00010000
,
01000000
00001000
01000000
00001000
00010000
00001000
00010000
00001000
,
00010000
00000100
00010000
00000100
00000010
00000100
00000010
00000000
,
00002002
00000000
00000000
00003003
,
00000001
00000010
00000100
00000010
00000100
00001000
00000010
00000100
,
00001000
00010000
00001000
00010000
00100000
10000000
01000000
00000000
,
00100000
01000000
10000000
00100000
01000000
00100000
01000000
00001000
,
00010000
00001000
00000100
00000001
00001000
00000100
00000001
00000000
,
00000100
00001000
00000100
00001000
00000001
00000100
00001000
00010000
,
00100000
01000000
00100000
10000000
01000000
00100000
00010000
00000000
,
00100000
01000000
00100000
01000000
00010000
00001000
00010000
00001000
,
00000010
00000001
00000010
00000001
00001000
00000001
00001000
00000000
,
00000001
00000100
00001000
00000000
00001000
00010000
00100000
00000000
,
00100000
10000000
01000000
00000000
01000000
00010000
00001000
00000000
,
00000010
00000001
00000010
00000000
00000100
00001000
00000100
00001000
,
00000000
00001100
00000000
00011000
00000000
00000000
02000000
00000000
,
03100000
00000000
10000000
01000000
00000000
01000000
00010000
00000000
,
00011000
00000000
00001000
00000010
00000000
00000010
00000001
00000000
,
00000001
00000000
00000100
00000000
00000010
00000000
00010000
00000000
00001000
00000000
00010000
00000000
00001000
00010000
00001000
00000000
,
00000000
00011000
00000000
00110000
00000000
00000000
10000000
00000000
,
00000000
00000000
00000000
00000000
;
