#TITLE:SO IN LOVE;
#ARTIST:Caramel S.;
#BANNER:SO IN LOVE.png;
#BACKGROUND:SO IN LOVE-bg.png;
#JACKET:SO IN LOVE-jacket.png;
#MUSIC:SO IN LOVE.ogg;
#SAMPLESTART:55.717;
#SAMPLELENGTH:20;
#DISPLAYBPM:112;
#BPMS:0=112.15,8=111.989;
#BGCHANGES:;

//---------------dance-single - ----------------
#NOTES:
     dance-single:
     :
     Beginner:
     3:
     :
0000
0000
0000
0000
,
0000
0000
0000
0000
,
0000
0000
0000
0000
,
0000
0000
0000
0000
,
0000
0000
0100
0000
,
0010
0000
0000
0000
,
1000
0000
0001
0000
,
0100
0000
0000
0000
,
0001
0000
1000
0000
,
0100
0000
0000
0000
,
0100
0000
0000
0000
,
0010
0010
0000
0000
,
0100
0000
0100
0000
,
0001
0000
0000
0000
,
1000
0000
0000
0000
,
0010
0000
0000
0000
,
0100
0000
0100
0000
,
0010
0000
0010
0000
,
0001
0000
1000
0000
,
0100
0000
0100
0000
,
0010
0000
0100
0000
,
0001
0000
0000
0000
,
1000
0000
0000
0000
,
0100
0000
0100
0000
,
0001
0000
0001
0000
,
1000
1000
1000
0000
,
0100
0000
0100
0000
,
0001
0001
0000
0000
,
1000
0000
0000
0000
,
0001
0000
0000
0000
,
0010
0000
0010
0000
,
1000
1000
0000
0000
,
0010
0000
0100
0000
,
0001
0000
1000
0000
,
1001
0000
1001
0000
,
0100
0100
0100
0000
,
0001
0000
0000
0000
,
1000
0000
0001
0000
,
0100
0100
0000
0001
,
0001
0001
0001
0001
,
0001
0001
0000
0000
,
0000
0000
0000
0000
;

//---------------dance-single - ----------------
#NOTES:
     dance-single:
     :
     Easy:
     4:
     :
0000
0000
0000
0000
,
0000
0000
0000
0000
,
0000
0000
0000
0000
,
0000
0000
0000
0000
,
1000
0001
0100
0000
,
0010
0000
0010
0000
,
2000
3000
0002
0003
,
1000
0000
1000
0000
,
0010
1000
0100
0002
,
0100
0000
0103
0000
,
0001
0000
1000
0000
,
0010
0200
0301
2000
,
0100
0000
3100
0000
,
0010
0000
0010
0000
,
0002
0003
2000
3000
,
0010
0000
0010
0000
,
0100
0002
1003
0200
,
0010
0300
0010
0000
,
0002
0003
2000
3000
,
0010
0100
0001
2000
,
0100
0000
3100
0000
,
0010
0000
0002
0000
,
1003
0010
0100
0010
,
0200
0300
0002
0003
,
2000
3010
0100
0001
,
1001
0110
0010
2000
,
0100
0000
3100
0000
,
1000
0002
1000
1003
,
0010
0000
0100
0000
,
0002
0003
2000
3000
,
0200
0310
0001
1000
,
1001
0001
0100
0000
,
0010
0000
0100
0000
,
0020
1030
0100
1000
,
1001
0100
0110
1000
,
1001
0100
0020
0130
,
0000
0000
0000
0010
,
2000
3000
0002
0003
,
0200
0310
2000
3001
,
0100
0000
0100
0000
,
1000
0000
0010
0100
0000
0000
0000
0000
,
0000
0000
0000
0000
;

//---------------dance-single - ----------------
#NOTES:
     dance-single:
     :
     Medium:
     7:
     :
0000
0000
0000
0000
,
0000
0000
0000
0000
,
0000
0000
0000
0000
,
0000
0000
0000
0000
,
0020
0030
2000
3001
,
0010
1100
0002
0203
,
0010
0000
0310
0000
,
2000
3100
0002
0103
,
1001
0110
1001
1010
,
0200
0300
0200
0300
,
0001
1000
0100
0000
1000
0010
0100
0000
,
1000
1100
0002
0103
,
0010
0001
1000
0010
0100
0001
1000
0000
,
0010
1000
0100
0001
,
1000
0001
0100
0000
0010
1000
0100
0000
,
1000
0010
0100
0010
0100
0001
1000
0100
,
0010
1001
0110
1001
,
0101
0020
2030
3001
,
1000
0001
0100
0000
0010
0100
0001
0000
,
1000
0100
0010
0000
0002
0000
1003
0000
,
0020
0030
0020
0030
,
2000
3000
0002
0003
,
0010
0001
1000
0010
0100
0001
1000
0000
,
0200
0300
0200
0300
,
2000
3002
0203
0310
,
1001
0110
0020
1030
,
0200
0300
0200
0300
,
1000
1001
1100
0110
,
2000
3001
2000
3000
,
0001
0100
0010
0000
0100
0000
1001
0000
,
0020
0030
0200
0300
,
0110
1100
1001
0100
,
0001
1000
0010
0100
0010
0000
0000
0000
,
2000
3002
0203
0310
,
1010
0100
1001
0010
,
0220
0000
0000
0330
,
0000
0010
0000
0010
,
1000
0100
0010
0000
0001
1000
0010
0000
,
1000
1001
0100
1001
,
0010
1100
1001
0110
,
2000
0000
3001
0100
0000
0000
0000
0000
,
0000
0000
0000
0000
;

//---------------dance-single - ----------------
#NOTES:
     dance-single:
     :
     Hard:
     9:
     :
0000
0000
0000
0000
,
0000
0000
0000
0000
,
0000
0000
0000
0000
,
0000
0000
0000
0000
,
0020
0030
2000
3002
,
0013
1100
0002
0103
,
1000
0010
0100
0001
0010
0100
1000
0000
,
0010
0001
0100
0000
0001
1000
0100
0000
,
0010
0100
1000
0001
0100
0010
0100
0100
,
0010
0001
0100
0000
1000
0100
0010
0000
,
1000
0000
0000
1100
0000
0000
1001
0000
0100
0000
0010
0000
0100
0000
0000
0000
,
1000
1100
0002
0103
,
1000
0000
0100
0000
1000
0000
0001
0000
0010
0000
0001
0000
1000
0001
0000
0000
,
0010
2000
0100
3001
,
1000
0010
0200
0000
0301
1000
0100
0000
,
1000
0001
0100
0010
1000
0010
0100
0001
,
1000
1100
1001
0110
,
0101
0000
1000
0010
1000
0001
0200
0000
,
0301
2000
0100
0000
3001
0002
0100
0103
,
1000
0001
0100
0010
0100
0010
0001
1000
,
0100
0000
0010
1000
0100
0010
0002
0000
,
0203
0300
0020
0030
,
0010
1000
0001
0100
0010
0100
0002
0000
,
2003
0000
3002
0000
,
0203
0310
2000
3001
,
1001
0000
0000
0000
0110
0000
0000
0000
0010
0001
0000
1000
0000
0000
0200
0000
,
0010
0000
0310
0000
,
0100
1001
1100
0110
,
0100
0001
0010
0100
1001
0000
0000
0000
,
0001
0000
1000
0000
0001
0000
0100
0000
0010
0000
0000
1000
0000
0000
1001
0000
,
0020
0030
0200
0300
,
0110
1100
1001
0100
,
0001
1000
0001
0100
0020
0000
0030
0000
,
1000
0001
1000
0010
0100
0001
0010
0000
,
0110
1000
1001
0010
,
0110
0000
0000
0000
0000
0000
0001
0000
0000
1000
0001
0100
,
0020
2030
3002
0103
,
0010
0100
0001
1000
0100
0010
0002
0000
,
0103
0110
0001
1001
,
0010
1100
1001
0110
,
0100
0000
0001
0000
1000
0000
0001
0100
0000
0000
0000
0000
0000
0000
0000
0000
,
0000
0000
0000
0000
;

//---------------dance-single - ----------------
#NOTES:
     dance-single:
     :
     Challenge:
     15:
     :
0000
0000
0000
0000
,
0000
0000
0000
0000
,
0000
0000
0000
0000
,
1000
0000
0000
0010
0000
0000
0000
0000
0100
0000
0000
0001
0000
0000
0000
0000
0000
0000
0100
0000
0001
1000
0001
1000
,
0001
0000
1000
0000
0001
0000
1000
0000
0001
0000
1000
0000
0001
0000
1000
0000
0001
0000
1000
0000
0001
0000
1000
0000
0001
0000
0000
1000
0000
0000
0100
0000
0000
0010
0000
0000
0001
0000
0000
0010
0000
0000
0100
0000
0000
1000
0000
0000
,
0001
0000
0100
0010
0000
0100
0001
0000
0000
1000
0000
0010
0100
0000
0010
1000
0000
0000
0001
0000
0101
0000
0000
0000
,
1010
0000
0000
0100
0000
1000
0000
0000
1000
0001
0000
0000
0100
0000
0000
0010
0000
1000
0000
0000
0010
0100
0000
0001
,
0100
0000
0010
1000
0000
0010
0100
0000
0000
0001
0000
1000
0010
0000
1000
0001
0000
0000
0100
0000
0101
0000
0000
0000
,
1010
0000
0000
0100
0000
0100
0010
0000
0010
0001
0000
0001
1000
0000
1000
0010
0000
0010
0100
0000
0100
0001
0000
0001
,
0010
0000
0001
1000
0000
0100
1000
0000
0000
0010
0000
1000
0100
0000
0010
0001
0000
0000
1000
0000
1100
0000
0000
0000
,
0011
0000
0000
0100
0000
0001
0000
0000
0001
1000
0000
0000
0100
0000
0000
0010
0000
0000
0001
0000
0000
1000
0000
0000
,
0010
0000
1000
0001
0000
1000
0100
0000
0000
0010
0000
0100
0010
0000
0001
1000
0000
0000
0100
0000
1100
0000
0000
0000
,
0011
0000
0000
1000
0000
1000
0010
0000
0010
0100
0000
0100
0001
0000
0001
1000
0000
1000
0010
0000
0110
0000
0000
0000
,
1001
0000
0000
0100
0000
0000
0001
0000
0000
0010
0000
0000
0001
0000
0000
1000
0000
0100
0000
0000
1000
0010
0000
0000
,
0101
0000
0000
0100
0000
0000
1100
0000
0000
1000
0000
0010
0000
0000
0100
0000
0000
0010
0000
0000
1000
0000
0000
0001
,
0000
0000
0010
0001
0000
0000
0100
0000
0000
0010
0000
0000
1000
0000
0000
0100
0000
1000
0000
0000
0001
1000
0000
0000
,
1010
0000
0000
0000
0000
0000
0011
0000
0000
0100
0000
0001
0100
0000
0010
1000
0000
0000
0100
0000
1000
0001
0000
1000
,
0010
0000
0000
0100
0000
0000
0010
0000
1000
0000
0000
0001
0000
0000
0100
0010
0000
0000
1000
0000
0000
0001
0000
0000
,
0010
0000
0000
0001
0000
0100
0000
0000
0001
0000
0000
1000
0100
0000
1000
0010
0000
0100
0001
0000
0000
1000
0000
0000
,
0010
0000
0000
0000
0000
0000
1000
0000
0000
0000
0100
0000
0000
0000
0000
0000
0100
0000
0010
0000
0000
0000
0001
0000
0010
0000
0000
0000
0000
0000
0001
0000
0000
1000
0000
0000
0001
0000
0000
0000
0000
0000
0100
0000
0000
0000
0000
0000
,
1001
0000
0000
0000
0000
0000
0110
0000
0000
0000
0000
1000
0010
0000
0000
0010
0000
0100
0010
0000
0100
0000
0000
0000
,
0101
0000
0000
0001
0000
0000
0010
0000
1000
0000
0000
0000
1100
0000
1000
0100
0000
0000
0010
0000
0000
0001
0000
0000
,
0010
0000
0000
0001
0000
0100
0001
0000
0000
1000
0000
0100
1000
0000
0010
0100
0000
0010
0100
0000
0001
1000
0000
0001
,
1000
0000
0000
0010
0000
0000
1000
0000
0000
0100
0000
0000
0010
0000
0001
0000
0000
0100
0000
0000
0001
1000
0000
0000
,
1010
0000
0000
0010
0000
0100
0001
0000
0000
1000
0000
1000
0100
0000
0100
1000
0000
0001
1000
0000
0010
0100
0000
0010
,
0100
0000
0001
1000
0000
0001
1000
0100
0010
0001
0000
0100
0010
0000
0110
0000
0000
0001
1000
0000
0000
1000
0000
0010
,
0100
0000
0000
0101
0000
0000
0010
0000
1000
0100
0000
0000
1000
0000
0001
0010
0000
0000
0001
0000
1000
0100
0000
0000
,
0110
0000
0001
1000
0000
0000
1100
0000
0000
0011
0000
0000
0100
0000
0001
0010
0000
0001
1000
0000
0010
1000
0000
0100
,
1000
0000
0001
0100
0000
0000
0010
0000
1000
0001
0000
0000
0100
0000
0001
0010
0000
0001
0010
0000
0100
1000
0000
0100
,
1000
0000
0001
0100
0000
0000
0110
0000
0000
1001
0000
0000
0010
0000
0010
1000
0000
1000
0001
0000
0100
0001
0000
0100
,
0010
0000
0000
1010
0000
0000
0101
0000
0000
1010
0000
0000
1000
0000
0100
1000
0000
0000
0001
0000
0100
0001
0000
0000
,
1001
0000
0100
0001
0000
0000
0011
0000
0000
1100
0000
0000
0010
0000
1000
0001
0000
1000
0100
0000
0010
0001
0000
0100
,
0001
0000
0010
0001
0000
0000
1000
0000
0010
1000
0000
0000
0100
0000
0100
0010
0000
0010
0100
0000
0100
1000
0000
0001
,
1000
0000
0010
0100
0000
0000
0001
0000
0010
0100
0000
0000
1000
0000
1000
0001
0000
0001
0100
0000
0100
0010
0000
0010
,
0100
0000
0000
0001
0000
0000
0010
0000
0001
0010
0000
0100
1000
0000
0010
1000
0000
0001
1000
0000
0100
0010
0000
0001
,
0100
0000
0010
0100
0000
0010
1000
0000
0001
1000
0000
0001
0100
0000
0010
1000
0000
0001
0100
0000
0100
0000
0100
0000
,
0110
0000
0001
0010
0000
0100
1000
0000
0000
0010
0000
0100
0001
0000
1000
0001
0000
0000
0100
0000
0101
0000
0000
0000
,
1100
0000
0000
0001
0000
0010
0001
0000
1000
0100
0000
0010
0100
0000
1000
0001
0000
0000
0100
0000
0010
0100
0000
0001
,
1000
0000
0010
0001
0000
0010
1000
0000
0000
0001
0000
0100
1000
0000
0100
0001
0000
0000
0010
0000
0001
1000
0000
0100
,
1000
0000
1000
0100
0010
0100
0010
0000
0010
0001
1000
0001
1000
0000
1000
0010
0100
0010
0100
0000
0100
0001
1000
0001
,
1000
0000
0010
1000
0100
0010
0001
0000
0100
0010
0000
1001
0000
0000
0000
0000
0000
0000
0000
0000
0000
0000
0000
0000
;

//---------------dance-double - ----------------
#NOTES:
     dance-double:
     :
     Easy:
     4:
     :
00000000
00000000
00000000
00000000
,
00000000
00000000
00000000
00000000
,
00000000
00000000
00000000
00000000
,
00100000
00000000
02000000
00000000
,
00000000
03000000
00010000
10000000
,
00010000
00000000
00000000
00000000
,
10000000
01000000
00010000
00000000
,
00001000
00000000
00000000
00000000
,
00010000
00010000
00001000
00001000
,
00000010
00000000
00000000
00000000
,
00000001
00000100
00001000
00000000
,
00000001
00000000
00000000
00000000
,
00000001
00001000
00000001
00001000
,
00000010
00000000
00000000
00000000
,
00001000
00000000
00000000
00000000
,
00010000
00000000
00000000
00000000
,
01000000
00000000
00010000
10000000
,
00100000
00000000
00000000
00000000
,
00010000
00000000
00000000
00000000
,
00001000
00000000
00000000
00000000
,
00000100
00000000
00001000
00000001
,
00000020
00000030
00000100
00000100
,
00000001
00000000
00001000
00000000
,
00010000
01000000
00000000
00000000
,
20000000
00000000
00000000
30000000
,
00200000
00000000
01000000
01300000
,
10000000
01000000
00010000
01000000
,
10000000
00100000
01000000
00000000
,
00001000
00000000
00010000
00000000
,
00000010
00000000
00000100
00000000
,
00001000
00000100
00000001
00000100
,
00000001
00000010
00000100
00000000
,
00010000
00000000
00001000
00000000
,
00100000
00000000
01000000
00000000
,
20000000
30000000
00020000
00030000
,
00200000
00300000
00010000
10000000
,
00010000
00000000
00010000
00000000
,
10000000
01000000
00010000
00000000
,
00001000
00000000
00001000
00000000
,
00010000
00001000
00010000
00001000
,
00010000
00001000
00000100
00000000
,
00000000
00000000
00000000
00000000
;

//---------------dance-double - ----------------
#NOTES:
     dance-double:
     :
     Medium:
     7:
     :
00000000
00000000
00000000
00000000
,
00000000
00000000
00000000
00000000
,
00000000
00000000
00000000
00000000
,
00100000
00000000
00200000
00000000
,
00000000
00300000
00010000
00000000
,
00000010
00000001
00000100
00001000
,
00010000
01000000
10000000
00000000
,
00100000
11000000
00100000
00010000
,
00010000
00000000
00001000
00000000
00010000
00000000
00001000
00010000
,
00100000
10000000
01000000
00010000
,
00001000
00000100
00000001
00000000
,
00000010
00000001
00000010
00001000
,
00000010
00000000
00001000
00000000
00000001
00000000
00000100
00000000
00001000
00000000
00010000
00000000
00100000
00100000
00000000
00000000
,
00000000
00000000
00000000
00000000
,
10000000
01000000
00010000
01000000
,
20000000
00000000
30010000
00010000
,
10000000
01000000
01010000
00011000
,
00000000
00001010
00000001
00000100
,
00000001
00000100
00001000
00000100
,
00000002
00000000
00001003
00001000
,
00000001
00000100
00001000
00000000
,
00000120
00001030
00011000
00000000
,
02200000
03300000
00110000
11000000
,
00100000
10000000
01000000
00010000
,
00002000
00100000
00000000
01003000
,
00200000
00000000
00000000
00000000
00000000
00000000
00000000
00000000
01000000
01000000
00000000
01000000
00300000
00000000
00000000
00000000
,
00200000
00310000
02000000
13000000
,
00010000
20000000
00000000
30010000
,
10000000
01000000
00010000
00000000
,
00001000
00000010
00000001
00000100
,
00000020
00001030
00000200
00000301
,
00001000
00000002
00000000
00001003
,
00000001
00000100
00001000
00001000
,
00001000
00010000
01000000
10000000
,
10000000
01000000
00010000
00000000
01000000
00010000
00001000
00000000
,
00020000
00000000
00000000
00000000
00000000
00000000
00030000
00000000
00000000
00001000
00001000
00001000
,
00000010
00000001
00000100
00001000
,
00010000
01000000
10000000
10000000
,
00100000
00000000
11000000
00000000
00000000
01000000
00010000
00000000
,
00011000
00000110
00001100
00000011
,
00001000
00000000
00000100
00000000
00000001
00000000
00000010
00000100
00000000
00000000
00000000
00000000
00000000
00000000
00000000
00000000
,
00000000
00000000
00000000
00000000
;

//---------------dance-double - ----------------
#NOTES:
     dance-double:
     :
     Hard:
     9:
     :
00000000
00000000
00000000
00000000
,
00000000
00000000
00000000
00000000
,
00000000
00000000
00000000
00000000
,
00000000
00000000
00000000
00000000
,
00200000
00300000
10010000
11000000
,
00020000
02030000
03200000
20300000
,
31000000
10010000
11000000
01000000
,
00020000
00032000
00003200
00000302
,
00001003
00000010
00000100
00000001
00000010
00000100
00010000
00001000
,
00020000
02030000
23000000
30200000
,
10300000
00000000
10010000
00000000
10000000
00010000
01000000
00000000
,
20000000
30020000
00032000
00003020
,
00000130
00000000
00000001
00000000
00000010
00000000
00000100
00000000
00001000
00000000
00000001
00000000
00000100
00000010
00000000
00000000
,
00001000
00000000
00000100
00010000
00001000
00000100
00000001
00000010
,
00000001
00000000
00001000
00000000
00000001
00000100
00000001
00000000
,
00001000
00000000
00010000
00000000
10000000
01000000
10000000
00000000
,
00100000
00000000
01000000
00000000
00010000
10000000
00010000
00000000
,
00100000
00000000
10010000
00000000
10000000
01000000
00010000
01000000
,
10000000
00000000
00010000
00000000
00001000
00000100
00000001
00000010
,
00000001
00000000
00001100
00000000
00000010
00000100
00000010
00001000
,
00000100
00000000
00011000
00000000
00010000
01000000
10000000
00000000
,
00100000
00000000
00100000
10000000
01000000
00100000
00010000
10000000
,
00010000
01010000
00011000
00000000
,
00010000
00001000
00010000
00000000
00000100
00000000
00000010
00000000
,
00000002
00000103
00002000
00003100
,
00001001
00000000
00000000
00000000
00001100
00000000
00000000
00000000
00000010
00001000
00000000
00000001
00000000
00000000
00000000
00000000
,
00001001
00000001
00000100
00000010
00001000
00000001
00000100
00001000
,
00010000
00000000
11000000
00000000
00000000
00100000
10000000
00000000
,
01000000
00000000
00010000
00000000
00000010
00001000
00000100
00000000
,
00000001
00000000
00000000
00000000
00000100
00000000
00000000
00000000
00001000
00000000
00000000
00000010
00000000
00000000
00000100
00000000
,
00000001
00000010
00000100
00001000
00000010
00000100
00000001
00000000
,
00001000
00000000
00001100
00000000
00000000
00000001
00000100
00000000
,
00001000
00000000
00010000
00000000
01000000
10000000
00010000
00000000
,
00100000
00000000
00000000
00000000
10010000
00000000
00000000
00000000
00100000
00000000
00000000
10000000
00000000
00000000
01000000
00000000
,
00010000
00011000
00000010
00000110
,
00002002
00000000
00003003
00000000
,
00000020
00002030
00003002
00000203
,
00000301
00001100
00000101
00001000
,
00010000
11000000
00100000
01010000
,
10000000
00100000
01000000
00010000
00100000
01000000
00010000
00001000
,
00000100
00000000
00000001
00000000
00001000
00000000
00000001
00000100
00000000
00000000
00000000
00000000
00000000
00000000
00000000
00000000
,
00000000
00000000
00000000
00000000
;
