#TITLE:SHION;
#ARTIST:DJ YOSHITAKA;
#BANNER:SHION-bn.png;
#BACKGROUND:SHION-bg.png;
#JACKET:SHION-jacket.png;
#MUSIC:SHION.ogg;
#SAMPLESTART:44.606;
#SAMPLELENGTH:20;
#DISPLAYBPM:179;
#BPMS:0=177.4,4=179;
#BGCHANGES:;

//---------------dance-single - ----------------
#NOTES:
     dance-single:
     :
     Beginner:
     4:
     :
0000
0000
0000
0000
,
0000
0000
0000
0000
,
0000
0000
0000
0000
,
0000
0000
0000
0000
,
0000
0000
0000
0000
,
0100
0000
0000
0000
,
0001
0001
0000
0000
,
1000
1000
0000
0000
,
0010
0010
0000
0000
,
0100
0100
0000
0000
,
0000
0001
0000
1000
,
0000
0001
0000
1000
,
0000
0001
0000
1000
,
0000
0010
0000
0010
,
0000
1000
0000
0001
,
0000
0010
0000
0100
,
0000
1000
0000
0000
,
0010
0000
0000
0000
,
0000
0001
0000
0001
,
0000
1000
0000
1000
,
0000
0010
0000
0010
,
0000
0100
0000
0100
,
0100
0000
0001
0000
,
1000
0000
1000
0000
,
0010
0000
0010
0000
,
0100
0000
0100
0000
,
0000
0001
0000
0100
,
0000
0001
0000
0100
,
0000
0010
0000
1000
,
0000
0100
0000
0000
,
1000
0000
0100
0000
,
1000
0000
0100
0000
,
0010
0000
0001
0000
,
0010
0000
0000
0000
,
0001
0001
0000
0000
,
1000
1000
1000
0000
,
0001
0001
0001
0000
,
0000
0010
0000
0010
,
0000
0001
0001
0000
,
0000
1000
1000
0000
,
0000
0001
0001
0000
,
0000
1000
1000
0000
,
0001
0001
0001
0000
,
0000
0100
0100
0000
,
0000
0010
0010
0000
,
0000
0100
0100
0000
,
0000
0001
0000
1000
,
0000
0010
0010
0000
,
0000
1000
0000
1000
,
0000
0010
0000
0100
,
0100
0000
0000
0000
,
0000
0000
0000
0000
,
0000
0001
0000
1000
,
0000
0001
0000
1000
,
1000
0000
0000
0000
,
0000
0000
0000
0000
,
0000
1000
0000
0001
,
0000
0010
0000
0010
,
0000
0001
0000
1000
,
0000
0010
0000
0100
,
0000
0001
0000
1000
,
0000
0010
0000
0010
,
0000
1000
0000
0001
,
0000
0010
0000
0100
,
0000
1000
0000
0001
,
0001
0000
0000
0000
,
0001
0000
0000
0000
,
1000
0000
0000
0000
,
0001
0000
0000
0000
,
1000
0000
0000
0000
,
0001
0000
0001
0000
,
1000
0000
1000
0000
,
0001
0000
0001
0000
,
0010
0010
0010
0000
,
0001
0000
0001
0000
,
1000
0000
1000
0000
,
0001
0000
0001
0000
,
1000
0000
1000
0000
,
0000
0001
0000
0001
,
0000
0010
0010
0000
,
0000
1000
0000
1000
,
0000
0010
0000
0200
,
0000
0000
0000
0000
,
0310
0000
0000
0000
,
0100
0000
0000
0000
,
0010
0000
0000
0000
,
0001
0000
0000
0000
,
0010
0000
0000
0000
,
1000
0000
0000
0000
,
0001
0000
1000
0000
,
0001
0000
0100
0000
,
0000
0000
0000
0000
;

//---------------dance-single - ----------------
#NOTES:
     dance-single:
     :
     Easy:
     7:
     :
0000
0000
0000
0000
,
0000
0000
0000
0000
,
0000
0000
0000
0000
,
0000
0000
0000
0000
,
0000
0000
0000
0000
,
0000
0010
0000
0100
,
0000
0010
0000
1000
,
0000
0001
0000
0100
,
0010
0010
0010
0000
,
1000
0000
0001
0000
,
0001
0100
1000
0100
,
0001
0001
1000
1000
,
0100
0001
0010
0000
,
0010
0100
1000
0000
,
1000
0100
0001
0100
,
1000
1000
0001
0001
,
0100
1000
0010
0000
,
0010
0100
1001
0000
,
0001
0000
0001
0000
,
0001
1000
0100
1000
,
1000
0000
1000
0000
,
1000
0010
0100
0000
,
0001
0000
0001
0000
,
0001
0010
0100
0000
,
1000
0010
0001
0010
,
1000
0010
0100
0000
,
0000
0020
0000
0100
,
0000
0100
0000
0130
,
0000
0001
0000
0001
,
0000
1000
0000
1000
,
0001
0001
0010
0010
,
1000
1000
0010
0010
,
0001
0001
1000
0001
,
1001
0000
0000
0000
,
0001
0001
0010
0100
,
0000
1000
0010
0100
,
0000
0001
0010
0100
,
1000
0100
0010
0000
,
1000
1000
0010
0100
,
0000
0001
0010
0100
,
0000
1000
0010
0100
,
0001
0010
0010
0010
,
0001
0001
0010
0100
,
0000
1000
0010
0100
,
0000
0001
0010
0100
,
1000
0100
0010
0000
,
1000
1000
0010
0100
,
0001
0001
0010
0000
,
0010
0000
0010
0000
,
1001
1001
1001
0000
,
0001
0100
1000
0100
,
0001
0001
1000
1000
,
0100
0001
0010
0000
,
0010
0100
1000
0000
,
1000
0100
0001
0100
,
1000
1000
0001
0001
,
0100
1000
0010
0000
,
0010
0100
1001
0000
,
1000
0010
0001
0010
,
1000
1000
0001
0001
,
0010
1000
0100
0010
,
0100
0010
0001
1000
,
0001
0010
1000
0010
,
0001
0001
1000
1000
,
0010
0001
0100
0010
,
0100
0010
1001
0000
,
0000
0001
0010
0100
,
0000
1000
0010
0100
,
0000
0001
0010
0100
,
0010
0001
0100
1000
,
1001
0000
0000
0000
,
0110
0000
0000
0000
,
1001
0000
0110
0000
,
0000
1000
0100
0010
,
0000
0100
1000
0001
,
0000
0100
0001
1000
,
0000
0010
0100
0001
,
0000
0010
0100
1000
,
0000
0100
1000
0001
,
0000
0100
0001
1000
,
0000
0010
0100
0001
,
0000
0010
0100
2000
,
0000
0000
0000
3000
,
0001
0000
1000
0000
,
0010
0000
0100
0000
,
0001
0000
0100
0000
,
0010
0000
1000
0000
,
0001
0010
0100
1000
,
0100
0010
0001
0100
,
0010
1000
0100
0010
,
0001
0100
0010
1000
,
0000
0000
0000
0000
;

//---------------dance-single - ----------------
#NOTES:
     dance-single:
     :
     Medium:
     10:
     :
0000
0000
0000
0000
,
0000
0000
0000
0000
,
0000
0000
0000
0000
,
0000
0000
0000
0000
,
0000
0000
0000
0000
,
0000
0000
0000
0000
0000
0000
1000
0001
,
0000
0000
0100
0000
0010
0000
1000
0001
,
0000
0000
0100
0000
0010
0000
0000
1001
,
0000
0000
0000
0100
0010
0000
0000
0000
,
1001
0000
0000
1000
0000
1000
0000
1000
,
0000
0001
1000
0000
0010
0000
0100
0010
,
0000
1000
0001
0000
0010
0000
0100
0010
,
0001
0000
1000
0000
0010
0000
0100
0010
,
0000
1000
0001
0000
0011
0000
0110
0000
,
0001
0000
1000
0000
0010
0000
0100
0010
,
0000
1000
0001
0000
0010
0000
0100
0010
,
0001
0000
1000
0001
0000
1000
0002
0000
,
0100
0000
0000
0103
,
1000
0001
0100
0010
,
0001
1000
0100
0010
,
0001
0000
0010
0000
0100
1000
0100
0000
,
1000
0000
0010
0000
0100
0001
0100
0000
,
0001
0000
0010
0000
0100
1000
0001
0000
,
1000
0000
0010
0000
0100
0001
1000
0000
,
0001
0000
1000
0000
0010
0100
0010
0000
,
0100
0100
0100
0000
,
0000
0000
0001
0000
0001
1000
0000
0010
,
0000
0100
0000
0001
0000
1000
0100
0010
,
0001
0000
1000
0010
0000
0100
0000
0001
,
0000
0000
1000
0000
0000
0000
0100
0000
0010
0000
0000
0100
0000
0000
0010
0000
,
0001
0001
0001
0001
,
1010
1000
1000
1000
,
0110
0100
0100
0100
,
1001
0000
0000
0000
0000
0000
0000
0001
,
0000
0010
0100
0000
1000
0000
0001
1000
,
0000
0010
0100
0000
0001
0000
1000
0001
,
0000
0010
0100
0000
1000
0000
0001
0000
,
1100
0000
0110
0000
0001
0000
1000
0001
,
0000
0010
0100
0000
1000
0000
0010
1000
,
0000
0010
0100
0000
0001
0000
0010
0001
,
0000
0010
0100
0000
1000
0000
0001
0100
,
0000
0010
0100
0000
0001
0000
0010
0001
,
0000
0100
0010
0000
1000
0000
0100
1000
,
0000
0100
0010
0000
0001
0000
0100
0001
,
0000
0100
0010
0000
1000
0000
0100
1000
,
0000
0100
0010
0000
0011
0000
0100
0001
,
0000
0010
0100
0000
1000
0000
0010
0100
,
0010
0100
0010
0000
0110
0000
0010
0100
,
0000
0010
0100
0000
1000
0000
0020
0100
,
0000
0000
0000
0000
0000
0030
0000
0001
,
0000
0010
1000
0000
0010
0100
0010
0001
,
0000
0100
0000
0010
0000
1000
0001
0000
,
1000
0000
0100
0000
0001
0010
0100
1000
,
0000
0001
0000
1000
0000
0001
0100
0001
,
0000
0010
0100
0000
1000
0010
0100
0001
,
0000
0100
0000
0010
0000
1000
0001
0000
,
1000
0000
0100
0000
0001
0010
0100
1000
,
0001
1000
0001
1000
0001
1000
0000
0001
,
0000
0010
0100
0000
1000
0010
0100
0001
,
0000
0100
0000
0010
0000
1000
0001
1000
,
0001
0000
0110
0000
0001
0010
0100
1000
,
0000
0100
0000
0010
0000
0001
1000
0000
,
0001
0001
0011
0001
,
0100
0100
1100
1100
,
0011
0011
1100
1100
,
0100
0000
0000
0010
0000
0000
0100
0000
0000
0000
0000
0000
0000
0000
0001
0000
,
0000
0010
1000
0000
0010
0000
0000
0001
,
0000
0010
0100
0000
0001
0000
0000
0001
,
0000
0100
0010
0000
0001
0000
0001
1000
,
0000
0010
0100
0000
0001
0000
1000
0100
,
0000
0010
0100
0000
0110
0000
0000
1000
,
0000
0010
0100
0000
0011
0000
0000
1001
,
0000
0000
1100
0000
,
0010
0000
0000
0010
0000
0000
0010
0000
0000
0000
0000
0000
0000
0000
0001
0000
,
0000
0100
0010
0000
1000
0000
0100
1000
,
0000
0100
0010
0000
0001
0000
1000
0001
,
0000
0010
0100
0000
1000
0000
0100
0000
,
1100
0000
0010
0000
0011
0000
0100
0001
,
0000
0010
0100
0000
1000
0000
0010
0100
,
0001
0010
0100
0010
0100
0010
0100
0010
,
0000
0010
0100
0000
0001
0000
0100
0000
,
0010
0000
0000
0010
0000
0000
0010
0000
0000
0000
0000
0000
0000
0000
0000
0000
,
0002
0000
0000
0003
,
1000
0010
0100
1000
0000
0000
,
1000
0100
0010
1000
0000
0000
,
0001
1000
0010
0100
0000
0000
,
0001
0100
0010
1000
0000
0000
,
0001
0010
0100
0001
0000
0000
,
0001
0000
0100
0000
0010
0000
0001
0000
0000
1000
0000
0000
,
0001
1000
0010
0100
0010
0100
,
0001
0000
0100
0000
0010
0000
1000
0000
0000
0100
0000
0000
,
0000
0000
0000
0000
;

//---------------dance-single - ----------------
#NOTES:
     dance-single:
     :
     Hard:
     13:
     :
0000
0000
0000
0000
,
0000
0000
0000
0000
,
0000
0000
0000
0000
,
0000
0000
0000
0000
,
0000
0000
0000
0000
,
0010
0100
0010
0000
0010
0000
0010
0001
,
0000
0010
0100
0000
0100
0000
0100
1000
,
0000
0010
0100
0000
0100
0000
0100
0001
,
0000
0010
0100
0000
0100
0000
0100
0000
,
1100
0000
0000
0001
0000
0000
0100
0000
0000
0000
0000
0000
0000
0000
0001
0000
,
0000
0100
0001
0100
0001
0100
0001
1000
,
0000
0100
1000
0100
1000
0100
1000
0000
,
0001
0000
1100
0000
0001
0100
0001
1000
,
0000
0100
1000
0100
1000
0100
1000
0000
,
0001
0010
0001
0100
0001
0010
0001
1000
,
0000
0010
1000
0010
1000
0010
1000
0001
,
0100
0000
1000
0100
0000
0010
0001
1000
,
0010
0000
0000
1100
0000
0000
0101
0000
0000
0000
0000
0000
0100
0000
0000
0000
,
0001
0010
0100
1000
0000
0000
1000
0100
,
0010
0001
1000
0001
,
0100
0010
1000
0100
0000
0000
0100
0001
,
1000
0001
0100
0010
,
1000
0100
1000
0010
0100
0001
0010
1000
,
0001
0010
0100
1000
,
0001
0010
0100
1000
0001
1000
0010
0000
,
0100
0000
0000
0000
0010
0000
0000
0000
1100
0000
0000
0101
0000
0000
1001
0000
,
0000
0000
0001
0000
0010
0100
0000
1000
,
0000
0100
0000
0010
0000
0100
1000
0001
,
0010
0000
0100
0010
0000
0010
0000
0200
,
0000
0000
0000
0000
0000
0000
0000
0000
1300
0000
0000
0001
0000
0000
0100
0000
,
0001
0100
0010
0100
0001
0100
0010
0000
,
1000
0100
0010
0100
1000
0100
0010
0000
,
0002
0000
0000
2003
0000
0000
3001
0000
,
1000
0001
0000
0000
0000
0000
1000
0001
,
0000
1000
0010
0100
0001
1000
0010
1000
,
0000
0001
0010
0100
1000
0001
0010
0001
,
0000
1000
0010
0100
0001
1000
0010
1000
,
0000
0001
0010
0000
0011
0000
0010
1000
,
0000
1000
0100
0010
0001
1000
0100
1000
,
0000
0001
0100
0010
1000
0001
0100
0001
,
0000
1000
0100
0010
0001
1000
0100
1000
,
0000
0001
0100
0010
1000
0001
0100
0001
,
0000
0001
0010
0100
1000
0001
0010
0001
,
0000
1000
0010
0100
0001
1000
0010
1000
,
0000
0001
0010
0100
1000
0001
0010
0001
,
0000
1000
0010
0000
1010
0000
0010
0001
,
0000
0001
0100
0010
1000
0001
0100
0001
,
0000
1000
0001
1000
0001
1000
0100
1000
,
0000
0001
0100
0010
1000
0001
0100
0000
,
0001
0000
0000
1000
0000
0000
0110
0000
0000
0000
0000
0000
0100
0000
1000
0000
,
0000
0100
1000
0100
1000
0100
1000
0001
,
0000
0100
0001
0100
0001
0100
0001
0000
,
1000
0000
0101
0000
1000
0100
1000
0001
,
0000
0100
0001
0100
0001
0100
0001
0000
,
1000
0010
1000
0100
1000
0010
1000
0001
,
0000
0010
0001
0010
0001
0010
0001
1000
,
0100
0000
0001
0100
0000
0010
1000
0001
,
0010
0100
0010
0100
1000
0010
0100
0001
,
0000
1000
0020
0000
0100
0000
0130
0001
,
0000
1000
0010
0100
0001
1000
0010
1000
,
0000
0001
0020
0000
0100
0000
0130
1000
,
0000
0001
0010
0100
1000
0001
0010
0001
,
0000
1000
0020
0000
0100
0000
0130
0001
,
0000
1000
0010
0100
0001
1000
0010
1000
,
0000
0001
0020
0000
0100
0000
0130
0000
,
1100
0000
0000
0011
0000
0000
1100
0000
0000
0000
0000
0000
1000
0000
0001
0000
,
0000
1000
0010
0100
0001
1000
0010
1000
,
0000
0001
0010
0100
1000
0001
0010
0001
,
0000
1000
0010
0100
0001
1000
0010
1000
,
0000
0001
0010
0000
0011
0000
0010
1000
,
0000
0000
0000
0000
0000
1000
0100
1000
,
0000
0001
0100
0010
1000
0001
0100
0001
,
0000
0000
1001
0000
,
0010
0000
0000
1000
0000
0000
0101
0000
0000
0000
0001
0000
0100
0000
0101
0000
,
0000
0001
0010
0100
1000
0001
0010
0001
,
0000
1000
0010
0100
0001
1000
0010
1000
,
0000
0001
0010
0100
1000
0001
0010
0001
,
0000
1000
0010
0000
1010
0000
0010
0001
,
0000
0001
0100
0010
1000
0001
0100
0001
,
0000
0010
0100
0001
1000
0010
0100
0001
,
0000
0010
0100
1000
0001
0010
0100
1000
,
0010
0000
0000
1001
0000
0000
0110
0000
0000
0000
0000
0000
0010
0000
0002
0000
,
0000
0000
0000
0000
0000
0000
0000
0003
,
0001
1000
0100
0001
0100
1000
,
0010
0000
1000
0000
0100
0000
1000
0000
0010
0100
0000
0010
,
0001
1000
0010
0001
0010
1000
,
0100
0000
1000
0000
0010
0000
1000
0000
0100
0010
0000
0100
,
0001
1000
0100
0001
0100
1000
,
0010
0000
1000
0000
0100
0000
1000
0000
0010
0100
0000
0010
,
0001
1000
0010
0001
0010
1000
,
0100
0000
1000
0000
0010
0000
1000
0000
0100
0010
0000
0001
,
0000
0000
0000
0000
;

//---------------dance-single - ----------------
#NOTES:
     dance-single:
     :
     Challenge:
     17:
     :
0000
0000
0000
0000
,
0000
0000
0000
0000
,
0000
0000
0000
0000
,
0000
0000
0000
0000
,
0000
0000
0000
0000
,
0000
0000
0001
0000
1000
0000
0001
1010
,
0000
0000
0001
0100
0001
0000
0001
0100
0001
0000
0001
0100
0001
0000
0101
0000
,
0000
0000
1000
0100
1000
0000
1000
0100
1000
0000
1000
0100
1000
0000
1100
0000
,
0001
0000
0010
0100
0010
0000
0001
0100
0001
0000
1000
0010
1000
0000
0100
0010
,
0001
0011
0000
0110
0000
1100
1001
0101
,
0000
0010
1000
0100
0001
0100
1000
0010
,
0000
0100
0001
0010
0000
0001
0100
1000
,
0011
0000
1100
0000
0001
0100
1000
0010
,
0000
0000
1000
0001
0100
0000
0010
0000
1000
0000
0100
0000
0010
0000
0001
0000
,
0100
0000
0010
0000
0100
0000
1000
0000
0100
0000
0001
0000
0010
0000
0001
0100
,
0001
0000
0010
0000
1000
0000
0010
0000
0001
0000
0100
0000
0010
0000
1000
0100
,
1000
0010
0100
0001
0011
0100
0001
1000
,
1100
0000
0000
0101
0000
0000
1100
0000
0000
0000
0001
0000
0001
0000
1000
0000
,
0002
0023
0230
2300
3000
0010
0100
0001
,
0010
1000
0010
0100
0010
1000
0010
0001
,
2000
3200
0320
0032
0103
0010
1000
0000
,
0001
0100
0010
0100
0001
0001
0001
0001
,
1001
0010
1000
0100
1000
0001
0100
0010
,
1001
0100
0010
1000
0001
1000
0100
0000
,
0110
0001
0100
0010
0110
1000
0100
0010
,
0011
0000
0100
0000
1010
0000
0100
0000
1001
0000
0000
0110
0000
0000
1001
0000
,
0000
0000
1100
0001
1100
1100
0000
0011
,
0000
1001
0000
0011
0000
0101
0110
1010
,
1001
0100
0010
1000
0100
0010
0001
2020
,
0000
0030
0000
0000
3001
0000
0000
0000
0011
0000
0000
1100
0000
0000
0011
0000
,
1001
0000
0000
0010
1000
0000
0000
1000
0100
0000
0000
0100
0010
0000
0001
1000
,
0001
0000
0000
0100
0010
0000
0000
0010
1000
0000
0000
1000
0100
0000
0010
0001
,
0010
0000
0001
0100
0000
0000
1010
0000
0000
0000
0100
0000
0110
0000
0001
0000
,
1001
0110
1000
0000
0001
0000
1000
0101
,
0000
0000
0001
0100
0010
0000
1000
0000
0100
0000
0001
0000
1000
0000
0011
0000
,
0000
0000
0010
0001
1000
0000
0010
0000
0100
0000
0001
0000
1000
0000
0110
0000
,
0000
0000
0001
0010
0100
0000
1000
0000
0001
0000
1000
0000
0010
0000
1100
0000
,
0000
0000
1000
0100
1000
0000
0001
0100
0001
0000
0010
0000
0100
0000
1010
0000
,
0000
0000
0001
1000
0010
0000
0100
0000
0001
0000
1000
0000
0100
0000
0011
0000
,
0000
0000
0010
0001
1000
0000
0010
0000
0100
0000
0001
0000
0010
0000
1001
0000
,
0000
0000
0010
0100
0001
0000
0010
0000
1000
0000
0100
0000
1000
0000
0001
0000
,
0000
0000
0010
0001
0010
0000
0001
1000
0100
0000
0100
0000
0100
0000
1001
0000
,
0000
0000
0010
1000
0001
0000
0010
0000
0100
0000
1000
0000
0001
0000
1010
0000
,
0000
0000
0010
1000
0001
0000
0010
0000
0001
0000
0100
0000
0010
0000
0101
0000
,
0000
0000
0010
0001
1000
0000
0010
0000
1000
0000
0100
0000
0001
0000
0110
0000
,
0000
0000
0010
0001
1000
0000
0100
0000
1000
0000
0001
0000
0010
0000
1100
0000
,
0000
0000
1000
0010
0100
0000
0010
0000
1000
0000
0100
0000
0001
0000
0011
0000
,
0000
0000
0010
0001
1000
0000
0010
0000
1000
0000
0100
0000
0001
0000
1010
0000
,
0000
0000
0010
1000
0100
0000
0010
0001
0100
0000
0010
1000
0001
0000
0011
0000
,
0000
0000
0100
0010
1000
0000
0101
0000
0000
0000
0001
0000
0100
0000
1010
0000
,
0000
0001
0010
1000
0010
0001
0100
0110
,
0000
1010
0000
1100
0000
0001
0100
1000
,
1001
0000
0110
0000
1000
0010
0001
0100
,
0000
0000
0010
1000
0010
0000
0100
0000
0001
0000
0010
0000
0001
0000
1000
0000
,
0100
0001
0100
0010
1000
0010
0001
1001
,
0000
0011
0000
1100
0000
0001
1000
0100
,
0001
0010
0001
0100
0001
0010
0001
1000
,
0010
1000
0010
0000
0100
0001
0100
0000
0001
0010
0100
0010
0001
0000
1010
0000
,
0000
0000
0100
0001
0100
0010
0000
0010
1000
0000
0100
1000
0001
0000
0010
0100
,
1000
0010
1000
0000
0100
0000
0010
0001
0010
0000
0001
1000
0001
0000
0100
0010
,
1000
0100
0000
1100
0000
0000
1000
0100
0010
0100
0010
0001
0000
0001
0100
0001
,
1000
0010
0000
0100
0001
0000
0010
0100
1000
0000
0001
0100
0001
0000
1000
0010
,
0100
0000
0001
0010
0001
0000
0010
0100
0010
0001
1000
0100
1000
0000
0001
1000
,
0001
0000
0100
0010
1000
0001
0000
1000
0100
0010
0100
0010
0001
0100
0001
1000
,
0010
0000
1000
0100
0001
0000
0001
0100
1000
0000
1000
0010
0001
0000
0001
0010
,
1000
0000
0100
0010
0001
0000
0100
0010
1000
0000
0001
0000
0110
0000
1001
0000
,
0000
0000
0000
0000
,
0000
0000
0000
0000
,
0000
0000
0000
0000
,
0000
0000
0000
0000
0000
0000
0000
0101
,
0000
0000
0001
0010
0001
0000
0010
0001
0010
0000
0001
0010
0001
0000
0011
0000
,
0000
0000
1000
0010
1000
0000
1000
0010
1000
0000
1000
0010
1000
0000
1010
0000
,
0100
0000
1000
0010
0100
0000
0001
0010
0100
0000
1000
0001
0100
0000
0010
1000
,
0001
0000
0000
0101
0000
0000
1010
0000
0000
0000
1100
0000
0110
0000
0011
0000
,
0000
0100
1001
0010
1000
0100
0001
0101
,
0000
0000
0010
0001
1000
0000
0001
0000
0100
0000
0010
0000
1000
0000
0110
0000
,
0000
0000
0001
0010
0001
0000
1000
0000
0001
0000
1000
0000
0100
0000
0011
0000
,
0000
0000
0100
0010
1000
0000
0001
0000
1000
0000
0010
0000
0100
0000
1010
0000
,
0000
0001
0010
1000
0100
1000
0010
0101
,
0000
0000
0010
0100
0001
0000
1000
0000
0001
0000
0010
0100
1000
0000
1001
0000
,
0000
0010
1000
0100
0001
0100
1000
1100
,
0000
0000
0010
0001
0100
0000
0101
0000
0000
0000
1100
0000
1000
0000
0022
0000
,
0000
0030
1000
1003
,
0001
0000
0100
0000
0010
1000
0010
0000
0100
0000
0001
1000
,
0001
0000
0010
0000
0100
0010
0001
1000
0001
1000
0100
0010
,
0001
0000
0100
0000
0010
1000
0100
0000
1000
0000
0001
0010
,
0001
0000
1000
0000
0100
1000
0010
0100
0001
0010
0100
1000
,
0001
0000
0010
0001
0100
0010
1000
0000
1000
0100
0010
0001
,
0100
0000
0010
0100
0001
1000
0010
0100
0010
1000
0001
1000
,
0100
0000
0010
0100
1000
0010
0100
0000
0001
0010
0001
1000
,
0001
0000
0100
0010
1000
0001
1000
0100
0001
1000
0010
0001
;

//---------------dance-double - ----------------
#NOTES:
     dance-double:
     :
     Easy:
     6:
     :
00000000
00000000
00000000
00000000
,
00000000
00000000
00000000
00000000
,
00000000
00000000
00000000
00000000
,
00000000
00000000
00000000
00000000
,
00000000
00000000
00000000
00000000
,
00000000
10000000
00000000
00000000
,
00000000
00100000
00000000
01000000
,
00000000
00010000
00000000
10000000
,
11000000
00000000
00110000
00000000
,
00001000
00010000
00001000
00000000
,
00001000
00000010
00000001
00000001
,
00000100
00000100
00001000
00010000
,
00000000
00001000
00000000
00100000
,
00000000
00001000
00010000
00000000
,
00010000
00100000
10000000
10000000
,
01000000
01000000
00010000
00001000
,
00000010
00000010
00000010
00000001
,
00001001
00000000
00000110
00000000
,
00000010
00001000
00000010
00000001
,
00000010
00010000
00001000
00000000
,
00100000
00010000
00100000
10000000
,
00100000
00001000
00001000
00000000
,
00000010
00000010
00000001
00000001
,
00000100
00001000
00010000
00000000
,
00100000
00100000
10000000
10000000
,
01000000
00010000
00001000
00010000
,
00000000
00001001
00000100
00000000
,
00000001
00000100
00001000
00010000
,
00001000
00000000
00010000
00000000
,
00100000
01000000
00001000
00010000
,
00000010
00000100
00000001
00000100
,
00001000
00010000
00100000
00010000
,
00002000
00000000
00000000
00000000
,
00013000
00000000
00000000
00000000
,
00010000
00001000
00000010
00000001
,
00000001
00000100
00001000
00000000
,
00010000
00100000
10000000
00100000
,
10000000
01000000
00010000
00001000
,
00000000
00000100
00000010
00001000
,
00000001
00000100
00001000
00010000
,
00000000
00100000
01000000
00010000
,
10010000
00000000
00100000
00001000
,
00010000
00000100
00000010
00000000
,
00000001
00000100
00001000
00010000
,
00000000
01000000
00100000
00010000
,
10000000
01000000
00010000
00001000
,
00000100
00000001
00000010
00000100
,
00001000
00000100
00010000
00000000
,
00001000
00000000
00010000
00000000
,
00100000
00100000
10000000
01000000
,
00010000
00001000
00000100
00000001
,
00000010
00000000
00000100
00000000
,
00010000
00001000
00010000
00001000
,
00000000
00000000
00020000
00000000
,
00032000
00000000
00003010
00000000
,
00020000
00000000
00130000
00000000
,
00000000
00100000
00000000
10000000
,
00000000
01000000
00010000
00001000
,
00000000
00000200
00000000
00000301
,
00000000
00000020
00000000
00001030
,
00010000
00000000
01000000
00000000
,
00000000
10000000
00100000
00010000
,
00001000
00001000
00001000
00001000
,
00010000
00010000
00010000
00010000
,
00001000
00001000
00010000
00010000
,
00001000
00010000
00001000
00011000
,
00000000
00000010
00000100
00001000
,
00000001
00000100
00000110
00000000
,
00001000
00010000
01000000
00100000
,
00100000
00000000
00001000
00010000
,
00011000
00001000
00000100
00000001
,
00000100
00000000
00001000
00000000
,
00010000
00000000
00011000
00001000
,
00010000
00001000
00010000
00011000
,
00000000
00010000
01000000
10000000
,
10000000
01000000
00010000
00000000
,
00001000
00000010
00000001
00000010
,
00000001
00000100
00000010
00010000
,
00000000
00001000
00100000
00010000
,
10000000
01000000
00100000
00010000
,
00001000
00000000
00000010
00000000
,
00001001
00000000
00000000
00000000
,
00000020
00000000
00000000
00000030
,
00000001
00000100
00000001
00000100
,
00001000
00010000
00001000
00000000
,
00001000
00100000
00001000
00100000
,
01000000
10000000
01000000
00000000
,
01000000
00100000
01000000
00100000
,
00001000
00010000
00001000
00010000
,
00000100
00000010
00000100
00001000
,
00000001
00000100
00000010
00001000
,
00000000
00000000
00000000
00000000
;

//---------------dance-double - ----------------
#NOTES:
     dance-double:
     :
     Medium:
     10:
     :
00000000
00000000
00000000
00000000
,
00000000
00000000
00000000
00000000
,
00000000
00000000
00000000
00000000
,
00000000
00000000
00000000
00000000
,
00000000
00000000
00000000
00000000
,
00000000
00000000
10000000
00000000
01000000
00010000
00000000
00001000
,
00000000
00000000
00000010
00000000
00001001
00000000
00000000
00000001
,
00000000
00000000
00000100
00000000
00001000
00010000
00000000
00100000
,
00000000
00000000
00000000
00000000
10010000
00000000
00000000
00100000
,
00000000
01000000
00000000
00010000
00000000
00001000
00000000
00000010
,
00000000
00000010
00000001
00000000
00000100
00000010
00001000
00000001
,
00000000
00000010
00000001
00000000
00000100
00001000
00010000
00000000
,
00100000
00000000
10000000
00000000
01000000
00100000
00010000
10000000
,
00000000
00100000
10000000
00000000
01000000
00010000
00001000
00000000
,
00000010
00000000
00000001
00000000
00000100
00000010
00001000
00000001
,
00000000
00000010
00000001
00000000
00000100
00001000
00010000
00000000
,
00100000
00000000
10000000
00000000
01000000
00100000
00010000
10000000
,
00100000
00000000
00000000
10000000
00000000
00000000
01000000
00000000
00000000
00000000
00010000
00000000
00001000
00000000
00000000
00000000
,
00000010
00000001
00001000
00000100
,
00001000
00000000
00000001
00000000
00000100
00001000
00010000
00000000
,
00100000
10000000
00010000
01000000
,
00010000
00000000
10000000
00000000
01000000
00010000
00001000
00000000
,
00000100
00000001
00001000
00000010
,
00001000
00000000
00000001
00000000
00000010
00001000
00010000
00000000
,
01000000
10000000
00010000
00100000
,
00010000
00000000
00000000
00000000
10000000
00000000
00000000
00000000
01000000
00000000
00000000
00010000
00000000
00000000
00001000
00000000
,
00000000
00000000
00000010
00000000
00000100
00001000
00000000
00000001
,
00000000
00000010
00000000
00000001
00000000
00000100
00001000
00010000
,
00100000
00000000
01000000
00010000
00000000
10000000
00000000
01000000
,
00000000
00000000
00000000
00000000
00000000
00000000
00000000
00000000
01000000
00000000
00000000
00010000
00000000
00000000
00001000
00000000
,
00000010
00000001
00001000
00000100
,
00000010
00000001
00000100
00001000
,
00010000
00100000
10000000
01000000
,
00010000
00001000
00000000
00000000
00000000
00000000
00000000
00001000
,
00000000
00001000
00000010
00000000
00000001
00000000
00001000
00000100
,
00000000
00000010
00000001
00000000
00000100
00000000
00001000
00010000
,
00000000
00010000
00100000
00000000
10000000
00000000
00010000
01000000
,
00000000
00100000
10000000
00000000
01000000
00000000
00010000
00001000
,
00000000
00001000
00000010
00000000
00000001
00000000
00001000
00000100
,
00000000
00000010
00000001
00000000
00000100
00000000
00001000
00010000
,
00000000
00010000
00100000
00000000
10000000
00000000
00010000
01000000
,
00000000
00100000
10000000
00000000
01000000
00000000
00010000
00001000
,
00000000
00001000
00000100
00000000
00000001
00000000
00001000
00000010
,
00000000
00000100
00000001
00000000
00000010
00000000
00001000
00010000
,
00000000
00010000
01000000
00000000
10000000
00000000
00010000
00100000
,
00000000
01000000
10000000
00000000
00100000
00000000
00010000
00001000
,
00000000
00001000
00000100
00000000
00000001
00000000
00001000
00000010
,
00000000
00000100
00000001
00000000
00000010
00000000
00001000
00010000
,
00000000
00010000
01000000
00000000
10000000
00000000
00000000
02000000
,
00000000
00100000
00000000
00010000
03000000
00010000
00001000
00000010
,
00000000
00000010
00000001
00000000
00000100
00000010
00001000
00000001
,
00000000
00000010
00000001
00000000
00000100
00001000
00010000
00000000
,
00100000
00000000
10000000
00000000
01000000
00100000
00010000
10000000
,
00000000
00100000
10000000
00000000
01000000
00010000
00001000
00000000
,
00000010
00000000
00000001
00000000
00000100
00000010
00001000
00000001
,
00000000
00000010
00000001
00000000
00000100
00001000
00010000
00000000
,
00100000
00000000
10000000
00000000
01000000
00100000
00010000
10000000
,
00000000
00100000
10000000
00000000
01000000
00010000
00001000
00000010
,
00000000
00000010
00000100
00000000
00001000
00000001
00000010
00000100
,
00000000
00001000
00000001
00000000
00000100
00001000
00010000
00000000
,
00100000
00000000
01000000
00000000
00010000
10000000
00100000
01000000
,
00000000
00010000
10000000
00000000
01000000
00010000
00001000
00000000
,
00000010
00000000
00000100
00000000
00001000
00000001
00000010
00000100
,
00000000
00001000
00000001
00000000
00000100
00001000
00010000
00000000
,
00100000
00000000
01000000
00000000
00010000
10000000
00100000
01000000
,
00000000
00010000
10000000
00000000
01000000
00010000
00001000
00000000
,
00000000
00000010
00000001
00000001
,
00000000
00000100
00001000
00001000
,
00000000
00010000
00001000
00010000
,
00000000
01000000
01000000
00000000
10000000
01000000
00010000
00000000
,
00001000
00000010
00000001
00000100
,
00001000
00010000
00000010
00001000
,
00010000
01000000
10000000
01000000
,
00100000
00000000
00000000
10000000
00000000
00000000
01000000
00000000
00000000
00010000
00000000
00000000
00001000
00000000
00000000
00000000
,
00000000
00000000
00000100
00000000
00000001
00000000
00001000
00000010
,
00000000
00000100
00000001
00000000
00000010
00000000
00001000
00010000
,
00000000
00010000
01000000
00000000
10000000
00000000
00010000
00100000
,
00000000
01000000
10000000
00000000
00100000
00000000
00010000
00001000
,
00000000
00001000
00000100
00000000
00000001
00000000
00001000
00000010
,
00000000
00000100
00000001
00000000
00000010
00000000
00001000
00010000
,
00000000
00010000
01000000
00000000
10000000
00000000
02000000
00100000
,
00000000
00100000
00000000
03100000
00000000
00010000
00000000
00002000
,
00000000
00000000
00000000
00003000
,
00000010
00000100
00001000
00000001
00000010
00000100
,
00001000
00000000
00000001
00000000
00000100
00000000
00001000
00000000
00000000
00010000
00000000
00000000
,
00100000
01000000
00010000
10000000
00100000
01000000
,
00010000
00000000
10000000
00000000
01000000
00000000
00010000
00000000
00000000
00001000
00000000
00000000
,
00000010
00000100
00001000
00000001
00000100
00001000
,
00010000
00000000
00001000
00000000
00100000
00000000
00010000
00000000
00000000
10000000
00000000
00000000
,
01000000
00010000
00001000
00100000
00010000
00001000
,
00000100
00000000
00000010
00000000
00000001
00000000
00000100
00000000
00000000
00001000
00000000
00000000
,
00000000
00000000
00000000
00000000
;

//---------------dance-double - ----------------
#NOTES:
     dance-double:
     :
     Hard:
     13:
     :
00000000
00000000
00000000
00000000
,
00000000
00000000
00000000
00000000
,
00000000
00000000
00000000
00000000
,
00000000
00000000
00000000
00000000
,
00000000
00000000
00000000
00000000
,
00000000
00000000
10000000
00000000
01000000
00010000
00001000
00000010
,
00000000
00000001
00001000
00000000
00000200
00000000
00000000
00000310
,
00000000
00000001
00000100
00000000
00001000
00000000
00010000
00001000
,
00000000
00000000
01100000
00000000
,
10000000
00000000
00000000
01000000
00000000
00000000
00010000
00000000
00000000
00000000
00001000
00000000
00000000
00000000
00000010
00000000
,
00000000
00000010
00000001
00001000
00000100
00000010
00000001
00001000
,
00000100
00001000
00000001
00000100
00000001
00000010
00001000
00000000
,
00011000
00000000
00110000
00000000
01000000
00100000
10000000
00010000
,
01000000
00100000
10000000
01000000
00200000
00000000
00301000
00000000
,
00010000
00000010
00001000
00000010
00000001
00000010
00001000
00000001
,
00000000
00000001
00000010
00000100
00001000
00000100
00010000
00001000
,
00010000
00000000
00001000
00010000
00000000
00100000
00010000
00100000
,
01000000
00000000
00000000
11000000
00000000
00000000
01010000
00000000
00000000
00000000
00000000
00000000
00000000
00000000
00000000
00000000
,
10000000
01000000
00010000
01000000
00000000
00010000
00001000
00000000
,
00001010
00000000
00000011
00000000
00000001
00000100
00001000
00000000
,
00001000
00010000
00100000
00010000
00000000
00001000
00010000
00000000
,
01000000
00000000
01100000
00000000
10000000
01000000
00010000
00001000
,
00000010
00000000
00000001
00000000
00001000
00000000
00000001
00000100
,
00001000
00000000
00010000
00001000
00000100
00001000
00010000
00000000
,
00100000
01100000
10000000
10010000
,
01000000
00000000
00010000
00000000
00001000
00000000
00010000
00000000
00001000
00000000
00000000
00010000
00000000
00000000
00001000
00000000
,
00000000
00000000
00000010
00000000
00000001
00000001
00000000
00000110
,
00000000
00000011
00000000
00000101
00000000
00000100
00001000
00010000
,
00100000
00000000
00010000
00001000
00000000
00100000
00000000
00110000
,
00000000
00000000
00010000
00000000
10000000
00000000
00000000
00000000
01000000
00000000
00000000
00010000
00000000
00000000
00001000
00000000
,
00011000
00001100
00000110
00001100
,
00011000
01010000
11000000
01100000
,
00101000
00000000
00000000
00011000
00000000
00000000
00110000
00000000
,
00011000
00000000
00000000
00000000
00000000
00000000
00000000
00002000
,
00000000
00003010
00000001
00001000
00000100
00000010
00000000
00000001
,
00000100
00001000
00000001
00000010
00000100
00001000
00010000
00100000
,
00000000
00100000
10000000
01000000
00010000
01000000
10000000
00010000
,
00000000
00100000
01000000
00000000
01100000
00000000
00101000
00002000
,
00000000
00003010
00000001
00001000
00000100
00000010
00000000
00001000
,
00000000
00001000
00010000
00001000
00000000
00010000
00001000
00010000
,
00000000
00100000
10000000
00010000
01000000
00100000
01000000
10000000
,
01000000
00000000
01100000
00000000
00110000
00000000
00001000
00020000
,
00000000
00031000
00000010
00000001
00001000
00000100
00000000
00000010
,
00001000
00010000
00000010
00000100
00000001
00000010
00001000
00010000
,
00000000
00100000
10000000
00010000
00100000
01000000
10000000
01000000
,
00000000
00100000
01000000
00000000
00110000
00000000
00011000
00002000
,
00000000
00003010
00000001
00001000
00000100
00000001
00001000
00000010
,
00000000
00001000
00010000
00001000
00100000
00001000
00010000
00011000
,
00000000
00000000
00000000
00000000
01100000
00000000
00000000
11000000
,
00000000
01100000
00000000
00110000
00000000
00011000
00000000
00001000
,
00000000
00000100
00000001
00001000
00000010
00000100
00000010
00010000
,
00000100
00000010
00000001
00000010
00001000
00010000
00001000
00010000
,
00011000
00000000
00110000
00100000
01000000
00100000
10000000
00010000
,
00100000
01000000
10000000
01000000
00010000
01000000
00100000
00001000
,
00000000
00000010
00000001
00001000
00000100
00000010
00000001
00001000
,
00000100
00001000
00000001
00000100
00000010
00000100
00001000
00010000
,
00001000
00000000
00101000
00000000
01100000
00000000
10000000
00010000
,
01000000
00100000
10000000
01000000
00100000
01000000
00010000
00001000
,
00000000
00000010
00000100
00000000
00001000
00000001
00000100
00000010
,
00000000
00001000
00000001
00000000
00000100
00001000
00010000
00000000
,
00010000
00100000
01000000
00000000
00010000
10000000
00100000
01000000
,
00000000
00010000
10000000
00000000
01000000
00010000
00001000
00000000
,
00011000
00010100
00001100
00000110
,
00000100
00010000
00000100
00000000
00001000
00100000
00001000
00000000
,
00110000
00000000
01100000
00000000
11000000
00000000
00100000
01000000
,
10000000
00000000
00000000
01000000
00000000
00000000
00010000
00000000
00000000
00000000
00000000
00000000
00001000
00000000
00020000
00000000
,
00000000
00001000
00000000
00031000
,
00000020
00000001
00000000
00000031
,
00000200
00001300
00020000
00130000
,
20000000
00000000
31000000
00000000
00010000
00000000
00010000
00001000
,
00000000
00000010
00000001
00000010
00000100
00000010
00000001
00001000
,
00000000
00000010
00010000
00001000
00010000
00100000
00000000
01100000
,
00000000
00000000
10010000
00000000
,
00010000
00000000
00000000
10000000
00000000
00000000
01000000
00000000
00010000
00000000
00001000
00000000
00000010
00000000
00000001
00000000
,
00000000
00000000
00000001
00001000
00000010
00000100
00000001
00000010
,
00000100
00001000
00000001
00000100
00000010
00000100
00001000
00010000
,
00000000
01000000
10000000
00010000
00100000
01000000
10000000
00010000
,
00000000
00010000
10000000
00010000
00100000
01000000
00010000
00001000
,
00000000
00000100
00000001
00001000
00000010
00000100
00000001
00001000
,
00000000
00000100
00010000
00001000
00010000
00000010
00001000
00010000
,
00000000
00000000
00010000
01000000
10000000
00000000
10010000
00010000
,
00100000
00000000
00000000
01000000
00000000
00000000
10000000
00000000
00000000
00000000
01000000
00000000
00010000
00000000
00000000
00000000
,
00000000
00000000
00000000
00000000
,
00010000
00001000
00000100
00000001
00000010
00001000
,
00010000
00000000
01000000
00000000
10000000
00000000
00010000
00100000
01000000
00100000
00000000
00000000
,
00001000
00010000
01000000
10000000
00100000
00010000
,
00001000
00000000
00000100
00000000
00000001
00000000
00001000
00000010
00000100
00000010
00000000
00000000
,
00001000
00000100
00000010
00000001
00000100
00001000
,
00010000
00000000
00100000
00000000
10000000
00000000
00010000
00100000
01000000
00100000
00000000
00000000
,
00001000
00010000
00100000
10000000
01000000
00010000
,
00001000
00000000
00000010
00000000
00000001
00000000
00001000
00000010
00000100
00000010
00000000
00000000
,
00000000
00000000
00000000
00000000
;
