#TITLE:SHERRY FLIP;
#ARTIST:EBIDEATH meets PORT PHILLIP;
#BANNER:SHERRY FLIP-bn.png;
#BACKGROUND:SHERRY FLIP-bg.png;
#JACKET:SHERRY FLIP-jacket.png;
#MUSIC:SHERRY FLIP.ogg;
#OFFSET:0.025;
#SAMPLESTART:83.365;
#SAMPLELENGTH:20;
#DISPLAYBPM:118;
#BPMS:0=118;
#BGCHANGES:;

//---------------dance-single - ----------------
#NOTES:
     dance-single:
     :
     Beginner:
     3:
     :
0000
0000
0000
0000
,
0000
0000
0000
0000
,
0000
0000
0000
0000
,
0000
0000
0000
0000
,
0010
0000
1000
0000
,
0100
0000
1000
0000
,
0001
0000
0010
0000
,
0001
0000
0100
0000
,
0001
0000
0010
0000
,
0100
0000
1000
0000
,
0010
0000
1000
0000
,
0001
0000
0100
0000
,
1001
0000
0000
0000
,
0000
0000
0000
0000
,
0010
0000
0000
0000
,
0000
0000
1000
1000
,
0000
0000
0001
0001
,
0000
0000
0100
0100
,
0000
0000
0010
0010
,
0000
0000
0110
0000
,
1001
0000
0001
0000
,
0100
0000
0100
0000
,
0010
0000
1000
0000
,
0100
0000
0010
0010
,
0000
0000
0001
0000
,
0100
0000
0001
0001
,
0001
0000
1000
0000
,
0010
0010
0010
0000
,
2000
0000
3000
0000
,
0002
0000
0003
0000
,
0200
0000
0300
0000
,
0010
0000
0110
0000
,
1001
0000
0000
0000
,
0000
0000
0000
0000
,
0001
0000
0001
0000
,
1000
1000
1000
0000
,
0100
0000
1000
0000
,
0001
0000
0100
0000
,
0010
0000
1000
0000
,
0001
0001
0001
0000
,
1000
0000
0010
0000
,
0110
0000
0001
0000
,
1000
1000
1000
0000
,
0100
0000
0010
0000
,
0001
0001
0001
0001
,
0001
0000
0100
0000
,
0010
0000
1000
0000
,
1000
0000
0010
0000
,
0100
0100
0100
0000
,
0010
0000
1000
0000
,
0001
0000
0100
0000
,
0001
0000
0010
0000
,
0100
0000
1000
1000
,
0000
0000
0010
0000
,
0100
0000
0010
0010
,
0010
0000
1000
0000
,
0001
0001
0001
0001
,
0001
0000
1000
0000
,
0000
0000
0001
0001
,
0000
0000
0100
0000
,
0020
0000
0030
0000
,
0100
0000
0000
0000
;

//---------------dance-single - ----------------
#NOTES:
     dance-single:
     :
     Easy:
     8:
     :
0000
0000
0000
0000
,
0000
0000
0000
0000
,
0000
0000
0000
0000
,
0000
0000
0000
0000
,
0010
0000
0001
1000
0100
1000
0020
0000
,
0130
0001
0010
0100
,
1000
0000
0010
1000
0100
0000
1000
0001
,
0010
0001
1000
0010
,
0100
0000
0001
0010
0001
1000
0200
0000
,
1300
0001
0010
0100
,
0010
0000
0001
0100
0010
0000
1000
0001
,
1000
0010
0100
0001
,
1001
0000
0001
0000
,
1000
0000
0001
0000
,
0010
0000
0100
0000
,
1000
0000
0000
0000
0001
0100
0001
0100
,
0000
0010
1000
0001
,
0000
0000
0000
0000
1000
0100
1000
0100
,
0000
1000
0001
0010
,
0001
0000
0100
0000
0010
1000
0010
0000
,
0110
0001
0010
0100
,
1000
0000
0010
1000
0100
0010
0001
0000
,
0100
0001
0010
1000
,
0100
0000
0010
0000
0001
0100
0001
0100
,
0010
1001
1000
0100
,
0010
0000
0001
0000
1000
0100
1000
0100
,
2000
0000
3002
0000
1003
0001
1000
0001
,
0100
0000
0010
0000
1000
0100
1000
0000
,
1001
0010
1000
0001
,
0010
0001
0100
0010
,
1000
0100
1000
0001
,
1000
0010
0100
0001
0010
0000
0110
0000
,
1001
0000
0010
0000
,
1000
0000
0000
0000
0001
0100
0001
0100
,
0020
0030
2000
3000
,
0001
0001
0001
0100
,
0002
0003
2000
3000
,
0010
1000
0100
0001
,
0010
0001
0100
0001
,
1000
0100
1001
0110
,
1000
0000
1000
0000
1000
0000
1000
0001
,
0200
0310
2000
3001
,
0010
0001
0010
0001
,
0200
0301
2000
3010
,
1000
0100
0010
0001
,
0020
0031
2000
3100
,
1000
0001
0010
0001
0010
0100
1000
0000
,
0010
0010
1000
0001
,
0010
0001
1000
0001
0200
0000
0300
0000
,
1001
0010
1000
0100
,
0010
0000
0001
0000
1000
0001
0200
0000
,
0310
0000
0110
0000
0001
1000
0001
1000
,
0000
0000
0000
0000
1000
0100
1000
0100
,
0010
0000
0001
0000
0100
0000
0010
1000
,
0000
0000
1000
0100
1000
0001
0200
0000
,
0302
0000
2003
0000
3002
0000
1003
0001
,
0200
0000
0320
0000
0130
0010
0100
0010
,
1000
0100
1000
0001
,
0010
0000
0000
0000
0001
0100
0001
0100
,
0000
0000
0010
1000
0001
1000
0100
0000
,
0010
0000
0001
0000
1000
0000
0010
1000
,
0100
0000
0000
0000
;

//---------------dance-single - ----------------
#NOTES:
     dance-single:
     :
     Medium:
     11:
     :
0000
0000
0000
0000
,
0000
0000
0000
0000
,
0000
0000
0000
0000
,
0000
0000
0000
0000
,
0010
0000
0000
1000
0000
0100
0000
0000
1000
0000
0000
0001
0000
0000
0010
0001
0000
0000
0200
0000
0000
0000
0000
0000
,
0301
0010
0000
0001
1000
0010
0000
1000
,
0100
0000
0000
0010
0000
0001
0000
0000
1000
0000
0000
0010
0000
0000
0100
0000
0000
0010
1000
0000
0000
0001
0000
0000
,
0010
0001
0000
0100
0010
1000
0000
0100
,
1000
0000
0000
0001
0000
0010
0000
0000
0001
0000
0000
1000
0000
0000
0100
0010
0000
0000
0002
0000
0000
0000
0000
0000
,
0103
0010
0000
1000
0001
0010
0000
0100
,
1000
0000
0000
0010
0000
1000
0000
0000
0100
0000
0000
0010
0000
0000
0001
0000
0000
1000
0001
0000
0000
0100
0000
0000
,
0010
1000
0000
0001
1000
0100
0000
0010
,
0000
0001
0100
0001
1000
0001
0100
0001
,
0000
0000
0000
0000
,
0000
0000
0000
0000
0000
0010
1000
0000
0000
0100
0000
0000
1000
0000
0000
0010
0000
0000
1000
0000
0000
0100
0000
0000
,
0000
0000
0000
0000
0000
0000
0000
0000
0000
1000
0000
0001
1000
0000
0000
0001
0000
1000
0001
0000
0000
0100
0000
0000
,
0000
0000
0000
0000
0000
0001
0010
0000
0000
0100
0000
0000
0010
0000
0000
0001
0000
0000
0010
0000
0000
0100
0000
0000
,
0000
0000
0000
0000
0000
0000
0000
0000
0000
1000
0000
0001
1000
0000
0000
0001
0000
1000
0001
0000
0000
0100
0000
0000
,
0000
0000
0000
0000
0000
0010
1000
0000
0000
0001
0000
0000
1000
0000
0000
0010
0000
0000
1000
0000
0000
0001
0000
0000
,
0100
0010
1000
0001
1001
0110
1001
0000
,
0110
0001
0010
0100
1000
0010
1000
0001
,
0000
0000
0100
0000
0000
0010
1000
0000
0000
0001
0000
0000
0010
0000
0000
0001
0000
0100
0000
0000
0000
0000
0000
0000
,
0010
0000
0000
0000
0000
1000
0001
0000
0000
0010
0000
0000
0001
0000
0000
0100
0000
0000
0010
0000
0000
1000
0000
0000
,
0000
0000
0000
0100
0000
0000
0000
0000
0000
1000
0000
0010
1000
0000
0000
0001
0000
0010
0001
0000
0000
0100
0000
0000
,
1001
0110
0010
1000
0100
0010
0001
1000
,
0000
0000
0000
0010
0000
0000
0000
0000
0000
1000
0000
0100
1000
0000
0000
0001
0000
0100
0001
0000
0000
0010
0000
0000
,
0011
0000
1100
0000
0101
1100
0101
0010
,
1000
0100
0010
0001
0101
1010
0101
0000
,
1001
0000
0000
0010
0000
0000
0000
0000
1000
0000
0000
0000
0001
0000
0000
0000
0000
1000
0000
0000
0000
0100
0000
0000
,
0000
0000
0000
1100
0000
0000
0000
0000
0101
0000
0000
0000
1000
0000
0000
0100
0000
0000
0010
0000
0000
0001
0000
0000
,
0000
0000
0000
0011
0000
0000
0000
0000
1010
0000
0000
0000
0010
0000
0000
0100
0000
0000
0001
0000
0000
1000
0000
0000
,
0100
0010
0100
0010
0100
0000
0110
0000
,
2002
3000
2000
0003
,
0020
0000
3030
0000
1000
0001
0100
0010
,
2020
3000
0200
0030
,
0302
2003
3002
2003
,
3020
0000
0000
0000
0000
0000
0000
0000
0000
1030
0000
0200
0000
0000
0000
0000
0000
0000
0000
0000
0000
1300
0000
0020
,
0000
0000
0000
0130
0000
0000
0010
0000
0000
1000
0000
0001
0000
0000
0010
0000
0000
0001
0000
0000
0000
1000
0000
0000
,
0010
0000
1000
0001
1000
0100
0010
0001
,
0100
0010
1000
0001
0011
0000
1010
0000
,
1100
0000
0101
0000
1001
0000
0010
0100
,
0120
0000
1030
0100
0020
0000
0031
0100
,
0010
1000
0000
0010
1000
0000
0001
0100
0000
0001
0100
0000
,
1002
1000
1003
0000
2001
0001
3001
0000
,
0020
0032
0203
2300
,
3020
0000
0000
0000
0000
0000
0000
0000
0000
0031
0000
2000
0000
0000
0000
0100
0000
0000
0000
0000
0000
3010
0000
0100
,
0000
0000
0000
0010
0000
0000
1000
0000
0100
0000
0000
1000
0000
0000
0001
0100
0000
0000
0010
0000
0000
0100
0000
0000
,
0001
0001
0010
0010
0100
0100
1000
1000
,
0010
1000
0001
1000
0100
0010
0001
0000
,
0100
0010
1000
0001
0010
0001
1000
0100
,
0000
0000
0000
1000
0000
0010
0000
0000
0100
0000
0000
0001
0000
0000
0010
0001
0000
0000
2000
0000
0000
0000
0000
0000
,
3010
0000
0000
0000
0000
0010
1000
0000
0000
0001
0000
0000
1000
0000
0000
0100
0000
0000
0010
0000
0000
0001
0000
0000
,
0000
0000
0000
0100
0000
0000
0000
0000
0000
0001
0000
0010
0001
0000
0000
1000
0000
0010
1000
0000
0000
0100
0000
0000
,
0010
0000
0000
0000
0000
0010
0001
0000
0000
0100
0000
0000
0001
0000
0000
0010
0000
0000
0100
0000
0000
1000
0000
0000
,
0000
0000
0000
0001
0000
1000
0000
0000
0010
0000
0000
1000
0000
0000
0001
0010
0000
0000
0200
0000
0000
0000
0000
0000
,
1300
0000
1100
0000
0101
0000
1001
0110
,
0001
0000
1001
0000
1100
0101
1100
0101
,
0010
1000
0100
1000
0010
1000
0100
0000
,
0000
0000
0000
0000
0000
0000
0000
0000
0000
1000
0000
0001
1000
0000
0000
0001
0000
1000
0001
0000
0000
0100
0000
0000
,
0000
0001
0010
0001
1000
0010
1000
0000
,
0010
0100
0000
2002
0000
0003
3001
1000
,
0100
0000
0000
0000
;

//---------------dance-single - ----------------
#NOTES:
     dance-single:
     :
     Hard:
     13:
     :
0000
0000
0000
0000
,
0000
0000
0000
0000
,
0000
0000
0000
0000
,
0000
0000
0000
0000
,
0010
0000
0000
1000
0000
0100
0000
0000
1000
0000
0000
0001
0000
0000
1000
0010
0000
0000
0200
0000
0000
0000
0000
0000
,
0301
0000
0000
0100
0000
0000
0010
0000
1000
0010
0000
0000
0100
0000
0000
0010
0000
0000
1000
0000
0001
1000
0000
0000
,
0100
0000
0000
0010
0000
0001
0000
0000
1000
0000
0000
0010
0000
0000
1000
0000
0000
0001
0010
0000
0000
0100
0000
0000
,
1000
0000
0000
0010
0000
0000
0100
0000
0001
0100
0000
0000
0001
0000
0000
1000
0000
0000
0010
0000
0100
0010
0000
0000
,
1000
0000
0000
0100
0000
1000
0000
0000
0001
0000
0000
0010
0000
0000
0001
0100
0000
0000
0020
0000
0000
0000
0000
0000
,
1030
0000
0000
0001
0000
0000
0010
0000
0100
0010
0000
0000
0100
0000
0000
1000
0000
0000
0001
0000
0010
0001
0000
0000
,
0100
0000
0000
0010
0000
1000
0000
0000
0100
0000
0000
1000
0000
0000
0001
0000
0000
0010
0001
0000
0000
1000
0000
0000
,
0010
0000
0000
0100
0000
0000
0001
0000
1000
0001
0000
0000
0010
0000
0000
0001
0000
0000
1000
0000
0100
1000
0000
0000
,
1001
0010
1000
0010
0001
0010
1000
0100
,
0000
0010
0000
0010
0000
0001
0000
0001
,
0000
0000
0000
0000
0000
0100
0001
0000
0000
0010
0000
0000
1000
0000
0000
0010
0000
0000
0001
0000
0000
0100
0000
0000
,
0000
0000
0000
0010
0000
0000
0000
0000
0000
1000
0000
0100
1000
0000
0000
0001
0000
0100
0001
0000
0000
0010
0000
0000
,
0000
0000
0000
0000
0000
0001
1000
0000
0000
0010
0000
0000
0001
0000
0000
0010
0000
0000
1000
0000
0000
0100
0000
0000
,
0000
0000
0000
0010
0000
0000
0000
0000
0000
0001
0000
0100
0001
0000
0000
1000
0000
0100
1000
0000
0000
0010
0000
0000
,
0100
0000
0000
0000
0000
0010
1000
0000
0000
0100
0000
0000
0001
0000
0000
0100
0000
0000
1000
0000
0000
0001
0000
0010
,
0001
0000
1000
0001
0000
1000
0001
0000
0000
0100
0000
0000
0101
0000
0000
1100
0000
0000
0101
0000
0000
0000
0000
0000
,
1001
0100
0001
0100
1000
0100
0010
1000
,
0100
0000
0000
0010
0000
0001
0010
0000
0001
0010
0000
0001
1000
0000
0000
0010
0000
1000
0000
0000
1000
0001
0000
0000
,
0100
0000
0000
0010
0000
1000
0010
0000
0000
0100
0000
0000
1000
0000
0000
0100
0000
0000
0001
0000
0000
0010
0000
0000
,
0100
0000
0000
1000
0000
0000
0001
0000
0000
0010
0000
0010
0001
0000
0000
1000
0000
1000
0010
0000
0000
0100
0000
0000
,
0001
0000
1000
0001
0000
1000
0001
0000
0000
0100
0000
0000
0010
0000
0000
0001
0000
0000
0010
0000
0000
1000
0000
0000
,
0100
0000
0000
0010
0000
0000
0001
0000
0000
1000
0000
1000
0001
0000
0000
0100
0000
0100
0010
0000
0000
1000
0000
0000
,
1100
0000
0000
0001
0000
0000
0101
0000
0000
1000
0000
0000
1100
0000
0000
0110
0000
0000
0011
0000
0000
1000
0000
0001
,
1000
0000
0100
1000
0000
0100
1000
0000
0000
0001
0000
0000
0011
0000
0000
1010
0000
0000
0011
0000
0000
0000
0000
0000
,
1001
0000
0000
0010
0000
0000
1000
0000
0010
0000
0000
0000
1000
0000
0000
0010
0000
1000
0000
0000
0010
1000
0000
0010
,
0000
0000
0000
0100
0000
0000
0001
0000
0100
0000
0000
0000
0001
0000
0100
0001
0000
0100
0001
0000
0000
0100
0000
0000
,
0010
0000
0000
1000
0000
0000
0001
0000
1000
0000
0000
0000
0001
0000
1000
0001
0000
1000
0001
0000
0000
1000
0000
0000
,
0010
0000
0010
0100
0000
0100
0001
0000
0001
1000
0000
1000
0100
0000
0000
0000
0000
0000
0110
0000
0000
0000
0000
0000
,
2002
3000
2003
0000
,
3020
0000
0000
0000
0000
0000
0030
0000
0000
1000
0000
0100
1000
0000
0000
0001
0000
0100
0001
0000
0000
0010
0000
0000
,
0200
1000
2300
0001
,
3002
0000
0103
0010
0001
0010
1000
0100
,
0020
0000
0031
1000
0200
0000
1300
0010
,
0100
0000
0000
0001
0000
0000
0010
0000
0000
0001
0000
0000
1000
0000
0000
0010
0000
0100
0010
0000
0000
1000
0000
0000
,
0200
0000
1300
0010
0001
0010
1000
0001
,
0100
0010
1000
0001
0011
0000
1010
0000
,
0101
0000
1100
0000
1001
0000
0110
1001
,
0110
0000
0000
0000
0000
0000
0001
0000
0000
0010
0000
0100
0000
0000
0100
1000
0000
0000
0010
0000
0000
0100
0000
0000
,
0001
0010
0000
0001
0100
0000
0001
0010
0000
0001
0100
0000
,
1020
1000
1030
0000
0201
0001
0301
0000
,
0021
0000
0000
0031
0000
0000
1200
0000
0000
1300
0000
0001
2000
0000
0000
3010
0000
0000
0200
0000
0000
0301
0000
0000
,
0020
0000
0000
0000
0000
0000
0031
0000
0000
1000
0000
0200
1000
0000
0000
0000
0000
0000
0310
0000
0000
0001
0000
2000
,
0000
0000
0000
0010
0000
0000
3010
0000
0000
1000
0000
0100
0000
0000
1000
0001
0000
0001
0100
0000
0000
0010
0000
0000
,
0110
0110
0101
0101
1001
1001
1100
1100
,
0001
0000
0000
1000
0000
0000
0010
0000
1000
0000
0000
0002
0000
0000
0000
0100
0000
0000
0000
0000
0000
0103
0000
0000
,
1001
0010
0001
0010
1000
0100
1000
0001
,
0010
0000
0000
0100
0000
1000
0000
0000
0010
0000
0000
0100
0000
0000
0001
1000
0000
0000
0002
0000
0000
0000
0000
0000
,
0013
0000
0000
0000
0000
0010
0001
0000
0000
0100
0000
0000
1000
0000
0000
0100
0000
0000
0001
0000
0000
1000
0000
0000
,
0010
0000
0000
1000
0000
0000
0100
0000
0000
0010
0000
0010
0001
0000
0000
1000
0000
1000
0010
0000
0000
0100
0000
0000
,
0001
0000
0000
0010
0000
0001
0010
0000
0000
0100
0000
0000
0001
0000
0000
0100
0000
0000
1000
0000
0000
0010
0000
0000
,
0100
0000
0000
0001
0000
0010
0000
0000
0001
0000
0000
1000
0000
0000
0010
1000
0000
0000
0200
0000
0000
0010
0000
0000
,
0310
0001
0101
0100
0110
0010
1001
0110
,
0010
0000
1010
0000
1100
0101
1100
0101
,
0010
0000
0001
0000
0000
0001
1000
0000
0100
1000
0000
0100
1000
0000
0000
0010
0000
0100
0000
0000
0000
0001
0000
0000
,
0000
0000
0000
0010
0000
0000
0000
0000
0000
0001
0000
0100
0001
0000
0000
1000
0000
0100
1000
0000
0000
0010
0000
0000
,
0000
0000
1000
0000
0000
0010
0100
0000
0010
0100
0000
0010
1000
0000
0000
0001
0000
0010
0000
0000
0000
0100
0000
0000
,
0000
0000
0000
0010
0000
0000
0000
0000
0000
0001
0000
0100
0001
0000
0000
1000
0000
0100
1000
0000
0000
0010
0000
0000
,
0100
0000
0000
0000
;
