#TITLE:SEDUCTION;
#ARTIST:nc ft. FINALFORCE;
#BANNER:SEDUCTION.png;
#BACKGROUND:SEDUCTION-bg.png;
#JACKET:SEDUCTION-jacket.png;
#MUSIC:SEDUCTION.ogg;
#SAMPLESTART:45.47;
#SAMPLELENGTH:20;
#DISPLAYBPM:95:190;
#BPMS:0=95,40=190;
#STOPS:230=0.316,245=0.316;
#BGCHANGES:0=SEDUCTION.avi=1=0=0=0,
;

//---------------dance-single - ----------------
#NOTES:
     dance-single:
     :
     Beginner:
     4:
     :
0000
0000
0000
0000
,
0000
0000
0000
0000
,
0000
0000
0000
0000
,
0000
0000
0000
0000
,
0001
0000
0001
0000
,
1000
0000
1000
0000
,
0001
0000
0001
0000
,
1000
0000
1000
0000
,
1001
0000
0000
0000
,
1001
0000
0000
0000
,
1000
0000
0000
0000
,
1000
0000
0000
0000
,
0001
0000
0000
0000
,
0001
0000
0000
0000
,
1000
0000
0000
0000
,
0001
0000
0000
0000
,
0100
0000
0000
0000
,
0001
0000
0000
0000
,
1000
1000
0000
0000
,
1000
0000
1000
0000
,
0001
0001
0000
0000
,
0001
0000
0001
0000
,
1000
1000
0000
0000
,
1000
0000
1000
0000
,
0010
0010
0000
0000
,
0010
0000
0010
0000
,
0100
0100
0000
0000
,
0100
0000
0100
0000
,
0001
0001
0000
0000
,
0001
0000
0001
0000
,
1000
1000
0000
0000
,
0100
0000
0100
0000
,
1000
0000
1000
0000
,
0001
0000
0001
0000
,
1001
0000
0000
0000
,
1000
0000
0000
0000
,
0001
0000
0001
0000
,
0000
0000
0000
0000
,
1000
1000
0000
0000
,
0000
0000
0000
0000
,
1000
0000
1000
0000
,
0000
0000
0000
0000
,
1001
0000
0000
0000
,
0000
0000
0000
0000
,
1001
0000
0000
0000
,
0000
0000
0000
0000
,
0001
0000
0000
0000
,
1000
0000
0000
0000
,
0001
0000
1000
0000
,
0001
0000
0000
0000
,
0010
0000
0010
0000
,
0010
0000
0001
0000
,
0001
0000
1000
0000
,
1000
0000
0001
0000
,
0001
0000
1000
0000
,
1000
0000
0010
0000
,
0010
0000
0100
0000
,
0100
0000
0001
0001
,
0000
1000
0000
0001
,
0000
0001
0000
1000
,
0000
0010
0000
0010
,
0000
0100
0100
0000
,
0001
0000
0001
0000
,
1000
0000
1000
0000
,
0001
0000
0010
0000
,
0010
0000
1001
0000
,
0000
0000
0000
0000
;

//---------------dance-single - ----------------
#NOTES:
     dance-single:
     :
     Easy:
     6:
     :
0000
0000
0000
0000
,
0000
0000
0000
0000
,
0000
0000
0000
0000
,
0000
0000
0000
0000
,
0110
0000
0100
0000
,
0010
0000
0100
0000
,
0001
0000
1000
0000
,
0010
0000
0100
0000
,
1001
0000
0110
0000
,
0110
0000
0000
0000
,
1000
0000
1000
0000
,
0001
0000
0001
0000
,
0100
0000
0100
0000
,
0001
0000
0001
0000
,
1000
1000
0100
0000
,
0010
0000
0010
0000
,
0001
0000
0001
0000
,
1000
1000
0010
1000
,
0100
0000
0001
0000
,
0001
0000
1000
0010
,
1000
0000
0010
0000
,
0100
0000
0001
0010
,
0001
0000
0010
0000
,
0100
0000
0001
1000
,
0001
0000
0010
0000
,
0100
0000
0010
0010
,
1000
0100
0100
1000
,
1000
0100
0001
0001
,
0001
0000
0010
0000
,
1000
1000
0100
0100
,
0100
0000
0010
0000
,
0010
0000
0001
1000
,
0010
0001
0100
1000
,
0001
0010
0001
1000
,
0100
0000
0000
0000
,
0000
0000
0001
1000
,
0020
0000
0000
0000
,
0000
0000
0130
0001
,
2000
0000
0000
0000
,
0000
0000
3010
1000
,
0200
0000
0000
0000
,
0000
0000
1300
0001
,
1002
0000
0000
0000
,
0020
0000
0000
0033
,
2001
0000
0000
0000
,
0020
0000
0000
3030
,
1002
0000
0200
0303
,
2001
0000
0200
3300
,
1002
0000
0023
0000
,
0230
0000
0000
0300
,
1000
1000
0100
0100
,
0010
0010
0002
0003
,
0001
0001
0100
0100
,
0010
0010
2000
3000
,
1000
1000
0010
0010
,
0100
0100
0020
1030
,
2000
3000
0200
0300
,
1000
0001
1002
0013
,
0000
1000
1000
0010
,
0000
0001
0001
0200
,
0300
0020
0030
1000
,
0001
2001
3100
0000
,
0100
0010
0100
0000
,
0001
1000
1001
0000
,
0110
0000
1000
0010
,
0100
0001
2002
0000
,
0000
0000
0000
3003
,
0000
0000
0000
0000
;

//---------------dance-single - ----------------
#NOTES:
     dance-single:
     :
     Medium:
     9:
     :
0000
0000
0000
0000
,
0000
0000
0000
0000
,
0000
0000
0000
0000
,
0000
0000
0000
0000
,
1001
1000
1001
0001
,
0110
0010
0110
0100
,
1010
1000
0101
0001
,
1100
1000
0011
0001
,
0110
0000
1001
0000
,
0002
0000
0000
0000
,
1003
0001
0010
0000
,
0100
0000
0100
0000
1000
0100
1000
0000
,
0001
0100
0010
0000
,
0100
0000
0100
0000
0001
0100
0001
0000
,
1000
0001
0100
0000
,
1000
0000
1000
0000
0001
1000
0001
0000
,
0010
0001
1000
0000
,
0010
1000
0001
0100
,
0001
0100
0001
0000
1000
0000
1000
0000
,
0010
0000
0100
0000
0001
0100
0001
0000
,
1000
0100
1000
0000
0001
0000
0001
0000
,
0010
0000
0100
0000
1000
0100
1000
0000
,
0001
1000
0001
0000
0010
0000
0010
0000
,
0001
0000
0100
0000
0010
0100
0010
0000
,
1000
0001
1000
0000
0010
0000
0010
0000
,
1000
0000
0100
0000
0010
0100
0010
0000
,
0001
1000
0000
0001
0000
0100
0000
0010
,
0000
0000
0000
0000
0001
0100
0010
0000
,
1000
0001
0000
1000
0000
0100
0000
0010
,
0000
0000
0000
0000
1000
0100
0010
0000
,
0010
0100
0000
1000
0000
0100
0000
0001
,
0000
0000
0000
0000
0010
0100
0010
0000
,
1100
0000
1001
0000
,
0101
0001
1010
1000
,
1001
0000
0010
0000
,
0001
0000
0000
0000
0010
0001
0100
0000
,
1001
0000
0010
0000
,
1000
0000
0000
0000
0010
1000
0100
0000
,
1001
0000
0001
0000
,
1000
0000
0000
0000
0001
0010
0100
0000
,
0010
0000
1000
0000
,
0001
0000
0000
0000
1000
0010
0100
0000
,
1002
0000
0100
0000
,
2003
0000
0000
3000
,
2001
0000
0100
0000
,
3002
0000
0000
0003
,
1001
0000
0001
0000
,
0110
0000
1000
0000
,
0101
0000
1100
0000
,
0020
0000
0000
0030
,
0001
0010
0100
0000
1000
0000
0010
0000
,
0100
0000
0001
0000
1000
0100
0100
0000
,
1000
0010
0100
0000
0001
0000
0010
0000
,
0100
0000
1000
0000
0001
0100
0100
0000
,
0010
0100
0001
0000
0010
0000
0100
0000
,
1000
0000
0001
0000
0010
0100
0100
0000
,
0011
0001
1100
1000
,
0001
1001
0010
0110
,
0100
1000
0001
0100
,
0010
0000
0001
0100
0010
0000
1000
0100
,
0010
0000
0001
0000
1000
0000
0001
0100
,
0001
1000
0001
0000
0001
1000
0100
0000
,
0001
0100
1000
0000
0010
1000
0010
0000
,
0100
0001
0100
0000
0010
0001
0100
0000
,
0010
1000
0100
0000
0010
0001
0010
0001
,
1000
0100
1000
0100
2000
0000
0000
0000
,
0000
0000
0000
3000
,
0000
0000
0000
0000
;

//---------------dance-single - ----------------
#NOTES:
     dance-single:
     :
     Hard:
     12:
     :
0000
0000
0000
0000
,
0000
0000
0000
0000
,
0000
0000
0000
0000
,
0000
0000
0000
0000
,
0011
0000
1000
0100
1000
0000
0000
0001
0100
0000
1000
0010
1000
0000
0000
0100
,
1000
0000
0010
0001
0010
0000
0000
0001
0100
0000
1000
0010
1000
0000
0000
0010
,
0100
0000
0100
0001
0100
0000
0000
0001
0010
0000
0010
0100
0010
0000
0000
0100
,
1000
0000
1000
0010
1000
0000
0000
0001
1000
0000
1000
0001
1000
0000
0000
0000
,
1002
0103
0220
0300
,
2030
0000
0000
0000
0000
0000
3010
0000
0100
0000
0001
0100
0001
1000
0100
0010
,
0001
0010
0001
0010
0001
0100
0010
0000
,
1000
0010
1000
0010
1000
0100
0010
0000
,
0100
1000
0100
0000
0010
0001
0010
0000
,
1000
0010
0100
0010
1000
0001
0100
0000
,
0001
0010
0100
1000
0100
1000
0001
0000
,
1000
0010
0100
0001
0100
0001
1000
0000
,
0001
0100
0001
0000
1000
0010
1000
0000
,
0010
0100
0010
1000
0001
1000
0100
0000
,
1100
0100
1000
0010
0100
0010
1000
0001
,
0010
0001
0000
0000
0100
1000
0010
0000
,
0100
1000
0001
0010
0001
0100
1000
0100
,
0010
1000
0000
0000
0010
0001
0100
0000
,
1000
0010
0100
0001
0010
0001
0100
0001
,
1000
0010
0000
0000
0100
1000
0001
0000
,
0010
1000
0100
0000
0010
0001
0100
0000
,
1000
0000
0001
0000
0001
0010
0100
0000
,
1001
0100
0001
0100
0010
0100
0001
1000
,
0010
0100
1000
0000
0010
0001
0100
0000
,
0100
0001
0010
0001
1000
0100
0010
0001
,
1000
0100
0000
0000
0010
1000
0100
0000
,
1000
0100
0010
1000
0010
0001
0010
0001
,
0100
0010
1000
0000
0001
0000
1000
0000
,
1010
1000
0100
0000
0011
0001
0100
0000
,
0010
1000
0100
0010
0001
0100
0010
0100
,
0002
0000
0010
0000
0103
0010
0100
0000
,
0010
1000
0010
0000
1000
0100
1000
0000
,
0200
0000
0001
0000
0310
0001
0010
0000
,
1000
0010
1000
0000
1000
0010
0100
0000
,
0101
0100
0001
0000
0010
0100
0010
0000
,
0100
1000
0100
0000
0001
1000
0010
0000
,
2000
0000
0100
0000
3001
0010
0001
0000
,
1000
0010
1000
0000
0010
0001
0100
0000
,
1001
0100
0000
0110
0000
1010
0000
1100
,
0000
2002
0000
0000
0000
0000
0000
3003
,
0001
1000
0000
0110
0000
0011
0000
0101
,
0000
2002
0000
0000
0000
0000
0000
3003
,
1001
0100
0000
0010
0000
0200
0000
0300
,
1001
0001
0000
0010
0000
0022
0000
0033
,
1001
0100
0000
0001
0100
1000
0000
0020
,
0000
0000
0000
0000
0000
0000
0000
0030
,
0010
0100
0001
0100
0010
0100
0001
0100
,
1000
0010
0100
0000
1000
0100
0001
0000
,
0010
0100
1000
0010
0100
0001
1000
0010
,
0100
0001
0010
0000
0010
0001
1000
0000
,
0101
0100
0001
0100
0001
0010
0001
0010
,
1000
0010
1000
0000
1000
0001
0100
0000
,
1001
0100
0001
0000
1001
0100
1000
0000
,
0011
0000
1001
0000
2100
0000
3010
1000
,
0100
0010
0001
1000
0100
1000
0001
0010
,
1000
0000
1000
0010
0001
0000
0101
0001
,
0010
0000
1100
1000
0010
0000
1010
1000
,
0001
0100
0001
0000
0100
1000
0001
1000
,
0100
0010
0001
0010
0100
1000
0001
0100
,
0010
0100
0001
1000
0100
0001
1000
0001
,
0100
1000
0001
1000
0100
0000
0110
0000
,
1100
0011
2002
0000
,
0000
0000
0000
3003
,
0000
0000
0000
0000
;

//---------------dance-single - ----------------
#NOTES:
     dance-single:
     :
     Challenge:
     16:
     :
0000
0000
0000
0000
,
0000
0000
0000
0000
,
0000
0000
0000
0000
,
0000
0000
0000
0000
,
0011
0000
0010
0001
1000
0100
1000
0001
1100
0000
0100
0010
0001
0100
0001
1000
,
0101
0000
1000
0010
0100
0001
1000
0100
1010
0000
1000
0001
0010
0001
1000
0100
,
0011
0000
0100
0010
0100
0001
1000
0010
1100
0000
1000
0001
0010
0100
1000
0001
,
0101
0000
0010
0100
0010
0001
1000
0001
1010
0000
0100
0010
1000
0100
0010
0001
,
1002
0013
0210
1300
,
1001
0000
0000
0000
0110
0000
0000
0000
0000
0000
0000
0000
0002
0000
0000
0000
2003
0000
0000
0000
3002
0000
2003
0000
3002
0000
2003
0000
3002
2003
3002
2003
,
3001
0100
0010
0100
1000
0100
0010
0100
,
1000
0100
0001
0100
0010
0100
1000
0100
,
0010
0100
1000
0100
0010
0100
1000
0100
,
0001
0100
0010
0100
0001
0100
1000
0100
,
0001
0000
0010
0100
0010
0000
0001
0000
1000
0000
0100
0000
1000
0000
0001
0000
,
0100
0000
0010
1000
0010
0000
0100
0000
0001
0000
0010
0000
0001
0000
1000
0000
,
0100
0000
0010
0001
0010
0000
0100
0000
1000
0000
0001
0000
1000
0000
0010
0000
,
0100
0000
0001
1000
0001
0000
0010
0000
0100
0000
0010
0000
0001
0000
1000
0000
,
0010
1000
0100
0010
0001
0100
0001
1000
,
0100
0000
0010
0000
0001
0000
0000
0000
1010
0000
0100
0000
1000
0000
0000
0001
,
1000
0010
0100
1000
0100
0010
0100
0001
,
0010
0000
0100
0000
1000
0000
0000
0000
0011
0000
0001
0000
0100
0000
0000
0010
,
1000
0001
0010
1000
0010
0100
0010
0001
,
0100
0000
0010
0000
1000
0000
0000
0000
0101
0000
0010
0000
0100
0000
0000
0001
,
0010
0100
1000
0010
1000
0001
0100
0010
,
1000
0000
0100
0000
0001
0000
0000
0000
1001
0000
0010
0000
0100
0001
0100
0001
,
1000
0100
0001
0100
0010
1000
0010
0100
,
1000
0000
0010
0000
0001
0000
0000
0000
0110
0000
0001
0000
1000
0000
0000
0010
,
1000
0001
0010
0100
0001
0100
0010
0100
,
1000
0000
0010
0000
0100
0000
0000
0000
0101
0000
0001
0000
1000
0000
0000
0010
,
0100
0001
0010
0100
1000
0010
1000
0001
,
0100
0000
0010
0000
1000
0000
0001
0000
0010
0100
0010
0100
1000
0001
1000
0001
,
0100
0000
0001
0010
0001
0000
1000
0100
1000
0000
0010
0100
0010
1000
0001
0100
,
0010
0000
1000
0001
1000
0100
1000
0010
0100
0001
0010
0001
1000
0100
1000
0001
,
0010
0001
0100
0010
0000
1000
0100
0001
,
0000
0000
0010
0000
0100
0000
0000
1000
0001
0000
0100
0000
0010
0000
0000
1000
,
0100
0010
0001
0100
0000
0001
0010
1000
,
0000
0000
0100
0000
0010
0000
0000
0000
0001
0000
1000
0000
0010
0000
0000
0100
,
0010
1000
0100
0010
0001
0100
0001
1000
,
0000
0010
0100
0000
0001
1000
0100
0000
,
0010
0001
1000
0010
0000
0100
0010
1000
,
0000
0000
0100
0000
0010
0000
0000
0000
0001
0000
0100
0000
0010
0000
0000
1000
,
0100
0010
0000
0011
0000
1100
0000
1001
,
0000
2020
0000
0000
0000
0000
0030
0000
,
3001
1000
0000
0110
0000
0011
0000
1100
,
0000
0202
0000
0000
0000
0000
0003
0000
,
0310
0000
1000
0000
0000
0000
1100
0000
0000
0000
1000
0010
0100
0001
0100
0010
,
1000
0000
0001
0000
0000
0000
0011
0000
0000
0000
0100
0001
0010
0001
1000
0100
,
0010
0001
0100
0010
1000
0100
1000
0001
,
0010
0100
0010
0100
0001
0100
0001
0100
1000
0001
1000
0010
1000
0001
1000
0010
,
0100
0000
0001
0010
0001
0000
0100
0000
0010
0000
1000
0000
0100
0000
0010
0000
,
0001
0000
0100
0010
1000
0000
0100
0000
1000
0000
0001
0000
0010
0000
0001
0100
,
0001
0000
0010
0100
1000
0000
0010
0000
1000
0000
0001
0000
0100
0000
0010
0000
,
0100
0000
0001
1000
0001
0000
0010
0000
1000
0000
0010
0000
0100
0000
1000
0001
,
0100
0000
0001
0010
0100
0000
1000
0000
0010
0000
0100
0000
1000
0000
0100
0000
,
0001
0000
0010
0001
1000
0000
0010
0000
0100
0000
0001
1000
0100
0000
0010
0000
,
1001
0100
0010
1000
0110
0001
1000
0100
,
0010
0000
0001
1000
0100
0000
1000
0001
0200
0000
0000
0000
0310
0000
1000
0001
,
0010
0000
0100
0000
1000
0000
0010
0000
0100
0000
0001
0000
0010
0000
0001
1000
,
0100
0000
0010
0000
0001
0100
0010
0000
1000
0000
0100
0000
0001
0000
0100
0010
,
0100
0000
1000
0000
0001
0000
0100
0000
0010
0000
1000
0000
0100
0000
1000
0001
,
1000
0000
0010
0100
0002
0000
0000
0000
1003
0010
1000
0010
1000
0000
0001
0000
,
0010
0000
0100
0000
0001
0000
0100
0000
1000
0000
0010
0100
0001
0000
0010
0000
,
0100
1000
0001
0000
0010
0100
1000
0000
0010
0000
1000
0100
1000
0000
0001
0100
,
0001
0000
1000
0010
1000
0000
0001
0010
0001
0000
0100
0010
1000
0000
0100
0010
,
0001
0000
1000
0001
0100
0000
0010
2000
0002
0000
0000
0000
0000
0000
0000
0000
,
0000
0000
0000
0000
,
0000
0000
0000
0000
,
0000
0000
3003
0000
;

//---------------dance-double - ----------------
#NOTES:
     dance-double:
     :
     Easy:
     6:
     :
00000000
00000000
00000000
00000000
,
00000000
00000000
00000000
00000000
,
00000000
00000000
00000000
00000000
,
00000000
00000000
00000000
00000000
,
00001010
00000001
00000101
00001000
,
00001100
00000010
00000011
00000001
,
00000101
00000100
00001100
00001000
,
00011000
00010000
00011000
00001000
,
00101000
00000000
00110000
00000000
,
01010000
00000000
00000000
00000000
,
10010000
00000000
01000000
00000000
,
00010000
00000000
00001000
00010000
,
00000100
00000000
00001000
00000000
,
00000100
00000000
00000010
00000001
,
00001000
00000000
00000100
00000000
,
00001000
00000000
00000001
00000100
,
00001000
00000000
00010000
00000000
,
01000000
10000000
00100000
01000000
,
00010000
00000000
00100000
00000000
,
01000000
00000000
00010000
00001000
,
00000100
00000000
00000001
00000000
,
00001000
00000000
00000100
00000010
,
00001000
00000000
00010000
00000000
,
00000100
00000000
00010000
00100000
,
00100000
00000000
00010000
00000000
,
00001000
00000000
00010000
00010000
,
01000000
10000000
10000000
00100000
,
00100000
00010000
00001000
00001000
,
00010000
00000000
00000010
00000000
,
00001000
00001000
00000001
00000001
,
00000001
00000000
00000100
00000000
,
00001000
00000000
00010000
00100000
,
10000000
01000000
00010000
00001000
,
00010000
00001000
00000010
00000001
,
00000100
00000000
00000000
00000000
,
00000000
00000000
00000001
00000100
,
00002000
00000000
00000000
00000000
,
00000000
00000000
00013000
00001000
,
00200000
00000000
00000000
00000000
,
00000000
00000000
01300000
10000000
,
00200000
00000000
00000000
00000000
,
00000000
00000000
01300000
00001000
,
00020000
00000000
00000000
00000000
,
00002000
00000000
00000000
00033000
,
00020000
00000000
00000000
00000000
,
00000200
00000000
00000000
00000000
00000000
00030300
00000000
00000000
,
00000020
00000000
00000000
00000030
,
00000002
00000000
00000000
00000003
,
00002001
00000000
00003002
00000000
,
00000203
00000000
00000000
00000300
,
00001000
00010000
00100000
00100000
,
10000000
10000000
02000000
03000000
,
00010000
00010000
00001000
00001000
,
00010000
00010000
00000020
00000030
,
00001000
00001000
00000001
00000001
,
00000010
00000010
00002000
00013000
,
00200000
00300000
02000000
03000000
,
00010000
10010000
20000000
31000000
,
00000000
01000000
01000000
00010000
,
00000000
00001000
00001000
00010000
,
00000000
00000010
00000000
00001000
,
00001001
00001002
00000103
00000000
,
00000100
00000001
00000100
00000000
,
00001000
00000001
00001001
00000000
,
00001100
00000000
00010000
00001000
,
00100000
00010000
20020000
00000000
,
00000000
00000000
00000000
30030000
,
00000000
00000000
00000000
00000000
;

//---------------dance-double - ----------------
#NOTES:
     dance-double:
     :
     Medium:
     9:
     :
00000000
00000000
00000000
00000000
,
00000000
00000000
00000000
00000000
,
00000000
00000000
00000000
00000000
,
00000000
00000000
00000000
00000000
,
00001010
00000100
00010100
00001000
,
00011000
00010000
00101000
00010000
,
01001000
00010000
10100000
10000000
,
11000000
01000000
00110000
01000000
,
01100000
00000000
11000000
00000000
,
00020000
00000000
00000000
00030000
,
00010000
00001000
00000100
00000000
,
00000001
00000000
00000001
00000000
00000010
00000100
00001000
00000000
,
00000001
00000100
00001000
00000000
,
00010000
00000000
00010000
00000000
00001000
00010000
01000000
00000000
,
10000000
00100000
01000000
00000000
,
00010000
00000000
00010000
00000000
10000000
01000000
00010000
00000000
,
00001000
00010000
00000100
00000000
,
00001000
00000001
00000100
00000010
,
00000100
00000001
00000100
00000000
00000010
00000000
00010000
00000000
,
00001000
00000000
00010000
00000000
00001000
00010000
00100000
00000000
,
10000000
00100000
10000000
00000000
01000000
00000000
01000000
00000000
,
00100000
00000000
00001000
00000000
00010000
00000010
00001000
00000000
,
00000100
00010000
00001000
00000000
00000010
00000000
00000010
00000000
,
00000001
00000000
00000100
00000000
00000010
00001000
00000010
00000000
,
00001000
00000100
00001000
00000000
00000100
00000000
00001000
00000000
,
00000100
00000000
00010000
00000000
00001000
00010000
00100000
00000000
,
10000000
00010000
00000000
00100000
00000000
01000000
00000000
00100000
,
00000000
00000000
00010000
00000000
10000000
00100000
01000000
00000000
,
00010000
10000000
00000000
01000000
00000000
00010000
00000000
00001000
,
00000000
00000000
00000010
00000000
00000001
00000010
00000100
00000000
,
00001000
00000010
00000000
00000100
00000000
00000001
00000000
00000100
,
00000000
00000000
00001000
00000000
00010000
00100000
01000000
00000000
,
10100000
00000000
01010000
00000000
,
01001000
00010000
00101000
00010000
,
00110000
00000000
00001000
00000000
,
00010000
00000000
00000000
00000000
00000010
00001000
00000100
00000000
,
00001001
00000000
00000100
00000000
,
00001000
00000000
00000000
00000000
00010000
00001000
00010000
00000000
,
00011000
00000000
00100000
00000000
,
00010000
00000000
00000000
00000000
01000000
10000000
00100000
00000000
,
00010000
00000000
00001000
00000000
,
00000100
00000000
00000000
00000000
00000001
00001000
00000100
00000000
,
00000021
00000000
00000100
00000000
,
00000032
00000000
00000000
00000003
,
00000201
00000000
00000010
00000000
,
00002300
00000000
00000000
00003000
,
00011000
00000000
00100000
00000000
,
01100000
00000000
10000000
00000000
,
00110000
00000000
11000000
00000000
,
00200000
00000000
00000000
00300000
,
00001000
00010000
00001000
00000000
00000010
00000000
00000001
00000000
,
00000100
00000000
00001000
00000000
00010000
00001000
00001000
00000000
,
00010000
00001000
00010000
00000000
00100000
00000000
10000000
00000000
,
01000000
00000000
00010000
00000000
00001000
00010000
00010000
00000000
,
00001000
00010000
00001000
00000000
00100000
00000000
00010000
00000000
,
10000000
00000000
01000000
00000000
00010000
00001000
00000100
00000000
,
00000010
00001000
00000101
00000001
,
00001000
00001001
00000010
00000110
,
00000001
00000100
00001000
00010000
,
01000000
00000000
10000000
00100000
01000000
00000000
00010000
00100000
,
01000000
00000000
10000000
01000000
00010000
00000000
00010000
00001000
,
00000100
00000000
00001001
00000000
00001000
00000001
00000100
00000000
,
00001000
00010000
00001000
00000000
00100000
00010000
01000000
00000000
,
00100000
10000000
01000000
00000000
01000000
00010000
01000000
00000000
,
00010000
00001000
00000010
00000000
00000001
00000100
00000001
00000000
,
00000010
00001000
00010000
00001000
00020000
00000000
00000000
00000000
,
00000000
00000000
00000000
00030000
,
00000000
00000000
00000000
00000000
;

//---------------dance-double - ----------------
#NOTES:
     dance-double:
     :
     Hard:
     13:
     :
00000000
00000000
00000000
00000000
,
00000000
00000000
00000000
00000000
,
00000000
00000000
00000000
00000000
,
00000000
00000000
00000000
00000000
,
00000101
00000000
00000100
00000001
00000100
00000000
00000000
00000010
00001000
00000000
00010000
00001000
00010000
00000000
00000000
00001000
,
00010000
00000000
00100000
01000000
00100000
00000000
00000000
00010000
01000000
00000000
10000000
01000000
10000000
00000000
00000000
00100000
,
01000000
00000000
01000000
00010000
01000000
00000000
00000000
00010000
00100000
00000000
00100000
00001000
00100000
00000000
00000000
00001000
,
00010000
00000000
00010000
00000100
00010000
00000000
00000000
00000100
00001000
00000000
00000010
00000001
00000010
00000000
00000000
00000000
,
00000002
00000103
00002000
00000000
,
00203000
00000000
00000000
00000000
00000000
00000000
00310000
00000000
01000000
00000000
00100000
01000000
00100000
10000000
00010000
10000000
,
00100000
00010000
00001000
00000100
00000001
00000010
00000001
00000000
,
00001000
00000001
00000100
00001000
00010000
00100000
10000000
00000000
,
01000000
00010000
00001000
00000000
00010000
00001000
00000010
00000000
,
00001000
00010000
01000000
00010000
00001000
00000100
00000010
00000000
,
00000100
00000001
00001000
00000100
00010000
00000100
00001000
00000000
,
00000010
00010000
00001000
01000000
00010000
00100000
01000000
00000000
,
10000000
00010000
01000000
00000000
00001000
01000000
00010000
00000000
,
00100000
00001000
00010000
00000100
00000010
00001000
00000010
00000000
,
00000100
00000010
00000001
00002000
00000000
00003020
00000000
00020030
,
00000000
00032000
00000000
00003000
00001000
01000000
00010000
00000000
,
01000000
00100000
10000000
00020000
00000000
00230000
00000000
00302000
,
00000000
00023000
00000000
00030000
00010000
00000100
00001000
00000000
,
00000100
00000010
00000001
00001000
00000000
00001010
00000000
00010010
,
00000000
00021000
00000000
00000000
00031000
00010000
00100000
00000000
,
01000000
00100000
10000000
00010000
00000000
00110000
00000000
00101000
,
00000000
00012000
00000000
00000000
00013000
00001000
00000010
00000000
,
00000100
00001000
00000010
00010000
00000100
00010000
00001000
00010000
,
00000000
00020000
00000000
00000000
00130000
10000000
01000000
00000000
,
00100000
00010000
01000000
00001000
00100000
00001000
00010000
00001000
,
00000100
00002000
00000000
00000000
00003100
00000001
00000010
00000000
,
00000011
00000000
00000100
00010000
00001000
00100000
00010000
00000000
,
10100000
00000000
01000000
00001000
00010000
00000010
00001000
00000000
,
00001001
00001000
00000100
00000000
00001100
00000100
00010000
00000000
,
00001000
00010000
00001000
00100000
00010000
01000000
00100000
00000000
,
10000000
02000000
00000000
00010000
00000000
10000000
00000000
00020000
,
03000000
00000000
00030000
00000000
00010000
00001000
00000010
00000000
,
00000001
00000200
00000000
00001000
00000000
00000001
00000000
00002000
,
00000300
00000000
00003000
00000000
00001000
00010000
00100000
00000000
,
10000000
00200000
00000000
10000000
00000000
01000000
00000000
00020000
,
00300000
00000000
00030000
00000000
00010000
00000100
00001000
00000000
,
00000001
00000020
00000000
00000001
00000000
00000100
00000000
00002000
,
00000030
00000000
00003000
00000000
00001000
01000000
00010000
00000000
,
10010000
01000000
00000000
01100000
00000000
00110000
00000000
00101000
,
00000000
00022000
00000000
00000000
00000000
00000000
00033000
00000000
,
00001000
00010000
00000000
00010100
00000000
00001100
00000000
00000110
,
00000000
00000022
00000000
00000000
00000000
00000000
00000033
00000000
,
00001001
00000100
00000000
00002000
00000000
00003020
00000000
00000030
,
00011000
00001000
00000000
00200000
00000000
00320000
00000000
00030000
,
10010000
01000000
00000000
10000000
00010000
01000000
00000000
00100000
,
00000000
00000000
00000000
00000000
,
00010000
00000100
00001000
00000010
00010000
00000100
00010000
00001000
,
00100000
00010000
10000000
00000000
00100000
00001000
00010000
00000000
,
00001000
00100000
00010000
01000000
00001000
00100000
00001000
00010000
,
00000100
00001000
00000010
00000000
00001000
00000100
00000010
00000000
,
00000010
00001000
00010000
00100000
10000000
01000000
00010000
00001000
,
00010000
00001000
00000100
00000000
00000010
00000100
00001000
00000000
,
00011000
00001000
00100000
00000000
00011000
00010000
00000010
00000000
,
00010010
00000000
00011000
00000000
00020100
00000000
00031000
00000100
,
00000010
00000100
00001000
00010000
00000010
00010000
00001000
00000100
,
00000001
00000000
00000001
00000100
00001000
00000000
00011000
00010000
,
00000010
00000000
00011000
00001000
00100000
00000000
00110000
00100000
,
01000000
10000000
01000000
00000000
00001000
00000010
00000001
00000100
,
00001000
00000100
00000010
00000001
00000010
00001000
00000100
00010000
,
00001000
00100000
00010000
10000000
00010000
01000000
00100000
10000000
,
01000000
00010000
00001000
00010000
00000100
00000000
00000110
00000000
,
00000011
00001100
00002002
00000000
,
00000000
00000000
00000000
00003003
,
00000000
00000000
00000000
00000000
;
