#TITLE:SCREAM SQUAD;
#ARTIST:CALF;
#BANNER:SCREAM SQUAD-bn.png;
#BACKGROUND:SCREAM SQUAD-bg.png;
#JACKET:SCREAM SQUAD-jacket.png;
#MUSIC:SCREAM SQUAD.ogg;
#SAMPLESTART:34.909;
#SAMPLELENGTH:20;
#DISPLAYBPM:110:440;
#BPMS:0=110,28=220,36=440,164=220,196=440,220=220,224=440,240=220,248=440,304=220,308=440,436=110,440=220,472=440;
#BGCHANGES:;

//---------------dance-single - ----------------
#NOTES:
     dance-single:
     :
     Beginner:
     7:
     :
0000
0000
0000
0000
,
0000
0000
0000
0000
,
0000
0000
0000
0000
,
0000
0000
0000
0000
,
0001
0001
0001
0000
,
1000
1000
1000
0000
,
0110
0000
1001
0000
,
1000
0000
0001
0000
,
0100
0000
0100
0000
,
0001
0000
0001
0000
,
1000
0000
1000
0000
,
0010
0000
0000
0010
,
0000
0000
0010
0000
,
0000
0000
0100
0000
,
0000
0000
0100
0000
,
0000
0000
0010
0000
,
0000
0000
0010
0000
,
1000
0000
0000
0000
,
1001
0000
0000
0000
,
0010
0000
0000
0000
,
0110
0000
0000
0000
,
0000
0000
0001
0000
,
0001
0000
0001
0000
,
0100
0000
0000
0000
,
0010
0000
0000
0000
,
1000
0000
1000
0000
,
1000
0000
0000
0000
,
0001
0000
0001
0000
,
0001
0000
0000
0000
,
0000
0000
1000
0000
,
0000
0000
0010
0000
,
0000
0000
0100
0000
,
0000
0000
0001
0000
,
0010
0000
0010
0000
,
0010
0000
0000
0000
,
0100
0000
0100
0000
,
0100
0000
0000
0000
,
1000
0000
0000
0000
,
0010
0000
0000
0000
,
0000
0100
0000
0000
,
0001
0000
0000
0000
,
2002
0000
3003
0000
,
0220
0000
0330
0000
,
2002
0000
3003
0000
,
0220
0000
0330
0000
,
0010
0000
0010
0000
,
0100
0000
0010
0000
,
0001
0000
1000
0000
,
0010
0000
0000
0100
,
0001
0000
0000
0000
,
0001
0000
0000
0000
,
1000
0000
0000
0000
,
1000
0000
0000
0000
,
0001
0000
0000
0000
,
1000
0000
0000
0000
,
0010
0010
0010
0010
,
0010
0000
0000
0000
,
0100
0000
0000
0000
,
0001
0000
0000
0000
,
1000
0000
0000
0000
,
0002
0000
0000
0003
,
2000
0000
0000
3000
,
0000
0000
0010
0000
,
0000
0000
1000
0000
,
0000
0000
0100
0000
,
0000
0000
0010
0000
,
0000
0000
0001
0000
,
0000
0000
0100
0000
,
0000
0000
0001
0000
,
0000
0000
0010
0000
,
0000
0000
0100
0000
,
0000
0000
1000
0000
,
0000
0000
0010
0000
,
0000
0000
0100
0000
,
0000
0000
0001
0000
,
0000
0000
0010
0000
,
0000
1000
0000
0001
,
0000
0000
0000
0000
,
0000
0000
0000
0000
0000
0000
0000
1000
,
0000
0000
0000
0000
,
0000
0000
0000
0000
0000
0000
0000
1000
,
0000
0000
0000
0000
,
0000
0000
0000
0000
0000
0000
0000
0100
,
0000
0000
0000
0000
,
0000
0000
0000
0000
0000
0000
0000
0100
,
0000
0000
0000
0000
,
0000
0000
0000
0000
0000
0000
0000
0010
,
0000
0000
0000
0000
,
0000
0000
0000
0000
0000
0000
0000
0010
,
0000
0000
0000
0000
,
0000
0000
0000
0000
0000
0000
0000
0001
,
0000
0000
0000
0000
,
0000
0000
0000
0000
0000
0000
0000
0001
,
0000
0000
0000
0000
,
0000
0000
0000
0000
0000
0000
0000
0010
,
0000
0000
0000
0000
,
0000
0000
0000
0000
0000
0000
0000
0010
,
0000
0000
0000
0000
,
0000
0000
0000
0000
0000
0000
0000
0100
,
0000
0000
0000
0000
,
0000
0000
0000
0000
0000
0000
0000
0100
,
0000
0000
0000
0000
,
0000
0000
0000
0000
0000
0000
0000
1000
,
0000
0000
0000
0000
,
0000
0000
0000
0000
0000
0000
0000
0001
,
0000
0000
0000
0000
,
0000
0000
0000
0000
0000
0000
0000
1000
,
0000
0000
0000
0000
,
0000
0000
0000
0000
0000
0000
0000
0001
,
0000
0000
0000
0000
,
0220
0000
0330
0000
,
2002
0000
3003
0000
,
0220
0000
0330
0000
,
2002
0000
3003
0000
,
1000
0000
1000
0000
,
0010
0000
0100
0000
,
0001
0000
1000
0000
,
0100
0000
0000
0010
,
0001
0000
0001
0000
,
1000
0000
1000
0000
,
0010
0000
0000
0010
,
0000
0000
0010
0000
,
0000
0000
1000
0000
,
0000
0000
0100
0000
,
0000
0000
1000
0000
,
0000
0000
0100
0000
,
0010
0000
0000
0000
,
0110
0000
0000
0000
,
0001
0000
0000
0000
,
1001
0000
0000
0000
,
0000
0000
1000
0000
,
1000
0000
1000
0000
,
0000
0001
0000
0000
,
0100
0000
0000
0000
,
0001
0000
0001
0000
,
0001
0000
0000
0000
,
1000
0000
1000
0000
,
1000
0000
0000
0000
,
0010
0000
0000
0000
,
1000
0000
0000
0000
,
0001
0000
0000
0000
,
0100
0000
0000
0000
,
0001
0000
0000
0000
,
0110
0000
0000
0000
,
1000
0000
0000
0000
,
1001
0000
0000
0000
,
0000
0000
0100
0000
,
0100
0000
0100
0000
,
0000
1000
0000
0000
,
0001
0000
0001
0000
,
2002
0000
0000
0000
,
0000
0000
0000
0000
,
0000
0000
0000
3003
;

//---------------dance-single - ----------------
#NOTES:
     dance-single:
     :
     Easy:
     10:
     :
0000
0000
0000
0000
,
0000
0000
0000
0000
,
0000
0000
0000
0000
,
0000
0000
0000
0000
,
0010
0100
0001
0001
,
0010
0100
1000
1000
,
0001
0011
1000
1010
,
0001
0001
1000
1000
,
0010
0100
0010
0100
,
0000
0001
0000
0010
,
0000
0100
0000
1000
,
0000
0010
0000
0100
,
0000
0001
0000
1000
,
0001
0000
0100
0000
,
0010
0000
1000
0000
,
0000
0100
0000
0010
,
0000
0001
0000
1000
,
0000
0010
0000
0010
,
0200
0000
0300
0000
,
0001
1000
0000
0001
,
2000
0000
3000
0000
,
0000
0100
0010
0001
,
1000
0000
1001
0000
,
0000
0001
0000
1000
,
0020
0030
0200
0300
,
0001
0000
0001
0000
,
1000
0000
1000
0000
,
0010
0000
1000
0000
,
0001
0100
0000
0000
,
0010
0000
0010
0000
,
1000
0001
0000
0000
,
0101
0000
0000
1000
,
0100
0000
0000
0000
,
1000
0000
1000
0000
,
0010
0000
0010
0000
,
1000
0000
0001
0000
,
0100
0010
0000
0000
,
0000
1000
0000
0001
,
0000
0010
0000
0100
,
0000
0010
0000
0001
,
0000
1000
0100
0000
,
2100
0000
0000
0002
0000
0000
3003
0000
,
0012
0000
0000
0203
0000
0310
0000
0000
,
2010
0000
0000
3002
0000
1003
0000
0000
,
0201
0000
0000
0320
0000
0130
0000
0000
,
0120
0000
0000
2030
0000
3002
0000
1003
,
0010
0010
0100
0100
,
1000
0001
1000
0001
,
1000
0001
0101
1100
,
0001
0000
0010
0000
,
0001
0000
0100
0000
,
0010
0000
1000
0000
,
0001
0000
0100
0000
,
0001
0000
0010
0000
,
0100
0000
1000
0000
,
1001
0110
1001
0110
,
1001
0000
0010
0000
,
1000
0000
0001
0000
,
0010
0000
0100
0000
,
1000
0000
0010
0000
,
2000
0001
0001
0001
,
0010
0010
0100
3100
,
0000
0000
1000
0000
,
0001
0000
0010
0000
,
0000
0000
0001
0000
,
0100
0000
0010
0000
,
0000
0000
1000
0000
,
0100
0000
0001
0000
,
0000
0000
0010
0000
,
0001
0000
1000
0000
,
0000
0000
0010
0000
,
0100
0000
0001
0000
,
0000
0000
1000
0000
,
0001
0000
0010
0000
,
0000
0000
0001
0000
,
0100
0000
1000
0000
,
0001
0011
1000
1010
,
0000
0000
0001
0000
,
1000
0000
0100
0010
,
0000
0000
0100
0000
,
0010
0000
0001
1000
,
0000
0000
0010
0000
,
1000
0000
0001
0100
,
0000
0000
0001
0000
,
0010
0000
0100
1000
,
0000
0000
1000
0000
,
0100
0000
0010
0001
,
0000
0000
0100
0000
,
0001
0000
1000
0010
,
0000
0000
1000
0000
,
0010
0000
1000
0010
,
0000
0000
0100
0000
,
0001
0000
0100
0001
,
0000
0000
0010
0000
,
0001
1000
0001
1000
,
0000
0000
0010
0000
,
0001
0100
0001
0100
,
0000
0000
0001
0000
,
1000
0100
1000
0100
,
0000
0000
0010
0000
,
0100
1000
0100
1000
,
0000
0000
0100
0000
,
1000
0001
1000
0001
,
0000
0000
1000
0000
,
0010
0100
0010
0100
,
0000
0000
0001
0000
,
0010
0001
0010
0001
,
0000
0000
1000
0000
,
0100
1000
0100
1000
,
0002
0000
0000
0033
,
0012
0000
0000
0200
0000
0000
0303
0000
,
2010
0000
0000
3002
0000
1003
0000
0000
,
1200
0000
0000
2300
0000
3002
0000
1003
,
0200
0000
0000
0320
0000
0031
0000
0000
,
2001
0000
0000
3020
0000
0230
0000
0301
,
1000
1000
0001
0001
,
0100
0010
0100
0010
,
1000
0001
0011
1010
,
0100
0000
0010
0000
,
0001
0000
1000
0000
,
0000
0010
0000
0100
,
0000
0010
0000
1000
,
0001
0000
0010
0000
,
0001
0000
1000
0100
,
0000
0010
0000
0001
,
0000
0100
0000
1000
,
0010
1000
0001
1000
,
0002
0000
0003
0000
,
1000
0100
0000
1000
,
0200
0000
0000
0300
,
1000
0010
1000
0010
,
0100
0000
0110
0000
,
0000
0001
0000
0010
,
0001
1000
0100
0000
,
1000
0000
0100
0000
,
0010
0000
0001
0000
,
0100
0000
0100
0000
,
0001
1000
0000
0000
,
0010
0000
0101
0000
,
1000
0001
0000
0000
,
1000
0000
0000
1000
,
0100
0000
0000
0000
,
0010
0000
0010
0000
,
0001
0000
0001
0000
,
0100
0000
0100
0000
,
0010
1000
0000
0000
,
0001
0010
0001
1000
,
0001
0000
0101
0000
,
0000
1010
0000
1000
,
0001
1000
0010
0100
,
0002
0000
0000
0000
,
0000
0000
0000
0000
,
0000
0000
0000
0003
;

//---------------dance-single - ----------------
#NOTES:
     dance-single:
     :
     Medium:
     14:
     :
0000
0000
0000
0000
,
0000
0000
0000
0000
,
0000
0000
0000
0000
,
0000
0000
0000
0000
,
1000
0100
0010
0001
1001
0000
1001
0000
,
0001
0010
0100
1000
1001
0000
1001
0000
,
1000
0001
1000
0001
1000
0001
0100
0010
0100
0010
0100
0010
,
1000
0100
1000
0000
0001
0100
0001
0000
,
2000
3020
0230
0302
,
0013
0100
0010
0001
,
0100
0010
1000
0001
,
0000
0011
0000
1100
,
0000
0101
0000
1010
,
0001
0000
0100
0010
,
1000
0001
1000
0100
,
0000
1100
0000
0011
,
1000
0001
0100
0001
,
0010
0002
1003
0020
,
2030
0100
3100
0000
,
0010
0010
0000
0001
,
0200
0010
0310
0000
,
1000
0000
0001
0000
0010
0000
0100
1000
,
0100
0000
0000
1000
0001
0000
0000
0000
,
0010
0011
0000
1000
,
0010
0100
0110
0000
,
0001
0001
0010
0010
,
0100
0100
1000
1000
,
0010
0010
0100
0100
,
0001
1000
0100
0000
,
1000
0000
1000
0001
,
0010
0100
1000
0000
,
1010
0000
0010
0100
,
1001
0000
0001
0000
,
1000
0100
0010
0001
,
0010
0100
1000
0000
,
0001
0010
0100
1000
,
0100
0010
0001
0000
,
1000
0000
0010
0000
0100
0000
0001
1000
,
0001
0000
0000
0010
0100
0000
0000
0000
,
1000
0010
1000
0010
,
0200
0001
0002
0303
,
2002
0000
3003
2100
0000
0001
3001
0000
,
0022
0000
0033
0102
0000
1000
1003
0000
,
0010
0100
0010
2000
0000
3002
0000
1003
,
0100
0010
0100
0020
0000
0032
0003
0000
,
1000
0010
0100
0002
0000
0203
0000
0310
,
1010
0000
0000
0000
0101
0000
0000
0000
1100
0000
0000
0000
1001
0000
0000
0010
,
1000
0000
0110
0000
1001
0100
0010
0100
,
1000
0000
1000
0000
2000
0000
0000
3020
0000
0000
0100
0000
0130
0000
0000
0000
,
0001
0010
0100
1000
,
0010
0100
0001
1000
,
0010
1000
0100
0010
,
0001
0100
0001
1000
,
0010
0010
0100
0100
,
1000
0001
1000
0001
,
0011
1010
1100
0101
,
1000
0010
0100
0001
,
0010
0100
1000
0001
,
0010
0001
0100
0010
,
1000
0001
1000
0100
,
1000
0001
1000
0001
1000
0001
1000
0001
,
0100
0010
0100
0010
0100
0010
0100
0010
,
1000
0000
0000
1000
0002
0000
0003
0000
,
0010
0000
0000
0010
0200
0000
0300
0000
,
0010
0000
0000
0010
0002
0000
0003
0000
,
0100
0000
0000
0100
0020
0000
0030
0000
,
1000
0000
0000
0001
0200
0000
0300
0000
,
0001
0000
0000
0010
0200
0000
0300
0000
,
0010
0000
0000
0001
2000
0000
3000
0000
,
0100
0000
0000
1000
0002
0000
0003
0000
,
2000
0010
3100
0000
,
0002
1000
0013
0000
,
0200
1000
0301
0000
,
0020
0001
0130
0000
,
0100
0100
0100
0000
,
0010
0010
0010
0000
,
1000
1000
1000
0000
0001
0001
0001
0000
,
0000
0000
0001
0100
,
0010
0000
1000
0000
0100
0000
0000
0010
,
0000
0000
0001
1000
,
0010
0000
1000
0000
0100
0000
0000
0010
,
0000
0000
0001
1000
,
0100
0000
0010
0000
0001
0000
0000
1000
,
0000
0000
0010
1000
,
0001
0000
0010
0000
0100
0000
0000
1000
,
0000
0000
0010
1000
,
0100
0000
0010
0000
0001
0000
0000
0100
,
0000
0000
0001
0010
,
0100
0000
1000
0000
0010
0000
0000
0100
,
0000
0000
1000
0001
,
1000
0000
0010
0000
0100
0000
0000
0001
,
0000
0000
0010
0001
,
1000
0000
0100
0000
0010
0000
0000
0001
,
0000
1000
0001
1000
,
0010
0000
0100
0000
0001
0000
0000
0010
,
0000
0001
0100
0010
,
1000
0000
0001
0000
1000
0000
0000
0100
,
0000
0010
0100
1000
,
0010
0000
1000
0000
0001
0000
0000
0100
,
0000
0001
1000
0100
,
0010
0000
0100
0000
0010
0000
0000
0001
,
0000
0100
0010
1000
,
0100
0000
1000
0000
0001
0000
0000
0010
,
0000
0001
1000
0001
,
1000
0000
0010
0000
0100
0000
0000
0010
,
0000
1000
0100
0010
,
0001
0000
0010
0000
0100
0000
0000
1000
,
0000
0001
0010
0001
,
1000
0010
1000
0100
,
2000
0002
0000
0000
0000
0000
0000
0000
0000
0000
0000
0000
3003
0000
0000
0000
,
2100
0000
0001
3002
0000
0103
0010
0000
,
1020
0000
1030
2000
0000
3001
0100
0000
,
0010
1000
0100
0020
0000
0032
0000
1003
,
0001
0100
0010
2000
0000
3002
0103
0000
,
0010
0100
0010
2000
0000
3002
0000
1003
,
1001
0000
0000
0000
0101
0000
0000
0100
0010
0000
0000
0000
1010
0000
0000
1000
,
0001
0000
0000
0000
0011
0000
0000
0001
1000
0000
0010
0000
0010
0000
0100
0000
,
0001
0000
0001
0000
0002
0000
0000
2003
0000
0000
0100
0000
3100
0000
0000
0000
,
1000
0010
1000
0100
,
0010
0001
0100
0001
,
0010
0100
0010
0001
,
0100
0010
1000
0001
,
0101
0000
0001
0010
,
0001
0100
0010
1000
,
0000
1100
0000
0110
,
0001
0100
0001
1000
,
0010
0100
0010
1000
,
0002
0100
0200
0303
,
0001
0010
0001
0010
,
0100
1000
0100
1000
,
0001
0000
1000
0000
0010
0000
1000
0100
,
1000
0000
0000
0001
0100
0000
0000
0000
,
0010
0010
1000
1000
,
0020
0100
0130
0000
,
0001
0001
0010
0010
,
0100
0100
1000
1000
,
0001
0001
1000
1000
,
0010
0100
0001
0000
,
1000
0000
1000
0010
,
1000
0100
0010
0000
,
0011
0000
0100
0010
,
1001
0000
1000
0000
,
0001
0010
0100
1000
,
0100
0010
0001
0000
,
1000
0100
0010
0001
,
0010
0100
1000
0000
,
0001
0000
0100
0000
0010
0000
1000
0001
,
1000
0000
0000
0010
0100
0000
0000
0000
,
0001
0100
0010
1000
,
0001
0010
0100
1000
,
2200
0000
0000
0000
,
0000
0000
0000
0000
,
0000
0000
0000
3300
;

//---------------dance-single - ----------------
#NOTES:
     dance-single:
     :
     Hard:
     18:
     :
0000
0000
0000
0000
,
0000
0000
0000
0000
,
0000
0000
0000
0000
,
0000
0000
0000
0000
,
1010
0100
0011
0100
1001
0000
1001
0000
,
1100
0010
0101
0010
1001
0000
1001
0000
,
1000
1000
1000
0100
0100
0100
0010
0010
0010
0001
0001
0001
,
0010
0100
1000
0000
0010
0100
0001
0000
,
1000
0001
0010
1000
0010
0100
1000
0000
,
0001
0010
0001
0000
1000
0010
1000
0000
,
0001
0100
0001
0000
1000
0100
1000
0000
,
0010
0010
0100
0100
,
1000
0001
1000
0001
,
0011
0100
0010
1000
,
0001
1000
0100
0010
,
0001
0101
0100
0110
,
0010
1010
1000
1100
,
0001
0000
0100
0010
1000
0000
0001
1000
,
0200
0010
0310
0000
,
0001
1001
0010
1000
,
0100
0010
0001
0100
,
0010
1000
0001
0100
0001
0010
0100
1000
,
0010
0100
0110
0001
,
1000
0000
0010
0100
0001
0000
0010
0100
,
1000
0001
1000
0000
0100
0000
0100
0000
,
1100
1100
0011
0011
,
0100
1000
0100
0010
0100
0001
0100
0000
,
0110
0110
1001
1001
,
1100
0101
0110
0000
,
2000
3000
0100
0010
,
0001
0100
0001
0000
0010
0000
0000
0000
,
0100
0010
0001
0100
,
0010
1000
0001
0000
1000
0000
0000
0000
,
1010
0000
1010
0000
0001
0100
1000
0100
,
0002
0100
0103
0000
,
0010
0001
0100
0000
0100
0000
0010
1000
,
0001
1000
0100
0000
0010
0100
1000
0000
,
0001
0010
0100
1000
0010
0000
1000
0100
,
0010
0000
0001
0100
0001
0000
0000
0000
,
0010
0011
0100
1010
,
1000
0100
0010
0001
1000
0010
0100
0001
,
0020
0000
0031
2100
0000
0100
3100
0000
,
1020
0000
0130
2001
0000
3002
0103
0000
,
0012
0000
1000
0000
1003
0000
0201
0000
0000
0302
0010
0000
0010
0000
0013
0000
,
0120
0100
0130
2100
0000
0010
3010
0000
,
1000
0000
1000
0000
1000
0000
0102
0000
0000
0023
0100
0000
0100
0000
0130
0000
,
0010
0000
0001
0100
0001
0000
1000
0100
1000
0000
0001
0010
0001
0000
1000
0010
,
2000
0000
0100
0000
3100
1000
1000
0001
,
0010
0000
0010
0000
0010
0000
0001
0100
0000
0100
0001
0000
1000
0000
0000
0000
,
0100
0001
0100
0001
0100
1000
0100
1000
,
0010
0001
0010
0001
0010
1000
0010
1000
,
0001
0001
0010
0010
,
0100
0100
1000
1000
,
0100
0100
0010
0010
,
0001
1000
0001
1000
,
1100
0101
0011
1010
,
1001
0100
0100
0010
,
1000
0001
0010
0010
,
0001
0100
0001
0100
0001
0000
1000
0000
,
0001
0010
0001
0010
0001
0000
1000
0000
,
0020
0032
2003
3200
2300
3020
0230
0302
,
0023
0230
2300
3002
0203
0302
2003
3020
,
1030
0000
0010
0100
0002
0000
1003
0000
,
0100
0000
0001
0010
0200
0000
1300
0000
,
0010
0000
1000
0100
0020
0000
0031
0000
,
0100
0000
0010
0001
2000
0000
3100
0000
,
0010
0000
0100
0001
0020
0000
0130
0000
,
0010
0000
0001
0100
2000
0000
3001
0000
,
0010
0000
0001
1000
0020
0000
0130
0000
,
0001
0000
1000
0100
0020
0000
0031
0000
,
1000
0010
0100
0001
0020
0000
0130
0000
,
0010
0001
0100
1000
0002
0000
0103
0000
,
0010
0001
0010
0100
0002
0000
1003
0000
,
0100
0010
0001
0100
0020
0000
1030
0000
,
0100
0001
0100
0010
0200
0000
1300
0000
,
0001
1000
0010
1000
0002
0000
0103
0000
,
0001
0010
1000
0010
0001
0000
0000
0000
1000
0010
0001
0010
1000
0000
0000
0000
,
0100
1000
0010
0100
,
0001
0000
0010
0000
0100
0000
0000
1001
,
0000
1000
0010
0100
,
0001
0000
0010
0000
1000
0000
0000
0101
,
0000
0010
0100
0001
,
1000
0000
0100
0000
0010
0000
0000
1100
,
0000
0001
0010
1000
,
0001
0000
0100
0000
1000
0000
0000
0110
,
0000
0100
0001
1000
,
0010
0000
1000
0000
0100
0000
0000
0011
,
0000
0100
0010
1000
,
0001
0000
0010
0000
0001
0000
0000
1010
,
0000
0100
1000
0001
,
1000
0000
0010
0000
0100
0000
0000
1001
,
0000
0010
1000
0001
,
1000
0100
0010
0001
,
0010
0001
0100
0000
0010
0001
0100
0000
,
0001
0010
1000
0000
0001
0100
1000
0000
,
0010
1000
0100
0001
0100
0010
0001
0000
,
1000
0001
0100
0000
0010
1000
0100
0000
,
1000
0010
0100
0010
1000
0000
0001
0000
,
0010
0100
1000
0001
,
0100
0000
0001
0010
1000
0000
0100
0000
,
0011
0100
1100
0000
,
1000
0001
1000
0001
1000
0001
1000
0001
,
0010
0100
0010
0100
0010
0100
0010
0100
,
1000
0010
1000
0010
0100
0001
0100
0001
,
0010
0001
0010
0001
1000
0100
1000
0100
,
0010
0000
0001
0100
1000
0100
0010
1000
,
0001
0010
0110
0000
,
1100
0000
1000
0000
0010
0100
0001
1000
,
0100
1000
0010
0100
,
0101
0202
0000
0000
0000
0000
0000
0000
0000
0000
0000
0000
0300
0000
0000
0000
,
0013
0000
0001
1000
0001
0000
2010
0000
0000
0000
0100
0000
3100
0000
0000
0000
,
1000
0010
0100
0010
1000
0000
0120
0000
0000
0000
0032
0000
1003
0000
0000
0000
,
0010
0000
0010
0000
0010
0000
2000
0001
0000
3002
0100
0000
0100
0000
0103
0000
,
0010
1000
0001
0010
0100
0000
2100
0000
0000
0000
3001
0000
1010
0000
0000
0000
,
0101
0000
0101
0000
0101
0000
2001
0000
0000
3020
1000
0000
1000
0000
1030
0000
,
0001
0000
0010
0100
1000
0000
0010
0100
0001
0000
0010
0100
1000
0000
0001
1000
,
0010
0000
1000
0100
1000
0000
0001
0100
0001
0000
0010
0000
0100
0000
1000
0000
,
0001
0000
0001
0000
0001
0000
1000
0010
0000
1000
0010
0000
0100
0000
0000
0000
,
0001
0010
0001
0010
1000
0010
1000
0010
,
0001
0100
0001
0100
1000
0100
1000
0100
,
0001
1001
1000
1010
,
0010
0110
0100
0101
,
1100
0010
0100
0001
,
0010
0100
0010
0100
1000
0000
0001
0000
,
0100
0110
0010
1010
,
0101
0000
1000
0010
0100
0000
0001
0000
,
0010
0001
0100
0001
0010
0001
0100
0001
,
2000
0100
0002
3003
,
0010
0001
1000
0000
0100
0010
0001
0000
,
1000
0001
0010
0001
0100
0010
1000
0000
,
0100
0010
0001
1000
0010
0100
0001
1000
,
0010
0100
0001
1000
,
0100
0000
0010
0001
0010
0000
0001
1000
,
0100
0001
0100
0010
0100
1000
0100
0000
,
0011
0011
1100
1100
,
0101
0101
1010
1010
,
1001
0110
1001
0110
,
1010
0000
0011
0000
0100
0010
1000
0000
,
0001
0010
0100
1000
,
1100
1100
0101
0000
,
1000
0010
1000
0010
1000
0010
1000
0000
,
0001
0010
0001
0010
0001
0010
0001
0000
,
0100
0000
0100
0010
1000
0001
0010
0001
,
1000
0000
0100
0010
0001
0000
0000
0000
,
1000
0010
0001
0010
1000
0000
1001
0000
,
0010
0100
1000
0000
0002
0000
0003
0000
,
0010
0001
1000
0100
1000
0001
0100
0010
,
1000
0000
0001
0100
0020
0000
0030
0000
,
1000
0100
0010
0001
0100
0010
1000
0001
,
0010
0001
1000
0001
0100
0010
1000
0200
,
0020
0000
0000
0000
,
0000
0000
0000
0000
,
0000
0000
0000
0330
;
