#TITLE:SAY A PRAYER;
#ARTIST:Des-ROW with Maxi Priest;
#BANNER:SAY A PRAYER.png;
#BACKGROUND:SAY A PRAYER-bg.png;
#JACKET:SAY A PRAYER-jacket.png;
#MUSIC:SAY A PRAYER.ogg;
#SAMPLESTART:79.135;
#SAMPLELENGTH:20;
#DISPLAYBPM:97;
#BPMS:0=96.999;
#BGCHANGES:;

//---------------dance-single - ----------------
#NOTES:
     dance-single:
     :
     Beginner:
     1:
     :
0000
0000
0000
0000
,
0000
0000
0000
0000
,
0000
0000
0000
0000
,
1000
0000
0000
0000
,
0100
0000
0000
0000
,
0010
0000
0000
0000
,
0001
0000
0000
0000
,
1000
0000
0000
0000
,
0100
0000
0000
0000
,
0010
0000
0000
0000
,
0001
0000
0000
0000
,
1000
0000
1000
0000
,
0010
0000
0010
0000
,
0100
0000
0100
0000
,
0001
0000
0001
0000
,
1000
0000
1000
0000
,
0010
0000
0010
0000
,
0100
0000
0100
0000
,
0001
0000
0001
0000
,
0002
0000
0003
0000
,
0020
0000
0030
0000
,
0200
0000
0300
0000
,
2000
0000
3000
0000
,
1000
0000
0100
0000
,
1000
0000
0010
0000
,
0100
0000
0001
0000
,
0100
0000
0000
0000
,
0001
0000
0100
0000
,
0001
0000
0010
0000
,
0100
0000
1000
0000
,
0100
0000
0000
0000
,
0010
0000
0000
0000
,
1000
1000
1000
0000
,
0001
0001
0001
0000
,
0010
0010
0010
0000
,
0100
0100
0100
0000
,
1000
1000
1000
0000
,
0001
0001
0001
0000
,
0010
0010
0010
0000
,
0100
0100
0100
0000
,
0001
0000
0000
0000
,
0001
0000
0000
0000
,
0001
0000
0000
0000
,
0001
0000
0000
0000
,
1000
0000
0000
0000
,
1000
0000
0000
0000
,
1000
0000
0000
0000
,
1000
0000
0000
0000
;

//---------------dance-single - ----------------
#NOTES:
     dance-single:
     :
     Easy:
     5:
     :
0000
0000
0000
0000
,
0000
0000
0000
0000
,
0000
0000
0000
0000
,
0001
0010
0001
0000
,
0001
0100
0001
0000
,
0001
0010
1000
0000
,
0001
0100
1000
0000
,
1000
0010
1000
0000
,
1000
0100
1000
0000
,
1000
0010
0001
0000
,
1000
0100
0001
0000
,
0010
0100
0010
0000
,
0010
0100
1000
0000
,
0010
0100
0001
0000
,
0010
0100
0100
0000
,
0010
0100
0010
0000
,
0010
0100
0001
0000
,
0010
0100
1000
0000
,
0010
0100
0100
0000
,
0002
0000
0203
0000
,
0320
0000
2030
0000
,
3002
0000
0023
0000
,
0130
0000
0000
0000
,
0010
0100
0010
0000
,
0010
0100
1000
0000
,
0010
0100
0001
0000
,
0010
0100
0100
0000
,
1000
0001
1000
0000
,
1000
0001
0100
0000
,
1000
0001
0010
0000
,
1000
0001
0001
0000
,
1001
0000
0000
0000
,
1000
0100
1000
0100
,
1000
0100
1000
0000
,
0001
0100
0001
0100
,
0001
0100
0001
0000
,
1000
0100
1000
0100
,
1000
0100
1000
0000
,
0001
0100
0001
0100
,
0001
0100
0001
0000
,
0010
0000
0010
0000
,
0010
0000
0010
0000
,
0100
0000
0100
0000
,
0100
0000
0100
0000
,
1000
0000
1000
0000
,
1000
0000
1000
0000
,
0001
0000
0001
0000
,
0001
0000
0001
0000
,
;

//---------------dance-single - ----------------
#NOTES:
     dance-single:
     :
     Medium:
     8:
     :
0000
0000
0000
0000
,
0000
0000
0000
0000
,
0000
0000
0000
0000
,
1000
0000
0100
0010
0001
0000
0000
0000
,
0100
0000
0010
1000
0001
0000
0000
0000
,
0010
0000
0100
1000
0001
0000
0000
0000
,
0010
0000
1000
0100
0001
0000
0000
0000
,
0001
0000
0100
0010
1000
0000
0000
0000
,
0100
0000
0010
0001
1000
0000
0000
0000
,
0010
0000
0100
0001
1000
0000
0000
0000
,
0010
0000
0001
0100
1000
0000
0000
0000
,
1000
0100
0010
0001
0010
0000
0000
0000
,
0100
0010
0001
1000
0100
0000
0000
0000
,
0010
0001
1000
0100
0010
0000
0000
0000
,
0001
1000
0100
0010
0001
0000
0000
0000
,
0001
0100
0010
1000
0010
0000
0000
0000
,
0100
0010
1000
0001
0100
0000
0000
0000
,
0010
1000
0001
0100
0010
0000
0000
0000
,
1000
0001
0100
0010
1000
0000
0000
0000
,
2001
3020
0230
0302
,
0023
0230
2300
3001
,
0002
0000
0000
0000
0100
0000
0100
0003
,
2000
0000
0002
3003
,
1000
0100
0001
0000
1000
0100
0001
0000
,
1000
0010
0001
0000
1000
0010
0001
0000
,
0100
0001
1000
0000
0100
0001
1000
0000
,
0010
0010
0100
0100
,
0001
0010
0100
0000
0001
0010
0100
0000
,
1000
0010
0100
0000
1000
0010
0100
0000
,
0001
1000
0100
0000
0001
1000
0100
0000
,
1000
1000
0001
0001
,
0100
0000
0000
0000
,
1000
0100
1000
0100
1000
0100
1000
0000
,
0001
0010
0001
0010
0001
0010
0001
0000
,
0100
1000
0100
1000
0100
1000
0100
0000
,
0010
0001
0010
0001
0010
0001
0010
0000
,
1000
0100
1000
0100
1000
0100
1000
0000
,
0001
0010
0001
0010
0001
0010
0001
0000
,
0100
1000
0100
1000
0100
1000
0100
0000
,
0001
0010
0100
1000
,
0010
0000
0000
0001
0000
1000
0000
0001
,
0000
0100
0000
0010
0000
1000
0000
0001
,
0000
0010
0000
0100
0000
1000
0000
0001
,
0000
1000
0000
0001
0000
1000
0000
0001
,
0010
0000
0000
0001
0000
0001
0000
1000
,
0000
1000
0000
0100
0000
0100
0000
0010
,
0000
0010
0000
0001
0000
0001
0000
1000
,
0001
0100
0010
1000
,
;

//---------------dance-single - ----------------
#NOTES:
     dance-single:
     :
     Hard:
     10:
     :
0000
0000
0000
0000
,
0000
0000
0000
0000
,
0000
0000
0000
0000
,
1000
0100
0010
0001
0010
0000
0000
0000
,
0100
0010
0001
0100
0010
0000
0000
0000
,
0100
1000
0010
0100
1000
0000
0000
0000
,
0100
0001
0010
1000
0001
0000
0000
0000
,
0001
0100
0010
1000
0010
0000
0000
0000
,
0100
0010
1000
0100
0010
0000
0000
0000
,
0100
0001
0010
0100
0001
0000
0000
0000
,
0100
1000
0010
0001
1000
0000
0000
0000
,
0010
0100
1000
0100
0020
0000
0130
0000
,
1000
0100
0001
0010
0002
0000
0103
0000
,
0010
0001
0100
1000
0200
0000
0310
0000
,
1000
0100
0010
0100
2000
0000
3100
0000
,
0010
0100
0001
0100
0020
0000
0130
0000
,
0001
0100
1000
0010
2000
0000
3100
0000
,
0010
1000
0100
0001
0200
0000
0310
0000
,
0001
0100
0010
0100
0002
0000
0103
0000
,
1200
0001
1000
0010
,
2300
0010
0100
0001
,
3020
0100
0100
0100
,
2030
0000
0002
3003
,
0100
0000
1000
0000
0100
0000
0001
0010
0000
0000
0001
0000
1000
0000
0010
0000
,
0100
0000
0001
0000
0010
0000
0100
0001
0000
0000
0100
0000
1000
0000
0010
0000
,
0100
0000
0010
0000
1000
0000
0100
0001
0000
0000
1000
0000
0001
0000
0100
0000
,
1000
0000
0010
0000
0010
0001
0101
0000
,
1000
0000
0001
0000
1000
0000
0100
0010
0000
0000
0010
0000
0001
0000
0100
0000
,
1000
0000
0010
0000
0100
0000
1000
0001
0000
0000
1000
0000
0001
0000
0100
0000
,
1000
0000
0100
0000
0001
0000
1000
0001
0000
0000
0100
0000
0010
0000
1000
0000
,
0001
0000
0100
0000
0100
1000
1100
0000
,
0010
0000
0000
0000
,
1000
0100
1000
0100
0001
0010
0001
0010
,
0100
1000
0100
1000
0010
0001
0010
0001
,
0100
0010
0100
0010
1000
0001
1000
0001
,
0100
1000
0001
0100
0010
1000
0001
0010
,
0001
0100
0001
0100
1000
0010
1000
0010
,
0100
0001
0100
0001
0010
1000
0010
1000
,
0100
0010
0100
0010
0001
1000
0001
1000
,
0100
0001
1000
0100
0010
0001
1000
0010
,
0100
0001
0000
0001
0000
0001
0000
0100
,
0000
0010
0000
0010
0000
0010
0000
0001
,
0000
1000
0000
1000
0000
1000
0000
0100
,
0000
0001
0000
0001
0000
0001
0000
0100
,
0010
0001
0000
0001
0000
0001
0000
1000
,
0000
0010
0000
0010
0000
0010
0000
0100
,
0000
1000
0000
1000
0000
1000
0000
0010
,
0100
0100
0100
0100
;

//---------------dance-single - ----------------
#NOTES:
     dance-single:
     :
     Challenge:
     13:
     :
0000
0000
0000
0000
,
0000
0000
0000
0000
,
0000
0000
0000
0000
,
0010
1000
0100
0001
0200
0000
1300
0010
,
0100
1000
0100
0001
0020
0000
0032
0000
,
0103
1000
0100
0001
0020
0000
0030
0000
,
0100
1000
0010
0001
0020
0000
1030
0001
,
0010
1000
0010
0001
0200
0000
0300
0000
,
0001
0010
1000
0010
0002
0200
0003
0310
,
1000
0100
0001
0100
2000
0000
3000
0100
,
0100
0000
0001
0000
0100
0000
1000
0000
0020
0000
0000
0000
1030
0001
1000
0001
,
1000
0000
0010
0000
0100
0001
0100
0001
0100
0000
0010
0000
1000
0001
1000
0000
,
0010
0000
0100
0000
0001
0010
0001
0010
0001
0000
1000
0000
0100
1000
0100
0000
,
0010
0000
0001
0000
0100
0000
0010
1000
0010
0000
0100
0000
0001
1000
0001
1000
,
0001
0000
1000
0000
0010
0100
0010
0100
0010
0000
1000
0000
0100
0001
0100
0000
,
1000
0000
0010
0000
0100
1000
0100
1000
0100
0000
0001
0000
0010
0001
0010
0000
,
0100
0000
0001
0000
0100
0010
0100
0010
0100
0000
1000
0000
0001
1000
0001
0000
,
0010
0000
0100
0000
1000
0001
1000
0001
1000
0000
0100
0000
0001
0010
0001
0000
,
0100
0000
1000
0000
0100
0001
0100
0001
0100
0000
0010
0000
1000
0001
1000
0000
,
1001
1010
1100
0110
,
0021
0000
0031
1000
0000
0201
0000
0310
,
1000
0100
0010
1000
0010
0100
0010
0001
,
0100
1000
0100
0001
0020
0000
0031
1000
,
0100
0000
0001
0000
0100
1000
0001
0000
0100
0000
0010
0000
0001
0010
1000
0000
,
0100
0000
0001
0000
0100
0010
0001
0000
1000
0000
0010
0000
1000
0001
0100
0000
,
0010
1000
0001
0000
0100
0001
0010
0000
1000
0000
0100
0000
1000
0010
0001
0000
,
0100
0000
0010
0000
1000
0001
1000
0000
1010
0000
0100
0000
0001
1000
0010
0000
,
0100
0000
0002
0000
0013
0001
0200
0000
1300
0000
0200
0000
0310
1000
0002
0000
,
0013
0001
0100
0000
1000
0001
1000
0000
0010
0000
0101
0000
0001
1000
0100
0000
,
0010
0000
0001
0000
0100
0010
1000
0000
0200
0000
0310
0000
0100
1000
0001
0000
,
0100
0000
1000
0000
0100
0001
0010
0000
1000
0000
0010
0000
0100
0010
0001
0000
,
2200
0000
0000
0000
0300
0000
0000
0000
3001
0000
0000
0001
0100
0000
0010
0000
,
1001
0000
0010
0000
1000
0100
0001
0000
0100
0000
0010
0000
0100
1000
0001
0000
,
0100
0000
0010
0000
0001
0010
0100
0000
1000
0000
0100
0000
0001
1000
0010
0000
,
0100
0000
0001
0000
0100
0010
0100
0000
1000
0000
0010
0000
0001
0010
1000
0000
,
0010
0000
1000
0000
0100
0010
0001
0000
0011
0000
0100
0000
1000
0001
0100
0000
,
0110
0000
0001
0000
0010
0001
1000
0000
0100
0000
0010
0000
1000
0010
0001
0000
,
0100
0000
0010
0000
0001
0010
1000
0000
0100
0000
0001
0000
0100
1000
0010
0000
,
1000
0000
0001
0000
0010
1000
0010
0000
0100
0000
1000
0000
0001
0100
0010
0000
,
0110
0000
0001
0000
0010
0001
1000
0000
1100
0000
0001
0000
0010
0001
1000
0000
,
0101
0010
1000
0100
0001
0100
0010
0100
,
1000
0010
0001
0010
0100
0010
0001
0010
,
1000
0001
0010
1000
0010
0100
0001
0100
,
1000
0010
1000
0001
0100
1000
0100
0001
,
1001
0010
0100
0001
0000
1000
0100
1000
,
0010
1000
0001
0010
0000
0001
0100
1000
,
1010
1000
0100
0010
0000
0001
1000
0001
,
0012
0000
0100
0000
0013
0000
1000
0000
0010
0000
0001
1000
0001
0000
0100
0000
,
1000
0100
0001
0100
0020
0000
0030
0000
;

//---------------dance-double - ----------------
#NOTES:
     dance-double:
     :
     Easy:
     4:
     :
00000000
00000000
00000000
00000000
,
00000000
00000000
00000000
00000000
,
00000000
00000000
00000000
00000000
,
10000000
01000000
00100000
00000000
,
01000000
00100000
00010000
00000000
,
00100000
00010000
00001000
00000000
,
00010000
00001000
00000100
00000000
,
00000001
00000010
00000100
00000000
,
00000010
00000100
00001000
00000000
,
00000100
00001000
00010000
00000000
,
00001000
00010000
00100000
00000000
,
10000000
01000000
00010000
00000000
,
01000000
00010000
00001000
00000000
,
00100000
00001000
00000100
00000000
,
00010000
00000100
00000010
00000000
,
00000001
00000010
00001000
00000000
,
00000010
00001000
00010000
00000000
,
00000100
00010000
00100000
00000000
,
00001000
00100000
01000000
00000000
,
20000000
00000000
30200000
00000000
,
00320000
00000000
00032000
00000000
,
00003200
00000000
00000302
00000000
,
00002000
00000000
00000000
00003003
,
00000001
00000010
00001000
00000000
,
00000100
00010000
00001000
00000000
,
01000000
00010000
00100000
00000000
,
10000000
00010000
01000000
00000000
,
10000000
00100000
00010000
00000000
,
01000000
00001000
00010000
00000000
,
00000100
00001000
00000010
00000000
,
00000001
00001000
00000100
00000000
,
00000000
00000000
00000000
00000000
,
00000001
00001000
00000001
00001000
,
00000100
00010000
00000100
00010000
,
00001000
00100000
00001000
00100000
,
01000000
10000000
01000000
00000000
,
10000000
00010000
10000000
00010000
,
01000000
00001000
01000000
00001000
,
00010000
00000010
00010000
00000010
,
00000100
00000001
00000100
00000000
,
00000001
00000000
00000001
00000000
,
00000010
00000000
00000010
00000000
,
00001000
00000000
00001000
00000000
,
00010000
00000000
01000000
00000000
,
10000000
00000000
10000000
00000000
,
00100000
00000000
00100000
00000000
,
00010000
00000000
00010000
00000000
,
00001000
00000000
00000100
00000000
,
00000001
00000000
00000000
00000000
,
;

//---------------dance-double - ----------------
#NOTES:
     dance-double:
     :
     Medium:
     8:
     :
00000000
00000000
00000000
00000000
,
00000000
00000000
00000000
00000000
,
00000000
00000000
00000000
00000000
,
10000000
00000000
01000000
00100000
00010000
00000000
00000000
00000000
,
01000000
00000000
00100000
00010000
00001000
00000000
00000000
00000000
,
00100000
00000000
00010000
00001000
00000100
00000000
00000000
00000000
,
00010000
00000000
00001000
00000100
00000010
00000000
00000000
00000000
,
00000001
00000000
00000010
00000100
00001000
00000000
00000000
00000000
,
00000010
00000000
00000100
00001000
00010000
00000000
00000000
00000000
,
00000100
00000000
00001000
00010000
00100000
00000000
00000000
00000000
,
00001000
00000000
00010000
00100000
01000000
00000000
00000000
00000000
,
10000000
01000000
00100000
00010000
00100000
00000000
00000000
00000000
,
01000000
00100000
00010000
00001000
00010000
00000000
00000000
00000000
,
00100000
00010000
00001000
00000100
00001000
00000000
00000000
00000000
,
00010000
00001000
00000100
00000010
00000100
00000000
00000000
00000000
,
00000001
00000010
00000100
00001000
00000100
00000000
00000000
00000000
,
00000010
00000100
00001000
00010000
00001000
00000000
00000000
00000000
,
00000100
00001000
00010000
00100000
00010000
00000000
00000000
00000000
,
00001000
00010000
00100000
01000000
00100000
00000000
00000000
00000000
,
20010000
30200000
00320000
00032000
,
00003200
00000302
00000023
00000230
,
00020300
00000000
01000000
01000000
,
00032000
00000000
00020000
00033000
,
00001000
00010000
00100000
00000000
00010000
00001000
00000010
00000000
,
00001000
00010000
01000000
00000000
00010000
00001000
00000100
00000000
,
00000001
00000010
00001000
00000000
00010000
01000000
10000000
00000000
,
00100000
00010000
00001000
00000100
,
00001000
00010000
00000010
00000000
00010000
00001000
00100000
00000000
,
00001000
00010000
00000100
00000000
00010000
00001000
01000000
00000000
,
10000000
01000000
00010000
00000000
00100000
00010000
00001000
00000000
,
00000100
00000100
00000010
00000010
,
00000001
00000000
00000000
00000000
,
00000001
00000100
00000001
00000100
00000010
00001000
00000010
00000000
,
00010000
00001000
00010000
00001000
01000000
00100000
01000000
00000000
,
00001000
00100000
00001000
00100000
01000000
00100000
01000000
00000000
,
10000000
00100000
10000000
01000000
00010000
01000000
10000000
00000000
,
10000000
01000000
10000000
01000000
00100000
00010000
00100000
00000000
,
00001000
00010000
00001000
00010000
00000100
00000010
00000100
00000000
,
00010000
00000010
00010000
00000010
00000100
00000010
00000100
00000000
,
00000001
00000010
00000001
00000100
00001000
00000100
00000001
00000000
,
00000010
00000000
00000000
00000100
00000000
00010000
00000000
00001000
,
00000000
01000000
00000000
00100000
00000000
10000000
00000000
00010000
,
00000000
00100000
00000000
00001000
00000000
00000100
00000000
00001000
,
00000000
00010000
00000000
01000000
00000000
10000000
00000000
00010000
,
00100000
00000000
00000000
01000000
00000000
00001000
00000000
00010000
,
00000000
00000100
00000000
00000010
00000000
00000001
00000000
00001000
,
00000000
00000010
00000000
00010000
00000000
01000000
00000000
00010000
,
00000000
00001000
00000000
00000100
00000000
00000001
00000000
00001000
,
00000001
00000000
00000000
00000000
,
;

//---------------dance-double - ----------------
#NOTES:
     dance-double:
     :
     Hard:
     11:
     :
00000000
00000000
00000000
00000000
,
00000000
00000000
00000000
00000000
,
00000000
00000000
00000000
00000000
,
10000000
01000000
00100000
00010000
00001000
00000000
00000000
00000000
,
01000000
00100000
00010000
00001000
00000100
00000000
00000000
00000000
,
00100000
00010000
00001000
00000100
00000010
00000000
00000000
00000000
,
00010000
00001000
00000100
00000010
00000001
00000000
00000000
00000000
,
00000001
00000010
00000100
00001000
00010000
00000000
00000000
00000000
,
00000010
00000100
00001000
00010000
00100000
00000000
00000000
00000000
,
00000100
00001000
00010000
00100000
01000000
00000000
00000000
00000000
,
00001000
00010000
00100000
01000000
10000000
00000000
00000000
00000000
,
00010000
01000000
10000000
01000000
00020000
00000000
00130000
00000000
,
00001000
00000010
00000001
00000010
00002000
00000000
01003000
00000000
,
00100000
00010000
00001000
00010000
00200000
00000000
00310000
00000000
,
00001000
00000100
00000010
00000100
00002000
00000000
00003100
00000000
,
00001000
00000100
00000001
00000100
00002000
00000000
00003010
00000000
,
00010000
00100000
10000000
00100000
00020000
00000000
00030100
00000000
,
00000010
00001000
00010000
00001000
00000020
00000000
00001030
00000000
,
00010000
01000000
00100000
01000000
00020000
00000000
01030000
00000000
,
12000000
00010000
00100000
00100000
,
03020000
00000010
00001000
00001000
,
00030020
00000100
00000100
00000100
,
00002030
00000000
00000002
00003003
,
00000100
00000000
00000001
00000000
00000100
00000000
00010000
00000000
00001000
00000000
00100000
00000000
10000000
00000000
01000000
10000000
,
00010000
00000000
01000000
00000000
00001000
00000000
00010000
00000000
01000000
00000000
00001000
00000000
00010000
00000000
00000010
00000001
,
00000100
00000001
00001000
00000010
00010000
00000100
00000001
00001000
,
00010000
00001000
01000000
00100000
10000000
00010000
10010000
00000000
,
01000000
00000000
10000000
00000000
00100000
00000000
00010000
00000000
00001000
00000000
00000010
00000000
00000001
00000000
00000100
00000010
,
00001000
00000000
00010000
00000000
00100000
00000000
00001000
00000000
00000100
00000000
00000010
00000000
00001000
00000000
00010000
00100000
,
01000000
00000000
10000000
00000000
00010000
00000000
00100000
00000000
00001000
00000000
00000010
00000000
00000001
00000000
00000100
00001000
,
00010000
00100000
00010000
00001000
00000100
00000010
00010000
00001000
,
00000010
00000000
00000000
00000000
,
00000001
00000100
00000001
00000100
00001000
00010000
00001000
00010000
,
00100000
10000000
00100000
10000000
01000000
10000000
01000000
10000000
,
01000000
00100000
01000000
00100000
00010000
00001000
00010000
00001000
,
00000100
00000010
00000100
00000010
00000001
00001000
00000100
00000000
,
00000001
00000010
00000001
00000010
00001000
00010000
00001000
00010000
,
01000000
10000000
01000000
10000000
00100000
10000000
00100000
10000000
,
00100000
01000000
00100000
01000000
00010000
00001000
00010000
00001000
,
00000010
00000100
00000010
00000100
00000001
00001000
00000010
00000000
,
00001000
00000100
00000000
00010000
00000000
00001000
00000000
00000001
,
00000000
00001000
00000000
00010000
00000000
01000000
00000000
10000000
,
00000000
00100000
00000000
00001000
00000000
00000100
00000000
00000001
,
00000000
00000100
00000000
00010000
00000000
01000000
00000000
10000000
,
00010000
01000000
00000000
00001000
00000000
00010000
00000000
10000000
,
00000000
00010000
00000000
00001000
00000000
00000100
00000000
00000001
,
00000000
00000010
00000000
00010000
00000000
01000000
00000000
10000000
,
00000000
01000000
00000000
00001000
00000000
00000100
00000000
00000001
,
00001000
00000000
00000000
00000000
,
;
