#VERSION:0.83;
#TITLE:Rumour Has It;
#SUBTITLE:;
#ARTIST:Adele;
#TITLETRANSLIT:;
#SUBTITLETRANSLIT:;
#ARTISTTRANSLIT:;
#GENRE:;
#ORIGIN:;
#TAGS:;
#CREDIT:;
#BANNER:Rumour Has It-bn.png;
#BACKGROUND:Rumour Has It-bg.png;
#PREVIEWVID:;
#JACKET:Rumour Has It-jacket.png;
#CDIMAGE:;
#DISCIMAGE:;
#LYRICSPATH:;
#CDTITLE:;
#MUSIC:Rumour Has It.ogg;
#OFFSET:0.000000;
#SAMPLESTART:4.000000;
#SAMPLELENGTH:20.000000;
#SELECTABLE:YES;
#DISPLAYBPM:120.000000;
#BPMS:0.000000=120.000000;
#STOPS:;
#DELAYS:;
#WARPS:;
#TIMESIGNATURES:0.000000=4=4;
#TICKCOUNTS:0.000000=4;
#COMBOS:0.000000=1;
#SPEEDS:0.000000=1.000000=0.000000=0;
#SCROLLS:0.000000=1.000000;
#FAKES:;
#LABELS:0.000000=Song Start;
#BGCHANGES:;
#KEYSOUNDS:;
#ATTACKS:
;

//---------------dance-single - ----------------
#NOTEDATA:;
#CHARTNAME:;
#CHARTHASH:0:
#STEPSTYPE:dance-single;
#BANNER:;
#DESCRIPTION:;
#CHARTSTYLE:;
#DIFFICULTY:Hard;
#METER:12;
#METERF:0.000000;
#RADARVALUES:0.476201,0.446997,0.223219,0.305066,0.018602,448.000000,418.000000,30.000000,41.000000,0.000000,0.000000,0.000000,0.000000,0.000000,0.476201,0.446997,0.223219,0.305066,0.018602,448.000000,418.000000,30.000000,41.000000,0.000000,0.000000,0.000000,0.000000,0.000000;
#CREDIT:;
#NOTES:
0000
0000
0000
0000
,
0000
0000
0000
0000
,
0001
0000
0001
0000
0001
1000
0001
0001
,
0001
0000
0001
0000
0001
1000
0001
0001
,
0001
0000
0001
0000
0001
1000
0001
0001
,
0001
0000
0001
0000
0001
1000
0001
0001
,
0002
0000
0100
0000
0103
0010
1000
0001
,
0020
0000
0100
0000
0130
0010
0001
1000
,
0010
1000
0010
0100
0001
0010
0001
1000
,
0020
0000
1000
0000
1030
0001
0100
0100
,
0200
0000
0001
0000
0301
1000
0010
0200
,
0302
1000
1000
0000
0013
0001
0100
0010
,
1000
0100
1000
0010
0100
0001
0010
0100
,
1000
0010
1000
0002
0000
0023
0100
0100
,
0130
0000
1000
0000
0001
0200
0000
0000
0301
0000
1000
0000
0010
0100
0010
0000
,
1000
0001
0010
0000
0010
0100
1000
0001
,
1000
0010
0100
0001
0010
0100
1000
0001
,
0200
0000
0000
0000
,
0000
0000
0000
0300
,
1001
0000
1100
0000
0101
1000
0010
0100
,
0001
0010
0100
1000
0000
1000
0001
0100
,
0010
1000
0001
0010
0000
0001
0100
1000
,
0100
0010
1000
0100
0000
1000
0001
0010
,
0100
0000
1100
0000
0011
0100
0010
1000
,
0001
1000
0010
0100
0000
0100
0001
1000
,
0001
0010
0100
1000
0001
0010
0100
1000
,
0001
0010
0100
1000
0010
0100
0010
0100
,
1002
0000
0013
0001
1000
0010
1000
0100
,
2100
0000
3010
1000
0001
0100
0001
0010
,
0021
0000
0130
0010
0001
1000
0001
0100
,
0201
0000
0310
1000
0100
0001
0100
0010
,
0210
0000
1300
0100
0010
1000
0010
0001
,
0012
0000
0103
0001
1000
0100
1000
0010
,
2010
0000
3001
0010
0100
1000
0001
1000
,
2001
0000
3010
0201
0000
0301
1000
0100
,
0010
0000
1001
0000
0100
0000
0110
0110
,
0001
0000
0000
0000
1001
0000
0000
0000
0020
0000
0000
0000
0031
1000
0001
0000
,
0200
0000
0310
1000
0000
1000
0001
0010
,
0200
0000
1300
0001
0000
0001
0100
0010
,
1000
0001
1000
0010
1000
0100
0010
0001
,
2000
0000
0010
0000
3001
1000
0010
0200
,
0302
0000
0010
0000
1003
0010
0100
0001
,
0010
0100
2000
0000
3001
1000
0010
0100
,
0001
0010
0001
0100
0001
1000
0010
0100
,
0020
0000
1000
0000
0130
0010
1000
0002
,
0000
0013
0001
0100
0001
0010
0100
1000
,
0010
1000
0010
1000
0100
0010
0001
0100
,
0001
0010
0100
1000
0010
0100
0001
1000
,
0002
0000
0000
0023
0000
0000
0230
0000
2300
0000
0010
0000
0000
3100
0000
0000
,
1001
0000
1100
0000
0101
1000
0001
0100
,
0010
0100
0001
1000
0000
1000
0100
0010
,
0001
0100
0001
0010
0000
0100
1000
0010
,
1000
0001
0010
0100
0000
1000
0001
0100
,
0010
0000
1010
0000
0101
0010
0001
1000
,
0010
0100
0010
1000
0000
1000
0001
0100
,
0001
0010
0100
1000
0001
0010
0100
1000
,
0001
0010
0100
1000
0010
0100
0010
0100
,
2001
0000
3010
1000
0010
0100
0001
1000
,
1020
0000
0130
0010
1000
0001
1000
0100
,
2100
0000
3010
0100
0001
0010
0001
1000
,
0201
0000
0310
0100
0010
1000
0001
0100
,
0210
0000
0301
0010
0001
0100
0010
1000
,
2100
0000
3010
1000
0001
0010
0001
0100
,
0001
0010
0100
1000
0001
0010
0100
1000
,
0001
0010
0100
2000
0000
0000
3000
0000
,
0022
0000
0000
0000
,
0000
0000
0000
0033
;

//---------------dance-single - ----------------
#NOTEDATA:;
#CHARTNAME:;
#CHARTHASH:0:
#STEPSTYPE:dance-single;
#BANNER:;
#DESCRIPTION:;
#CHARTSTYLE:;
#DIFFICULTY:Medium;
#METER:10;
#METERF:0.000000;
#RADARVALUES:0.366717,0.422163,0.104169,0.394354,0.003720,345.000000,331.000000,14.000000,53.000000,0.000000,0.000000,0.000000,0.000000,0.000000,0.366717,0.422163,0.104169,0.394354,0.003720,345.000000,331.000000,14.000000,53.000000,0.000000,0.000000,0.000000,0.000000,0.000000;
#CREDIT:;
#DISPLAYBPM:120.000000;
#NOTES:
0000
0000
0000
0000
,
0000
0000
0000
0000
,
0001
0000
0001
0000
0001
1000
0000
0000
,
0001
0000
0001
0000
0001
1000
0000
0000
,
0001
0000
0001
0000
0001
1000
0000
0000
,
0001
0000
0001
0000
0001
1000
0000
0000
,
0020
0000
0000
0000
0000
1030
0001
0200
,
0000
0000
0000
0000
0000
0301
0010
0100
,
1000
0010
1000
0010
1000
0100
1000
0100
,
0001
0000
0001
0000
0001
1000
0000
0000
,
0002
0000
0000
0000
0000
1003
0010
0200
,
0000
0320
0000
0000
0000
1030
0000
0000
,
0001
0010
0100
0000
1000
0001
1000
0000
,
0010
0100
0001
2000
0000
3020
0000
0000
,
0230
0000
0001
0000
0000
0301
1000
0100
,
0020
0000
0001
0000
0031
1000
0000
0001
,
1000
0100
1000
0100
0010
0001
0010
0001
,
0200
0000
0000
0000
,
0000
0000
0000
0300
,
2001
0000
3002
0000
1003
0100
0010
0001
,
1000
0010
1000
0001
0000
0010
0001
0100
,
0001
1000
0100
1000
0000
0010
0100
0001
,
1000
0010
1000
0100
0000
0100
0010
0001
,
0000
0000
0011
0000
1100
0000
0001
1000
,
0010
1000
0010
0200
0000
0000
0000
0301
,
1000
0100
1000
0100
0010
0001
0010
0001
,
1000
0100
0010
0002
0000
0000
0003
0000
,
0012
0000
0000
1003
0010
0100
0010
0100
,
0002
0000
0000
0013
0100
1000
0100
1000
,
0020
0000
0000
1030
0001
0100
0001
0100
,
0020
0000
0000
0130
0001
1000
0001
1000
,
0200
0000
0000
0310
0100
1000
0100
1000
,
0002
0000
0000
1003
0100
0010
0100
0010
,
0200
0000
0000
1300
0001
0100
0001
0100
,
0020
0000
0000
2000
0000
0000
3030
0000
,
0010
0000
1001
0000
0100
0000
0001
1000
,
0001
0000
0110
0000
2000
0000
3001
1000
,
0020
0000
0000
0000
0000
0130
0001
2000
,
0000
3002
0000
0000
0000
0000
0103
0010
,
1000
0001
1000
0001
1000
0010
1000
0020
,
0000
2030
0000
0000
0000
3002
0000
0203
,
0002
0000
0000
0000
0300
1003
0100
0010
,
0001
2000
0020
0000
0000
3000
0130
0010
,
0100
0001
0100
0001
0010
0001
0010
0001
,
2000
0000
0001
0000
3001
1000
0010
0200
,
0000
0301
1000
0000
1100
0000
0010
0100
,
0000
0010
1000
0000
0101
0000
0001
0100
,
0000
0001
0010
0000
1001
0000
1000
0100
,
2000
0000
0000
3002
0000
0000
2003
0000
0002
0000
0000
0000
3003
0000
0000
0000
,
1002
0000
0023
0000
0130
1000
0001
1000
,
0010
0100
0001
1000
0000
1000
0100
0010
,
0001
0100
0001
1000
0000
1000
0010
0100
,
0001
1000
0001
0100
0000
0100
0010
1000
,
0000
0000
1010
0000
0101
0000
0010
0100
,
0001
1000
0001
0010
0200
0000
0000
1300
,
0001
0100
0001
0100
0010
1000
0010
1000
,
0001
0010
0100
2000
0000
0000
3000
0000
,
2010
0000
0000
3001
1000
0010
1000
0100
,
2000
0000
0000
3001
1000
0001
0100
0001
,
0020
0000
0000
0130
1000
0010
1000
0001
,
0020
0000
0000
0130
0010
0001
1000
0001
,
0200
0000
0000
0310
1000
0100
1000
0001
,
0020
0000
0000
0031
1000
0010
1000
0100
,
1000
0001
1000
0001
0100
0010
0100
0010
,
1000
0100
0010
0002
0000
0000
0003
0000
,
0022
0000
0000
0000
,
0000
0000
0000
0033
;

//---------------dance-single - ----------------
#NOTEDATA:;
#CHARTNAME:;
#CHARTHASH:0:
#STEPSTYPE:dance-single;
#BANNER:;
#DESCRIPTION:;
#CHARTSTYLE:;
#DIFFICULTY:Easy;
#METER:7;
#METERF:0.000000;
#RADARVALUES:0.222156,0.248331,0.104169,0.401795,0.000000,209.000000,195.000000,14.000000,54.000000,0.000000,0.000000,0.000000,0.000000,0.000000,0.222156,0.248331,0.104169,0.401795,0.000000,209.000000,195.000000,14.000000,54.000000,0.000000,0.000000,0.000000,0.000000,0.000000;
#CREDIT:;
#DISPLAYBPM:120.000000;
#NOTES:
0000
0000
0000
0000
,
0000
0000
0000
0000
,
0002
0000
0000
0000
0000
1003
0000
0000
,
0002
0000
0000
0000
0000
1003
0000
0000
,
0002
0000
0000
0000
0000
1003
0000
0000
,
0002
0000
0000
0000
0000
1003
0000
0000
,
0020
0000
0000
0000
0000
0130
0000
0000
,
0020
0000
0000
0000
0000
0130
0000
0000
,
0020
0000
0000
0000
0000
0130
0000
0000
,
0020
0000
0000
0000
0000
0130
0000
0000
,
0002
0000
0000
0000
0000
1003
0000
0000
,
0020
0000
0000
0000
0000
0130
0000
0000
,
0001
0010
0001
0100
,
0010
1000
0100
1000
,
0001
0010
0001
0100
,
1000
0010
1000
0001
,
0010
0100
1000
0001
,
0200
0000
0000
0000
,
0000
0000
0000
0300
,
2001
3002
2003
3010
,
1000
0001
0010
0100
,
1000
0010
1000
0001
,
0010
0001
0100
1000
,
0000
2100
3002
0103
,
0001
0010
1000
0000
,
0010
0100
0010
0100
,
0001
1000
0010
0010
,
2000
0000
0001
3100
,
0020
0000
0100
1030
,
0002
0000
0010
1003
,
0200
0000
0010
0301
,
2000
0000
0010
3100
,
0020
0000
0001
1030
,
0002
0000
0100
0013
,
2000
0000
0000
0002
0000
0000
3003
0000
,
0000
0000
1001
0000
0000
0000
0010
0100
,
0000
1001
0020
0031
,
1000
0001
1000
0100
,
0010
0001
0100
0010
,
1000
0001
1000
0010
,
0200
0000
0000
0000
0000
0310
0000
0000
,
1000
0010
1000
0100
,
0010
0100
0010
0001
,
0100
0001
0010
0001
,
2000
0000
0000
0000
0000
3001
0000
0000
,
0010
0100
2200
3300
,
0010
0100
0202
0303
,
1000
0001
0022
0033
,
1000
0001
2020
3030
,
2001
3002
2003
3100
,
1000
0010
1000
0001
,
0010
0100
0010
0001
,
1000
0010
0100
0001
,
0000
0210
0302
1003
,
0010
0100
0002
0003
,
1000
1000
0001
0001
,
0100
0010
0100
0010
,
0200
0000
1000
0301
,
2000
0000
0010
3100
,
0002
0000
0010
1003
,
0020
0000
0100
0130
,
2002
0003
0010
3100
,
2002
3000
0100
0013
,
1000
0001
0100
0010
,
1000
2200
0000
3300
,
0022
0000
0000
0000
,
0000
0000
0000
0033
;

//---------------dance-single - ----------------
#NOTEDATA:;
#CHARTNAME:;
#CHARTHASH:0:
#STEPSTYPE:dance-single;
#BANNER:;
#DESCRIPTION:;
#CHARTSTYLE:;
#DIFFICULTY:Beginner;
#METER:2;
#METERF:0.000000;
#RADARVALUES:0.107358,0.198665,0.029763,0.230660,0.000000,101.000000,97.000000,4.000000,31.000000,0.000000,0.000000,0.000000,0.000000,0.000000,0.107358,0.198665,0.029763,0.230660,0.000000,101.000000,97.000000,4.000000,31.000000,0.000000,0.000000,0.000000,0.000000,0.000000;
#CREDIT:;
#DISPLAYBPM:120.000000;
#NOTES:
// measure 0
0000
0000
0000
0000
,  // measure 1
0000
0000
0000
0000
,  // measure 2
0002
0000
0000
0000
0000
0003
0000
0000
,  // measure 3
0002
0000
0000
0000
0000
0003
0000
0000
,  // measure 4
0002
0000
0000
0000
0000
0003
0000
0000
,  // measure 5
0002
0000
0000
0000
0000
0003
0000
0000
,  // measure 6
2000
0000
0000
0000
0000
3000
0000
0000
,  // measure 7
2000
0000
0000
0000
0000
3000
0000
0000
,  // measure 8
2000
0000
0000
0000
0000
3000
0000
0000
,  // measure 9
2000
0000
0000
0000
0000
3000
0000
0000
,  // measure 10
0020
0000
0000
0000
0000
0030
0000
0000
,  // measure 11
0020
0000
0000
0000
0000
0030
0000
0000
,  // measure 12
0020
0000
0000
0000
0000
0030
0000
0000
,  // measure 13
0020
0000
0000
0000
0000
0030
0000
0000
,  // measure 14
0200
0000
0000
0000
0000
0300
0000
0000
,  // measure 15
0200
0000
0000
0000
0000
0300
0000
0000
,  // measure 16
0001
0000
1000
0000
,  // measure 17
0200
0000
0000
0000
,  // measure 18
0300
0000
0000
0000
,  // measure 19
1000
1000
1000
0000
,  // measure 20
0001
0000
0100
0000
,  // measure 21
0010
0000
0010
0000
,  // measure 22
1000
0000
0100
0000
,  // measure 23
0010
0010
0010
0000
,  // measure 24
0001
0000
1000
0000
,  // measure 25
0010
0000
0010
0000
,  // measure 26
0010
0000
0010
0000
,  // measure 27
2000
0000
0000
3000
0000
0000
0000
0000
,  // measure 28
0002
0000
0000
0003
0000
0000
0000
0000
,  // measure 29
0200
0000
0000
0300
0000
0000
0000
0000
,  // measure 30
0020
0000
0000
0030
0000
0000
0000
0000
,  // measure 31
2000
0000
0000
3000
0000
0000
0000
0000
,  // measure 32
0200
0000
0000
0300
0000
0000
0000
0000
,  // measure 33
0020
0000
0000
0030
0000
0000
0000
0000
,  // measure 34
0001
0000
1000
0000
,  // measure 35
0010
0000
0010
0000
,  // measure 36
0100
0000
1001
0000
,  // measure 37
0001
0000
0000
1000
,  // measure 38
1000
0000
0000
0010
,  // measure 39
0010
0000
1000
0000
,  // measure 40
0100
0000
0000
0010
,  // measure 41
0010
0000
0000
0001
,  // measure 42
0001
0000
0000
0100
,  // measure 43
0100
0000
0010
0000
,  // measure 44
1000
0000
0000
0000
,  // measure 45
0001
0000
0001
0000
,  // measure 46
1000
0000
1000
0000
,  // measure 47
0001
0000
1000
0000
,  // measure 48
1001
0000
0110
0000
,  // measure 49
0010
0010
0010
0000
,  // measure 50
1000
0000
0100
0000
,  // measure 51
1000
0000
0001
0000
,  // measure 52
1000
0000
0100
0000
,  // measure 53
1000
1000
1000
0000
,  // measure 54
0001
0000
1000
0000
,  // measure 55
0010
0000
0010
0000
,  // measure 56
0010
0000
0010
0000
,  // measure 57
2000
0000
0000
3000
0000
0000
0000
0000
,  // measure 58
0020
0000
0000
0030
0000
0000
0000
0000
,  // measure 59
0200
0000
0000
0300
0000
0000
0000
0000
,  // measure 60
0002
0000
0000
0003
0000
0000
0000
0000
,  // measure 61
2000
0000
0000
3000
0000
0000
0000
0000
,  // measure 62
0002
0000
0000
0003
0000
0000
0000
0000
,  // measure 63
0200
0000
0000
0000
,  // measure 64
0000
0000
0000
0300
0000
0000
0000
0000
,  // measure 65
0022
0000
0000
0000
,  // measure 66
0000
0000
0000
0033
;
