#TITLE:Rub-a Dub-a;
#SUBTITLE:;
#ARTIST:kors k;
#TITLETRANSLIT:;
#SUBTITLETRANSLIT:;
#ARTISTTRANSLIT:;
#GENRE:;
#CREDIT:;
#BANNER:Rub-a Dub-a-bn.png;
#BACKGROUND:Rub-a Dub-a-bg.png;
#LYRICSPATH:;
#CDTITLE:;
#MUSIC:Rub-a Dub-a.ogg;
#OFFSET:0.000000;
#SAMPLESTART:46.363998;
#SAMPLELENGTH:20.000000;
#SELECTABLE:YES;
#DISPLAYBPM:176.000000;
#BPMS:0.000000=176.000000
;
#STOPS:
;
#BGCHANGES:;
#KEYSOUNDS:;
#ATTACKS:;

//---------------dance-single - ----------------
#NOTES:
     dance-single:
     :
     Hard:
     12:
     0.628583,0.658071,0.733347,0.345104,0.099217,510.000000,425.000000,85.000000,40.000000,0.000000,0.000000,0.628583,0.658071,0.733347,0.345104,0.099217,510.000000,425.000000,85.000000,40.000000,0.000000,0.000000:
0000
0000
0000
0000
,
0000
0000
0000
0000
,
0000
0000
0000
0000
,
0000
0000
0000
0000
,
0001
1000
0010
1000
0100
0010
0001
0000
,
0100
0001
1000
0001
0010
0100
1000
0000
,
0010
0100
0001
0010
0001
0100
1000
0000
,
1000
0001
1000
0010
0100
0001
0010
0000
,
1001
0100
1000
0000
0110
0001
0010
0000
,
1100
0001
0100
0000
0011
1000
0010
0000
,
0101
0010
0100
0000
1010
0001
1000
0000
,
0010
0001
1000
0100
1000
0100
0010
0001
,
2200
0000
0000
0000
0000
0000
0000
0300
,
0000
0002
0000
0000
0000
0000
3000
0000
,
0200
0000
0000
0000
,
0003
0000
0000
0310
1000
0001
0010
0100
,
1000
1010
0000
1010
,
0000
0000
1010
0000
0001
0100
1000
0100
,
0001
0011
0000
0011
,
0000
0000
0011
0000
0100
0010
1000
0001
,
0000
0101
0000
0101
,
0000
0000
0101
0000
1000
0010
0001
0010
,
2000
0000
0100
0000
0000
0000
0001
3001
,
0000
0000
0011
0001
1000
0010
1000
0100
,
0020
0000
0031
0200
0000
1300
0200
0000
,
0301
0000
0010
0001
1000
0010
1000
0100
,
0010
0000
0001
0100
1020
1030
0000
2100
,
3001
0000
0012
0013
0000
0201
0301
0000
,
0110
0000
1000
0100
0001
0100
1000
0000
,
0010
0000
0100
0001
0010
0100
1000
0001
,
0020
0001
0000
0032
0100
0000
0203
1000
,
0000
2300
0010
0000
0001
0000
3100
0000
,
1100
0101
1100
0101
,
1100
0000
0101
0000
1000
0100
0001
0000
,
1002
0000
0103
0020
0000
1030
0001
1000
,
1010
0000
1010
0000
1010
0000
0100
0001
,
0011
0000
0011
0000
0011
0000
0100
0010
,
1001
0000
0100
0001
1000
0010
0100
0001
,
0012
0000
1003
0020
0000
1030
0100
0001
,
0101
0000
0101
0000
0101
0000
0010
1000
,
1100
0000
1100
0000
1100
0000
0010
0100
,
0110
0000
0001
1000
0001
0010
0100
1000
,
0201
0000
0301
2000
0000
3100
0010
0001
,
0011
0000
0011
0000
0011
0000
1000
0001
,
1100
0000
1100
0000
1100
0000
0010
0100
,
0110
0000
0010
1000
0001
1000
0100
0010
,
2001
0000
3100
2000
0000
3010
0100
0001
,
0101
0000
0101
0000
0101
0000
1000
0100
,
1010
0000
1010
0000
1010
0000
0010
0100
,
0110
1001
1001
1001
,
0110
0000
0010
1000
0100
0000
0000
1100
,
0000
0001
0001
1000
0101
0000
0020
0030
,
1001
0000
0001
0100
1000
0000
0010
0110
,
0000
0100
0010
1000
1000
0000
0001
1000
,
0010
0000
1000
0100
0001
0000
0010
0101
,
0000
1000
0001
0010
0011
0000
0200
0300
,
0100
0001
0010
1000
0010
1000
0001
0100
,
0010
0001
0010
0100
0010
1000
0010
0000
,
0101
0000
1000
0001
1010
0000
0010
0100
,
0000
1001
0000
1100
0001
0001
0001
0100
,
0002
0000
0000
0000
1003
0000
0000
0000
0020
0000
0000
0130
0000
0000
0110
0000
,
0000
0010
0010
1000
0001
0100
0100
0010
,
0101
0000
1000
0001
0010
0000
0000
1100
,
0000
0011
0000
0100
0100
0000
0001
1000
,
0001
0100
0010
0100
1000
0010
0001
1000
,
0010
0001
0010
0100
0010
1000
0010
0000
,
1000
0000
0000
0001
0000
0000
0010
0000
0100
0000
0000
1000
0000
0000
0010
0000
,
0100
0000
0000
0001
0000
0000
0010
0000
0002
0000
0000
0000
0103
0000
1000
0000
,
0010
0010
0100
0100
1000
0001
1000
0001
,
0010
1100
1100
1100
,
0001
0000
0000
0100
0000
0000
0010
0000
1000
0000
0000
0100
0000
0000
0010
0000
,
0100
0000
0000
0010
0000
0000
0001
0000
2000
0000
0000
0000
3010
0000
0100
0000
,
0010
0010
0100
0100
1000
0001
1000
0001
,
0100
0011
0011
0011
,
2000
0000
0000
3001
0000
0000
0000
0000
0020
0000
0000
0130
0000
0000
0000
0000
,
0002
0000
0000
0013
0000
0000
0000
0000
0200
0000
0000
1300
0000
0000
0000
0000
,
0020
0000
0000
1030
0000
0000
0000
0000
0002
0000
0000
0103
0000
0000
0000
0000
,
2000
0000
0000
3001
0000
0000
0000
0000
0200
0000
0000
0310
0000
0000
0000
0000
,
1000
0000
0000
1000
0000
0000
1000
0000
0010
0000
0000
0010
0000
0000
0010
0000
,
0100
0000
0000
0100
0000
0000
0100
0000
0001
0000
0000
0001
0000
0000
0001
0000
,
0010
0000
0000
0001
0000
0000
0100
0000
0010
0000
0000
1000
0000
0000
0100
0000
,
1000
0000
0000
0001
0000
0000
0100
0000
0001
0000
0000
0010
0000
0000
1000
0000
,
2002
0000
0000
0000
,
0000
0000
0000
0000
,
0000
0000
0000
3003
;

//---------------dance-single - ----------------
#NOTES:
     dance-single:
     :
     Medium:
     10:
     0.470821,0.584952,0.422753,0.552167,0.000000,382.000000,333.000000,49.000000,64.000000,0.000000,0.000000,0.470821,0.584952,0.422753,0.552167,0.000000,382.000000,333.000000,49.000000,64.000000,0.000000,0.000000:
0000
0000
0000
0000
,
0000
0000
0000
0000
,
0000
0000
0000
0000
,
0000
0000
0000
0000
,
0000
0002
0000
1003
0020
0000
0130
0000
,
0000
2000
0000
3010
0200
0000
0301
0000
,
0000
0002
0000
0013
0200
0000
1300
0000
,
0000
2000
0000
3001
0020
0000
0130
0000
,
2100
3001
0021
0130
,
0210
1300
2010
3001
,
0012
1003
2001
3100
,
1100
0101
1100
0101
,
2002
0000
0000
0000
0000
0000
0000
0003
,
0000
0020
0000
0000
0000
0000
0000
0000
,
0000
0000
0000
0000
,
0000
3030
0000
1000
0100
0010
0001
0100
,
1000
0000
0000
0000
,
0000
0000
0000
0000
0001
0100
1000
0100
,
0001
0000
0000
0000
,
0000
0000
0000
0000
0010
1000
0001
0100
,
0000
0000
0000
0000
,
0000
0000
0000
0000
1000
0010
0001
0010
,
2000
0000
0000
0000
0000
0000
0001
0002
,
0000
3003
0000
0010
0001
0100
0001
0010
,
2000
0000
0000
3100
0000
0000
0012
0000
,
1003
0010
0000
0200
0000
0001
0301
0000
,
0000
0000
0000
0000
1000
0100
0000
0100
,
0010
0000
0010
0001
0000
0001
1000
0000
,
0110
0000
0000
0000
,
0000
0000
0000
0000
0001
1000
0001
1000
,
0001
0100
0000
0100
0010
0000
0010
1000
,
0000
1000
0001
0000
1100
0000
0110
0000
,
0012
1000
0010
1000
,
0010
0100
0010
1003
,
2010
0000
0000
3002
0000
1003
0100
0010
,
0001
0000
0001
0000
0001
0000
0001
0100
,
1000
0000
1000
0000
1000
0000
1000
0100
,
0001
0000
0010
0001
0100
0000
0010
1000
,
0002
0000
0000
0023
0000
0031
0100
0010
,
1000
0000
1000
0000
1000
0000
1000
0010
,
0001
0000
0001
0000
0001
0000
0001
0010
,
1000
0000
1000
0001
0010
0000
0100
1000
,
0020
0000
1030
0200
0000
1300
0001
0100
,
0010
0000
0010
0000
0010
0000
0010
1000
,
0100
0000
0100
0000
0100
0000
0100
0010
,
0001
0000
0001
0100
0010
0000
1000
0100
,
2000
0000
0000
3020
0000
1030
0001
0100
,
0010
0000
0010
0000
0010
0000
0010
1000
,
0100
0000
0100
0000
0100
0000
0100
1000
,
0020
2030
3002
0103
,
1001
0000
0010
1000
0100
0000
0000
2000
,
0000
3002
0000
1003
0010
0000
0000
0000
,
0101
0000
1000
0001
0010
0000
0100
1000
,
0000
0001
0100
0010
1000
0000
0011
0000
,
1100
0000
0010
1000
0001
0000
0000
0110
,
0000
0001
1000
0100
1000
0000
0000
0000
,
0002
0023
0230
2300
,
3010
0100
0010
0100
0010
0100
0010
0000
,
0101
0000
0110
0000
1001
0000
0000
0010
,
0000
0010
0000
1000
0001
0100
0010
1000
,
0010
0100
0011
1010
,
0000
0001
2000
0000
3001
0010
0100
1000
,
0010
0000
0101
0000
1010
0000
0000
1001
,
0000
2000
0000
0100
3100
0000
0000
0000
,
0010
0001
0100
0000
0010
1000
0100
0000
,
1000
0001
1000
0001
1000
0001
1000
0000
,
2100
3001
0201
0310
,
1020
0000
1030
0000
0012
0000
0103
0010
,
1000
0000
1000
0100
0010
0000
0010
0001
,
0100
1001
1001
1001
,
1200
0310
0021
0031
,
0102
0000
1003
0000
2010
0000
3010
1000
,
0001
0000
0001
0010
0100
0000
0100
1000
,
0010
0110
0110
0110
,
0000
2000
0000
3001
0020
0000
0130
0000
,
0000
2000
0000
3010
0200
0000
0301
0000
,
0000
0200
0000
0310
0002
0000
1003
0000
,
0000
0020
0000
1030
0002
0000
0103
0000
,
0000
2010
0000
0100
0100
0000
3001
0000
,
0000
0021
0000
1000
1000
0000
0031
0000
,
0000
0201
0000
0010
0010
0000
0301
0000
,
0000
2100
0000
0100
0100
0000
3010
0000
,
2002
0000
0000
0000
,
0000
0000
0000
0000
,
0000
0000
0000
3003
;

//---------------dance-single - ----------------
#NOTES:
     dance-single:
     :
     Easy:
     7:
     0.346337,0.475273,0.310594,0.207063,0.000000,281.000000,245.000000,36.000000,24.000000,0.000000,0.000000,0.346337,0.475273,0.310594,0.207063,0.000000,281.000000,245.000000,36.000000,24.000000,0.000000,0.000000:
0000
0000
0000
0000
,
0000
0000
0000
0000
,
0000
0000
0000
0000
,
0000
0000
0000
0000
,
0001
0001
1000
1000
,
0001
0001
1000
1000
,
0010
0010
0100
0100
,
0010
0010
0100
0100
,
0001
0001
0010
0010
,
0100
0100
1000
1000
,
0010
0010
0100
0100
,
0001
1000
0001
1000
,
2002
0000
0000
0000
,
0000
0000
0000
0000
,
0000
0000
0000
0000
,
0000
3003
0100
0010
,
1000
0001
0000
0001
,
0000
0001
0000
0100
,
0000
0010
0000
0010
,
0000
1000
0000
0100
,
0000
1000
0000
0010
,
0000
1000
0000
0001
,
0000
0010
0000
0100
,
0000
0010
0000
0001
,
0000
0100
0000
0010
,
0000
0100
0000
0010
,
0000
1000
0000
0100
,
0000
0001
0000
1000
,
0000
0001
0000
0010
,
0000
0010
0000
0010
,
0000
0001
0000
0100
,
0000
0010
0000
1000
,
0010
0010
0010
0010
,
0010
0010
0010
0110
,
2002
3003
1000
0001
,
0010
0010
0010
0011
,
0100
0100
0100
0101
,
1000
0001
1000
0010
,
0220
0330
0010
1000
,
0001
0001
0001
0101
,
1000
1000
1000
1100
,
0010
1000
0100
0010
,
0022
0033
0100
0010
,
1000
1000
1000
1010
,
0100
0100
0100
0101
,
0001
1000
0010
0100
,
2020
3030
1000
0100
,
0010
0010
0010
1001
,
0001
0001
0001
0101
,
1000
0001
1000
0100
,
0110
0001
1000
0000
,
0010
1000
0100
1100
,
0001
0100
1000
0010
,
1000
0100
0001
0010
,
1001
0100
0010
0000
,
1000
0100
0001
0011
,
2000
3020
0230
0302
,
0013
0010
0101
1100
,
0001
0100
1001
0000
,
0010
1000
0110
0101
,
1000
0001
1100
0011
,
0001
0100
0010
1000
,
0110
0010
1000
0000
,
1100
0010
0001
0100
,
0001
0001
1000
1000
,
0100
0010
0100
0010
,
0002
0003
2000
3000
,
0020
0030
0200
0300
,
0001
1000
0010
1000
,
0100
0010
0010
0010
,
0200
0300
2000
3000
,
0002
0003
0020
0030
,
0001
0100
0010
1000
,
0100
0010
0010
0010
,
1100
0000
1100
0000
,
0101
0000
0101
0000
,
1010
0000
1010
0000
,
0011
0000
0011
0000
,
1000
1000
0001
0001
,
0010
0010
0100
0100
,
1000
0010
0100
0001
,
0010
0100
1000
0001
,
2002
0000
0000
0000
,
0000
0000
0000
0000
,
0000
0000
0000
3003
;

//---------------dance-single - ----------------
#NOTES:
     dance-single:
     :
     Beginner:
     3:
     0.179947,0.282986,0.060393,0.086276,0.000000,146.000000,139.000000,7.000000,10.000000,0.000000,0.000000,0.179947,0.282986,0.060393,0.086276,0.000000,146.000000,139.000000,7.000000,10.000000,0.000000,0.000000:
0000
0000
0000
0000
,
0000
0000
0000
0000
,
0000
0000
0000
0000
,
0000
0000
0000
0000
,
0000
0000
0001
0001
,
0000
0000
0100
0100
,
0000
0000
0010
0010
,
0000
0000
1000
0000
,
1000
0000
1000
0000
,
0001
0000
0001
0000
,
0100
0000
0100
0000
,
0010
0000
0010
0000
,
0220
0000
0000
0000
,
0000
0000
0000
0330
,
0000
0000
0000
0000
,
0000
0000
0001
0000
,
0001
0000
0000
0000
,
0000
0000
0100
0000
,
0100
0000
0000
0000
,
0000
0000
1000
1000
,
0000
0000
0000
0000
,
0000
0000
0010
0000
,
2000
0000
3000
0000
,
0001
0000
0100
0000
,
0010
0000
0000
0000
,
0000
0000
1000
0000
,
0001
0000
0000
0000
,
0000
0000
0010
0010
,
0000
0000
0000
0000
,
0000
0000
0100
0000
,
1000
0000
1000
0000
,
0001
0000
0001
0000
,
2002
0000
0000
0000
,
0000
0000
3003
0000
,
0020
0000
0030
0000
,
1000
1000
1000
0000
,
0001
0001
0001
0000
,
0100
0000
0010
0000
,
0200
0000
0300
0000
,
0001
0001
0001
0000
,
1000
1000
1000
0000
,
0100
0000
0010
0000
,
0002
0000
0003
0000
,
0100
0100
0100
0000
,
0010
0010
0010
0000
,
1000
0000
0001
0000
,
2000
0000
3000
0000
,
0010
0010
0010
0000
,
0100
0100
0100
0000
,
0001
0000
1000
0000
,
0010
0000
0010
0000
,
0100
0000
0100
0000
,
0001
0000
0001
0000
,
1000
0000
1000
0000
,
0001
0000
0100
0000
,
0010
0000
1000
0000
,
0020
0000
0000
0000
,
0000
0000
0030
0000
,
1000
1000
1000
0000
,
0001
0001
0001
0000
,
0010
0000
0100
0000
,
0010
0000
0001
0000
,
0100
0100
0100
0000
,
0010
0010
0010
0000
,
1000
0000
0001
0000
,
0100
0100
0100
0000
,
0001
0000
1000
0000
,
0001
0000
1000
0000
,
0100
0100
0100
0000
,
0010
0010
0010
0000
,
0010
0000
0100
0000
,
0010
0000
0100
0000
,
1000
1000
1000
0000
,
0001
0001
0001
0000
,
0110
0000
0000
0000
,
1001
0000
0000
0000
,
0110
0000
0000
0000
,
1001
0000
0000
0000
,
0000
0000
1000
1000
,
0000
0000
0100
0100
,
0000
0000
0010
0010
,
0000
0000
0001
0000
,
1001
0000
0000
0000
;

//---------------dance-single - ----------------
#NOTES:
     dance-single:
     :
     Challenge:
     15:
     0.889876,1.060225,0.897271,0.465891,0.629815,722.000000,618.000000,104.000000,54.000000,0.000000,0.000000,0.889876,1.060225,0.897271,0.465891,0.629815,722.000000,618.000000,104.000000,54.000000,0.000000,0.000000:
// measure 0
0000
0000
0000
0000
,  // measure 1
0000
0000
0000
0000
,  // measure 2
0000
0000
0000
0000
,  // measure 3
0000
0000
0000
0000
,  // measure 4
0001
0000
0000
0001
0100
0000
0010
0000
1000
0000
0000
1000
0100
0000
0010
0000
,  // measure 5
0001
0000
0000
0001
0100
0000
0010
0000
1000
0000
0001
0000
1000
0000
0100
0000
,  // measure 6
0010
0001
0100
0010
1000
0001
1000
0100
,  // measure 7
0001
0100
0010
0001
1000
0100
1000
0010
,  // measure 8
1010
1000
0100
0010
0011
0001
0100
0010
,  // measure 9
0101
1000
0001
0010
1100
0100
1000
0001
,  // measure 10
0101
0100
0110
0010
1010
1000
1001
0001
,  // measure 11
1000
0100
1000
0100
0010
0001
0010
0001
0100
0010
0100
0010
1000
0001
1000
0001
,  // measure 12
0010
0000
0002
0000
0000
0000
0000
0000
0000
2000
0000
0000
0000
0000
0000
0000
,  // measure 13
0003
0200
0000
0000
0000
0000
3000
0000
,  // measure 14
0020
0000
0000
0000
,  // measure 15
0000
0000
0330
0001
0100
0010
1000
0001
,  // measure 16
0100
0101
0001
0011
,  // measure 17
1000
0000
0000
0000
1100
0000
0000
1000
0001
0000
0100
0000
1000
0000
0001
0000
,  // measure 18
0100
1010
1000
0110
,  // measure 19
0001
0000
0000
0000
1001
0000
0000
1000
0010
0000
0001
0000
0010
0000
1000
0000
,  // measure 20
0100
0011
0001
0101
,  // measure 21
0010
0000
0000
0000
1001
0000
0000
0100
0010
0000
0001
0000
0010
0000
1000
0000
,  // measure 22
2010
0000
0100
0000
3010
0000
1100
0002
,  // measure 23
0100
0000
0000
0000
0013
0000
0000
0001
1000
0100
0010
0001
0100
0010
1000
0000
,  // measure 24
0110
0001
0100
0010
1000
0100
0001
0000
,  // measure 25
0010
0000
0001
0000
0100
0000
0010
1000
0010
0000
0100
0000
0001
0000
1000
0000
,  // measure 26
1100
0001
0100
0010
1010
1010
0000
0101
,  // measure 27
0101
0000
1100
1100
0000
0011
0011
0000
,  // measure 28
1001
0000
0010
1000
0100
0010
0001
0000
,  // measure 29
1000
0000
0001
0000
0010
0000
0100
1000
0100
0000
0010
0000
0001
0000
0100
0000
,  // measure 30
0101
0101
0000
0011
0011
0000
1100
1100
,  // measure 31
0000
1010
1010
0000
0110
0000
1001
0000
,  // measure 32
2000
0100
0000
0000
3002
0100
0000
0000
2003
0100
0000
0000
3002
0100
0000
0000
,  // measure 33
2003
0100
0000
0000
3002
0100
0000
0000
1003
0100
0001
0100
0010
0100
1000
0000
,  // measure 34
1010
0000
0001
0100
0001
0000
0010
0000
0100
0000
1000
0001
1000
0000
0010
0000
,  // measure 35
2000
0010
0000
0000
3020
0100
0000
0000
0230
0001
0000
0000
0301
0000
1100
0000
,  // measure 36
0020
0100
0000
0000
0230
0001
0000
0000
0302
1000
0000
0000
1003
0000
0011
0000
,  // measure 37
2000
0001
0000
0000
3001
0000
0100
0000
0110
0000
0010
0000
1000
0000
0001
0000
,  // measure 38
0101
0000
0010
1000
0010
0000
0100
0000
0001
0000
1000
0001
1000
0000
0100
0000
,  // measure 39
0020
0001
0000
0000
0032
0100
0000
0000
0203
0010
0000
0000
0310
0000
1001
0000
,  // measure 40
2000
0001
0000
0000
3002
0010
0000
0000
0023
0100
0000
0000
0130
0000
1100
0000
,  // measure 41
0020
1000
0000
0000
1030
0000
0001
0000
0110
0000
0100
0000
0001
0000
0010
0000
,  // measure 42
1100
0000
0001
0100
0010
0000
1000
0000
0100
0000
0010
0001
1000
0000
0010
0000
,  // measure 43
0200
0001
0000
0000
0320
1000
0000
0000
0230
1000
0000
0000
0301
0000
1010
0000
,  // measure 44
0002
0010
0000
0000
2003
0100
0000
0000
3020
0001
0000
0000
0130
0000
1001
0000
,  // measure 45
2000
0010
0000
0000
3001
0000
0110
0000
1000
0010
0100
0000
0001
1000
0010
0000
,  // measure 46
1001
0000
0010
1000
0001
0000
0010
0000
0100
0000
1000
0001
0100
0000
0010
0000
,  // measure 47
2000
0010
0000
0000
3200
1000
0000
0000
0320
0100
0000
0000
0031
0000
0101
0000
,  // measure 48
0020
0001
0000
0000
2030
0100
0000
0000
3002
1000
0000
0000
0103
0000
1010
0000
,  // measure 49
0002
0000
0000
0000
1003
0100
1000
0000
0001
0100
0001
0000
0110
0000
0000
0000
,  // measure 50
1001
0000
0010
0100
0011
0000
1000
0110
,  // measure 51
0000
0000
0000
0000
1100
0000
0000
0000
0001
0000
1000
0000
0001
0000
0000
0000
0100
0000
0000
0000
0000
0000
0000
0000
2000
0020
0000
3030
0000
0000
0000
0000
,  // measure 52
0101
0000
0000
0000
0100
0010
0100
0000
1001
0000
0000
0000
0001
1000
0001
0000
,  // measure 53
0000
0000
0010
0100
1000
0000
0010
0000
1010
0000
0000
0000
0001
0100
0010
1000
,  // measure 54
0001
0000
1100
0010
0102
1000
1003
0110
,  // measure 55
0000
0000
0001
0000
0001
0000
0001
0100
2000
0000
0000
0000
3010
0100
0001
0000
,  // measure 56
1000
0100
1000
0000
0001
0000
0100
0000
0101
0000
1000
0000
0001
0000
1100
0000
,  // measure 57
0001
0000
0001
0100
0010
0000
0010
1000
0100
0000
1001
0000
0110
0000
0000
0000
,  // measure 58
0101
0000
1000
0100
0011
0000
0100
1010
,  // measure 59
0000
0000
0110
0000
0000
0000
0010
0000
1001
0000
0001
0100
1000
0000
0010
0000
,  // measure 60
1100
0000
0000
0000
1010
0000
0000
0000
1001
0000
0000
0101
0000
0000
0011
0000
,  // measure 61
0000
0000
1000
0100
0001
0100
1000
0000
0010
0000
0010
0000
0010
0000
0100
0000
,  // measure 62
0110
0000
0000
0000
1000
0001
0010
0001
1000
0000
0000
0010
0100
0000
1010
0000
,  // measure 63
0000
0000
0011
0000
0000
0000
1000
0000
1100
0000
0001
0100
0010
1000
0100
0010
,  // measure 64
0001
0000
0001
0000
1000
0000
1000
0000
0010
0100
0010
1000
0100
0001
0100
0010
,  // measure 65
0100
0100
0100
0100
0100
1100
0101
0000
,  // measure 66
2000
0010
0000
3010
0100
0000
0001
0000
0020
0100
0000
0130
1000
0000
0001
0000
,  // measure 67
0200
1000
0000
1300
0100
0000
0001
0000
0020
1000
0000
1030
0010
0000
0001
0100
,  // measure 68
0001
0000
1000
0100
1000
0000
0001
0010
0001
0000
1000
0010
1000
0000
0001
0000
,  // measure 69
0010
0000
0100
0000
1100
0000
0001
0000
1100
0000
0010
0000
1100
0000
1000
0001
,  // measure 70
0200
0010
0000
0310
1000
0000
0001
0000
0020
0001
0000
0031
1000
0000
0100
0000
,  // measure 71
2000
0001
0000
3001
0100
0000
0010
0000
2000
0100
0000
3100
1000
0000
0001
0010
,  // measure 72
0001
0000
1000
0010
1000
0000
0001
0100
0001
0000
1000
0100
1000
0000
0010
0000
,  // measure 73
0100
0000
0001
0000
0011
0000
1000
0000
0011
0000
0100
0000
0011
0000
0010
0001
,  // measure 74
1000
0000
0000
1100
0000
0000
0001
0000
0100
0000
0000
0110
0000
0000
0010
0000
,  // measure 75
1000
0000
0000
0101
0000
0000
0010
0000
0001
0000
0000
1001
0000
0000
0100
0000
,  // measure 76
0010
0000
0000
1010
0000
0000
0001
0000
0100
0000
0000
0011
0000
0000
1000
0000
,  // measure 77
0010
0000
0000
0110
0000
0000
0100
0000
0001
0000
0000
1100
0000
0000
1000
0000
,  // measure 78
0010
1000
0000
0010
1000
0000
0101
0000
0001
0100
0000
0001
0100
0000
0011
0000
,  // measure 79
1000
0100
0000
1000
0100
0000
1010
0000
0001
0010
0000
0001
0010
0000
1001
0000
,  // measure 80
1000
1000
0100
0100
0010
0010
0001
0001
,  // measure 81
0100
0010
0100
0010
1000
0010
1000
0010
1000
0001
1000
0001
0100
0001
0100
0002
,  // measure 82
0020
0000
0000
0000
,  // measure 83
0000
0000
0000
0000
,  // measure 84
0000
0000
0000
0033
;
