#TITLE:Romancing Layer;
#ARTIST:TAG;
#BANNER:Romancing Layer.png;
#BACKGROUND:Romancing Layer-bg.png;
#JACKET:Romancing Layer-jacket.png;
#MUSIC:Romancing Layer.ogg;
#SAMPLESTART:52.8;
#SAMPLELENGTH:20;
#DISPLAYBPM:150;
#BPMS:0=150;
#BGCHANGES:;

//---------------dance-single - ----------------
#NOTES:
     dance-single:
     :
     Beginner:
     2:
     :
0000
0000
0000
0000
,
0000
0000
0000
0000
,
0000
0000
0000
0000
,
0000
0000
0000
0000
,
0000
0000
0000
0000
,
0001
0000
0100
0000
,
0001
0000
0010
0000
,
0001
0000
0100
0000
,
0001
0000
0010
0000
,
1000
0000
1000
0000
,
1000
0000
1000
0000
,
0001
0001
0001
0000
,
0100
0100
0100
0000
,
1000
0000
1000
0000
,
1000
0000
1000
0000
,
0001
0001
0001
0000
,
0010
0000
0000
0000
,
0001
0000
0001
0000
,
0001
0000
0001
0000
,
0100
0100
0100
0000
,
0010
0010
0010
0000
,
0001
0000
0001
0000
,
0001
0000
0001
0000
,
1000
1000
1000
0000
,
0010
0010
0010
0000
,
0100
0000
0000
0000
,
1000
0000
1000
0000
,
0100
0000
0000
0000
,
0010
0000
0000
0000
,
0001
0000
0000
0000
,
0100
0000
0100
0000
,
1000
0000
0000
0000
,
0010
0000
0000
0000
,
1000
0000
0001
0000
,
0010
0010
0010
0000
,
0001
0000
0001
0000
,
1000
0000
1000
0000
,
0100
0000
0001
0000
,
0100
0100
0100
0000
,
0001
0000
0010
0000
,
1000
0000
0010
0000
,
0001
0000
1000
0000
,
0010
0010
0010
0000
,
1000
0000
0001
0000
,
1000
1000
1000
0000
,
0010
0000
0100
0000
,
0001
0000
1000
0000
,
0001
0001
1000
1000
,
0001
0001
1000
0000
,
0010
0010
0010
0010
,
0010
0010
0010
0000
,
1000
1000
1000
1000
,
1000
1000
1000
0000
,
0001
0001
0001
0001
,
0001
0001
0001
0000
,
0100
0100
0100
0000
,
0100
0000
0010
0000
,
1000
0000
0001
0000
,
1001
0000
0000
0000
,
0000
0000
0000
0000
;

//---------------dance-single - ----------------
#NOTES:
     dance-single:
     :
     Easy:
     6:
     :
0000
0000
0000
0000
,
0000
0000
0000
0000
,
0000
0000
0000
0000
,
0000
0000
0000
0000
,
0000
0000
0000
0000
,
0000
1001
0100
0001
,
0000
1001
0010
1000
,
0000
1001
0010
0100
,
0000
1001
0100
0010
,
0100
0000
0100
0000
,
0010
0000
0010
0000
,
0100
0100
0001
1000
,
0100
0100
0001
1000
,
0100
0000
0100
0000
,
0010
0000
0010
0000
,
0001
0001
0100
1000
,
0001
0001
0010
1000
,
0000
1001
1000
0100
,
0000
0110
0010
0001
,
1000
0010
0100
1000
,
0001
0010
0100
0001
,
0000
1001
0001
0100
,
0000
0110
0010
1000
,
0001
0010
1000
0100
,
0001
1000
0010
0001
,
0200
0000
0000
0300
,
0002
0000
0023
0000
,
0230
0000
2300
0000
,
0000
0000
3000
0000
,
0020
0000
0000
0030
,
0200
0000
0320
0000
,
2030
0000
3002
0000
,
1003
0000
0000
0000
,
0010
0000
0010
0000
0010
0010
0010
0000
,
0100
1001
0100
0000
,
0001
0001
1000
1000
,
0001
0110
1000
0010
,
0200
0000
0310
1000
,
0100
1000
0001
0010
,
0100
1001
0100
1001
,
0010
1001
2002
3003
,
0100
0000
0100
0000
0010
0010
0010
0000
,
0100
1001
0020
0130
,
1000
0100
0001
0100
,
1000
1000
0001
0100
,
0020
0000
1030
0100
,
0001
0010
0001
0100
,
0010
0110
0010
0110
,
1000
1001
2002
3003
,
0100
0000
0100
0000
0100
0100
0100
0000
,
1000
0000
1000
0000
1000
1000
1000
0000
,
0001
0000
0001
0000
0001
0001
0001
0000
,
0010
0000
0010
0000
0010
0010
0010
0000
,
1000
0100
0001
1000
,
0010
0100
0001
0010
,
1000
0001
2002
0000
,
0000
3003
0010
1000
,
0200
0000
0020
0330
,
1001
0000
0000
0000
,
0000
0000
0000
0000
;

//---------------dance-single - ----------------
#NOTES:
     dance-single:
     :
     Medium:
     11:
     :
0000
0000
0000
0000
,
0000
0000
0000
0000
,
0000
0000
0000
0000
,
0000
0000
0000
0000
,
0000
0000
0000
0000
,
0000
0010
1000
0000
0001
1000
0010
0100
,
0000
0100
0010
0000
1000
0001
0100
0001
,
0000
0010
0001
0000
1000
0010
0100
0001
,
0000
0001
1000
0000
0100
1000
0001
0100
,
1000
1000
0100
1000
,
0001
0100
0001
0001
,
1000
0100
1000
0000
0100
0001
0100
0000
,
0001
0100
0001
0000
0100
1000
0100
0000
,
0100
0010
1000
1000
,
0001
1000
0010
0010
,
0001
0010
0001
0000
0010
1000
0010
0000
,
1000
0010
1000
0000
0010
0001
0010
0001
,
0000
1000
0001
0000
1000
0000
0101
0000
,
0000
0010
1000
0000
0100
0000
0011
0000
,
1000
0000
0000
1000
0000
0000
1000
0000
0001
0000
0000
0001
0000
0000
0001
0000
,
0100
0000
0000
0100
0000
0000
0100
0000
0010
0000
0000
0010
0000
0000
0010
0000
,
0000
0100
0001
0000
1000
0000
0011
0000
,
0000
1000
0010
0000
0001
0000
0110
0000
,
0100
0000
0000
0100
0000
0000
0100
0000
0001
0000
0000
0001
0000
0000
0001
0000
,
1000
0000
0000
1000
0000
0000
1000
0000
0020
0000
0000
0000
0230
0000
0000
0000
,
0301
0000
1000
0000
0000
0000
0000
1000
,
0100
0000
0000
0100
0010
0000
0000
0010
,
0001
0000
1000
0002
0000
0000
0100
0000
,
1000
0013
0010
0100
,
1000
0000
0000
0000
0000
0001
1000
0000
,
0010
0100
0001
0100
,
1000
0010
0100
0001
,
0010
0000
0000
0010
0200
0000
0300
0000
,
1000
0010
1000
0001
0100
0010
0100
0001
,
0010
0001
0100
0010
1000
0001
1000
0100
,
0010
0000
0001
0000
1000
0010
1000
0000
,
0001
0000
0100
0000
0010
1000
0100
0000
,
2100
0000
0000
3001
0100
0000
0001
0000
,
0010
0100
1000
0100
0010
0000
0001
0000
,
1000
0000
0000
1000
0000
0000
0001
0000
0010
0000
0000
0010
0000
0000
0100
0000
,
1000
0000
0000
1000
0000
0000
0010
0000
0100
0000
0000
0100
0000
0000
0001
0000
,
1000
0001
0010
0001
0100
0010
0100
0001
,
1000
0010
0100
0001
0010
0100
0010
0001
,
1000
0101
0001
1100
,
1000
0000
0100
0000
0010
0001
0100
0000
,
1002
0000
0000
1003
0100
1000
0010
0000
,
0100
0000
0100
0001
0000
0010
0100
0000
,
1000
0000
0000
0100
0000
0000
1000
0000
0100
0000
0000
0010
0000
0000
0100
0000
,
0010
0000
0000
0001
0000
0000
0010
0000
0001
0000
0000
0000
1001
0000
0000
0000
,
0001
1000
0001
1000
0001
1000
0001
1000
,
0010
0100
0010
0100
0010
0100
0010
0100
,
0001
0010
0001
0010
0100
1000
0100
1000
,
0001
0100
0001
0100
0010
1000
0010
0000
,
1000
0001
1000
0000
0100
0000
0001
0000
,
1000
0010
1000
0000
0001
0000
0100
0000
,
0020
0000
0000
1000
2000
0000
0000
0000
,
0000
0000
0000
0000
3030
0000
0000
0000
0001
0000
0000
0010
0000
0000
0100
0000
,
2000
0000
0000
0001
0002
0000
3003
0000
,
1001
0000
0000
0000
,
0000
0000
0000
0000
;

//---------------dance-single - ----------------
#NOTES:
     dance-single:
     :
     Hard:
     14:
     :
0000
0000
0000
0000
,
0000
0000
0000
0000
,
0000
0000
0000
0000
,
0000
0000
0000
0000
,
0000
0000
0000
0000
,
0001
0000
0010
0000
0001
0000
1000
0000
0010
0000
0100
0001
0000
1000
0000
0001
,
0100
0000
0010
0000
0100
0000
0001
0000
0010
0000
0100
1000
0000
0001
0000
1000
,
0010
0000
0100
0000
0001
0000
0010
0000
0100
0000
1000
0001
0000
0010
0000
0001
,
0100
0000
0010
0000
1000
0000
0100
0000
0010
0000
0100
1000
0000
0001
0000
0100
,
0001
0001
0001
0001
,
1000
1000
1000
1000
,
0001
0010
0001
0010
0001
0100
0001
0100
,
1000
0100
1000
0100
1000
0010
1000
0010
,
0001
0001
0001
0001
,
1000
1000
1000
1000
,
0001
0010
0001
0010
1000
0010
1000
0010
,
1000
0100
1000
0100
0001
0100
0001
0100
,
0110
0000
1000
0000
0001
0000
1000
0001
0000
0010
0000
0001
1000
0000
0001
0000
,
0100
0000
0010
0000
1000
0000
0010
1000
0000
0001
0000
0100
0001
0000
1000
0000
,
0001
0000
0010
0100
0000
0010
0100
0000
1000
0000
0010
0100
0000
0010
0100
0000
,
0001
0000
0010
0100
0000
0010
0100
0000
1000
0000
0010
0100
0000
0010
0100
0000
,
0001
0000
0010
0000
0001
0000
1000
0010
0000
0100
0000
0001
0010
0000
0100
0000
,
1000
0000
0001
0000
0100
0000
0010
1000
0000
0100
0000
0010
0001
0000
0100
0000
,
0010
0000
0100
0010
0000
0100
0010
0000
1000
0000
0001
1000
0000
0001
1000
0000
,
0010
0000
0100
0001
0000
1000
0010
0000
0100
0000
0010
0000
0010
0000
0010
0000
,
2000
0000
0000
0000
0002
0000
0000
0000
0000
0000
0000
0000
3003
0000
0010
0001
,
0010
0000
0000
0001
0000
0000
0001
0000
1000
0000
0000
0010
0000
0000
0010
0000
,
1000
0000
0000
0001
0000
0000
0100
0000
0000
0000
0020
0000
0230
0000
0320
0000
,
2030
3200
0320
0032
1003
0020
0130
0002
,
0010
0000
0000
0000
0003
1000
0010
0001
,
0010
0100
0001
0010
,
1000
0000
0000
0001
0000
0000
1000
0000
0000
0000
0000
0000
0000
0000
0010
1000
,
0010
0000
0000
0001
0001
0000
0000
0000
,
1001
0000
0001
0000
0100
0010
0100
0010
1000
0000
0001
0000
0010
0100
0010
0100
,
1000
0000
0000
1100
0000
0000
0011
0000
0001
0000
0100
0000
0010
1000
0010
0000
,
1000
0000
1000
0100
0000
0100
0010
0000
0001
0000
0001
1000
0000
1000
0010
0000
,
0100
0001
0100
1000
0100
0002
0000
1003
,
1200
0000
0000
0000
0310
0000
0001
1000
0001
0000
1000
0000
0010
0000
0100
0000
,
0001
0100
1000
0100
0100
0001
0100
0010
,
1010
0000
1000
0001
0000
0010
0001
0000
1001
0000
1000
0100
0000
0010
0100
0000
,
0110
0000
0010
0001
0000
0100
0001
0000
0101
0000
0100
0010
0000
1000
0001
0000
,
1001
0000
0010
0000
1000
0010
1000
0010
0100
0000
0100
0000
0001
0010
0001
0010
,
1000
0000
0000
0110
0000
0000
0011
0000
0001
0000
0100
0000
0010
1000
0001
0100
,
0010
0000
1000
0001
0000
1000
0010
0000
0100
0000
0010
1000
0000
0001
1000
0000
,
0100
0010
0100
1000
0001
2000
0000
3001
,
0201
0000
0000
0000
0310
0000
1000
0010
1000
0000
0100
0000
0010
0000
0001
0000
,
0100
0010
0001
0010
0010
0100
0001
1000
,
1001
0000
1000
0100
0000
1000
0010
1000
0001
0000
0001
0010
0000
0001
0100
0001
,
0010
0000
0010
0100
0000
1000
0001
1000
0010
0000
0010
0100
0000
0001
1000
0000
,
0001
0100
0010
0000
0010
1000
0000
1000
0100
0000
0100
0010
0000
0010
0000
0001
,
1000
0001
0010
0000
0010
0001
0000
0001
0100
0000
0100
1000
0000
1000
0000
0100
,
0010
0000
1000
0010
0000
0001
0010
0000
1000
0010
0000
0001
0010
0000
1000
0000
,
0001
0000
0001
0010
0000
0010
0100
0000
0100
1000
0000
1000
0001
0000
1000
0000
,
0010
0000
0100
0000
0001
1000
0001
1000
0010
0000
0100
0001
1000
0100
0000
0100
,
0010
0000
0001
0000
1000
0010
1000
0010
0100
0000
0001
1000
0001
0000
0100
0000
,
0102
0000
1003
0100
2100
0000
0001
0000
,
0010
0000
3001
0000
0100
0001
1000
0010
,
0102
0000
0000
0000
0013
0000
0100
0000
1000
0001
1000
0001
1000
0001
1000
0001
,
0010
0000
0000
0000
,
0000
0000
0000
0000
;

//---------------dance-single - ----------------
#NOTES:
     dance-single:
     :
     Challenge:
     17:
     :
0000
0000
0000
0000
,
0000
0000
0000
0000
,
0000
0000
0000
0000
,
0000
0000
0000
0000
,
0000
0000
0000
0000
,
0001
0000
0011
0000
0011
0000
0000
0000
1000
0010
0000
0100
0000
0010
0000
1000
,
0100
0000
1100
0000
1100
0000
0000
0000
0001
0000
0010
0001
0000
1000
0000
0010
,
0100
0000
0110
0000
0110
0000
0000
0000
0001
1000
0001
0010
0000
0100
0000
1000
,
0010
0000
1010
0000
1010
0000
0000
0000
1000
0001
1000
0010
0000
0100
0000
0001
,
1000
0000
0100
0000
0100
0000
1000
0010
0000
0100
0000
0001
1000
0000
0001
0000
,
0000
0000
0010
0000
0010
0000
0001
1000
0000
0010
0000
1000
0100
1000
0001
0000
,
0010
0000
0001
1000
0000
1000
0100
0000
0010
0000
0001
0100
0000
0100
0010
0000
,
1000
0000
0001
0010
0000
0010
0100
0000
0010
0000
0001
1000
0000
1000
0100
0000
,
0000
0000
1000
0000
1000
0000
0001
0010
0000
0001
0000
0100
0010
0100
0001
0000
,
0000
0000
0001
0000
0001
0000
0010
0100
0000
1000
0000
0100
1000
0010
1000
0000
,
0100
0001
0100
0010
0000
0010
1000
0000
0100
1000
0001
1000
0000
0001
0010
0000
,
0001
0010
0100
1000
0000
0001
1000
0000
0010
0100
0001
1000
0010
0100
0001
1000
,
0100
0000
1001
0000
1001
0000
0010
1000
0000
0001
0000
0010
0001
0100
0010
1000
,
0000
0000
0110
0000
0110
0000
0010
1000
0000
0100
0000
1000
0001
0010
0001
0100
,
0010
1000
0010
1000
0000
1000
0100
0000
0010
0001
0100
0001
0000
0001
0100
0000
,
0010
1000
0001
1000
0000
0100
0010
0000
0001
0010
0001
0100
0000
0100
1000
0000
,
0000
0000
1100
0000
1100
0000
0010
0100
0000
0001
0000
0010
0001
1000
0100
1000
,
0000
0000
0101
0000
0101
0000
0001
0010
0000
0100
0000
0010
0100
1000
0001
1000
,
0010
1000
0100
0010
0000
0001
0100
0001
0010
0001
1000
0010
0000
1000
0100
0010
,
0001
0100
0010
1000
0000
0100
0010
0000
0001
0100
0001
0100
0010
1000
0010
1000
,
0100
0000
0000
0000
1010
0000
0001
0000
1000
0000
0100
0000
0010
0000
0001
0100
,
0002
0000
0000
0023
0000
0000
0230
0000
2300
0000
0000
3020
0000
0000
0230
0000
,
0301
0000
0010
0100
1000
0000
1100
0000
0000
0000
0002
0000
0023
0000
0230
0000
,
2300
0000
3020
0000
2030
0000
3002
0000
0103
0001
2000
0000
3100
0010
0001
0000
,
0100
0000
0010
1000
0010
0000
0100
0000
0000
0001
1000
0000
0001
0000
0010
0000
,
0100
0000
1000
0100
1000
0000
0010
0000
0100
0001
0100
0000
0010
0000
1000
0001
,
1000
0000
0100
0010
0000
0010
0001
0000
0000
0100
0010
0000
1000
0000
0001
1000
,
0200
0000
0000
0000
0000
0000
0010
0010
0020
0000
0000
0000
0330
0000
0000
0000
,
1001
0000
0110
0000
1000
0010
0001
0100
1000
0000
1100
0000
0010
1000
0001
0100
,
0010
0000
1000
0100
0000
0010
0001
0000
0100
0010
1000
0000
1000
0001
0010
0001
,
0100
0000
0010
1000
0000
1000
0001
0100
0001
0010
0100
1000
0000
0010
0100
0001
,
1000
0000
0100
1000
0001
0000
0010
0001
0100
0000
1010
0000
0001
1000
0100
0000
,
0011
0000
0100
0010
1000
0000
0001
0100
2000
0000
3020
0000
1030
0001
0100
0010
,
2000
0000
3002
0000
0023
0000
0230
0000
1300
0010
1000
0000
0001
0010
0100
0000
,
1000
0010
0001
0010
0001
0100
0001
0100
0010
0100
0001
1000
0010
1000
0100
1000
,
0001
0010
0100
0010
0001
0100
1000
0010
1000
0100
0001
1000
0001
0010
0100
1000
,
0010
0000
0110
0000
1000
0100
0001
0010
1000
0000
1001
0000
0001
0010
0100
1000
,
0010
1000
0010
0100
0000
0001
1000
0000
0100
0010
0001
0000
0001
0100
1000
0010
,
0100
0001
0010
0100
0000
1000
0010
1000
0001
1000
0010
0100
0000
0100
0001
0000
,
0110
0000
0001
0010
1000
0000
0100
0010
0002
0000
2003
0000
3010
1000
0100
0000
,
1100
0000
0010
0000
0001
0000
1000
0010
0200
0000
0302
0000
0013
0100
1000
0000
,
1001
0000
0011
0000
0101
0000
1010
0000
1000
0000
0010
0000
1000
0001
0010
0100
,
1000
0010
0100
0001
0010
0100
0001
0010
0001
0100
0001
1000
0100
1000
0010
1000
,
0010
0100
1000
0001
0010
0100
0001
0100
1000
0010
1000
0001
0010
0001
0100
1000
,
0010
1000
0100
0001
0100
0010
0100
1000
0100
0001
0100
0010
0000
0011
0000
1100
,
0000
0000
0010
1000
0100
0001
0100
0010
1000
0010
0001
0100
0000
0110
0000
0001
,
1000
0100
0010
0001
0010
0100
0001
1000
0010
1000
0001
1000
0010
0100
0001
0100
,
0001
0100
0001
0100
0010
1000
0010
1000
0010
0100
0001
1000
0001
1000
0100
0010
,
0001
0100
0001
0100
0010
1000
0100
0010
0000
0011
0000
1001
0000
1100
0000
1000
,
0001
0010
0001
0010
0100
1000
0010
1000
0000
0001
0100
0000
1010
0000
1000
0100
,
0001
0010
0001
0010
0001
0000
1100
0000
0101
0000
1000
0000
0010
1000
0100
0000
,
0010
0001
0010
0100
0000
0100
1000
0000
1100
0000
0000
0110
0000
0000
0011
0000
,
0101
0000
0000
0000
0000
0000
1010
0000
1000
0100
0010
0001
1000
0100
0010
0001
,
1001
0000
0000
0000
;

//---------------dance-double - ----------------
#NOTES:
     dance-double:
     :
     Easy:
     6:
     :
00000000
00000000
00000000
00000000
,
00000000
00000000
00000000
00000000
,
00000000
00000000
00000000
00000000
,
00000000
00000000
00000000
00000000
,
00000000
00000000
00000000
00000000
,
00000000
00000011
00000000
00001100
,
00000000
00001010
00000000
00011000
,
00000000
00110000
00000000
01100000
,
00000000
01010000
00000000
10010000
,
00000000
01000000
00100000
01000000
,
00000000
10000000
00100000
10000000
,
01000000
01000000
00010000
00000010
,
00001000
00001000
00000001
00000100
,
00000000
00000010
00000100
00000010
,
00000000
00000001
00000100
00000001
,
00000010
00000010
00000100
00010000
,
00001000
00001000
01000000
00010000
,
00000000
10010000
00100000
00010000
,
00000000
01001000
00010000
00100000
,
00010000
01000000
00010000
00100000
,
01000000
00010000
00001000
00000100
,
00000000
00001001
00000010
00001000
,
00000000
00010100
00001000
00000010
,
00000100
00000010
00000001
00000100
,
00000010
00001000
00000100
00000010
,
00002000
00000000
00000000
00003000
,
02000000
00000000
03200000
00000000
,
20300000
00000000
00000000
00000000
,
00000000
00000000
30000000
00000000
,
00020000
00000000
00000000
00030000
,
02000000
00000000
03020000
00000000
,
00032000
00000000
00000000
00000000
,
00013000
00000000
00000000
00000000
,
00011000
00011000
00010010
00010010
,
00000100
00000010
00000011
00000000
,
00000001
00001001
00000100
00001000
,
00010000
01000000
10000000
00000000
,
10020000
00000000
00130000
01000000
,
10000000
00100000
00010000
00000000
,
10100000
00000000
11000000
00000000
,
01010000
00000000
00011000
00000000
,
00000010
00000000
00000010
00000000
00001000
00001000
00001000
00000000
,
00000100
00000010
00000220
00000330
,
00000001
00000100
00000010
00001000
,
00000100
00000010
00001000
00010000
,
00002000
00000000
00013000
01000000
,
10000000
00100000
00010000
10000000
,
11000000
00000000
00110000
00000000
,
00001100
00000000
00000011
00000000
,
00000010
00000000
00000010
00000000
00000001
00000001
00000001
00000000
,
00000100
00000000
00000100
00000000
00001000
00001000
00001000
00000000
,
00010000
00000000
00010000
00000000
00100000
00100000
00100000
00000000
,
10000000
00000000
10000000
00000000
00010000
00010000
00010000
00000000
,
10000000
01000000
00010000
01000000
,
00100000
00010000
00001000
00000010
,
00000200
00000000
00000002
00000000
,
00000000
00000303
00000010
00001000
,
00020000
00000000
00002000
00033000
,
00011000
00000000
00000000
00000000
,
00000000
00000000
00000000
00000000
;

//---------------dance-double - ----------------
#NOTES:
     dance-double:
     :
     Medium:
     11:
     :
00000000
00000000
00000000
00000000
,
00000000
00000000
00000000
00000000
,
00000000
00000000
00000000
00000000
,
00000000
00000000
00000000
00000000
,
00000000
00000000
00000000
00000000
,
00000000
00001000
00100000
00000000
01000000
00010000
00001000
00000000
,
00000000
01000000
00100000
00000000
10000000
00010000
01000000
00000000
,
00000000
00010000
00001000
00000000
00000100
00001000
00010000
00000000
,
00000000
00001000
00000010
00000000
00000001
00001000
00000001
00001000
,
00000010
00000010
00000001
00001000
,
00000100
00000100
00000001
00000010
,
00001000
00000010
00001000
00000000
00001000
00010000
00001000
00000000
,
00010000
00100000
00010000
00000000
00100000
00000000
10000000
00000000
,
00010000
00100000
00100000
10000000
,
00010000
01000000
01000000
10000000
,
00100000
00010000
00100000
00000000
00010000
00001000
00010000
00000000
,
00001000
00000010
00001000
00000000
00000010
00000001
00000200
00000000
,
00000301
00000001
00000010
00000000
00000100
00000000
00001100
00000000
,
00000001
00000001
00000100
00000000
00000010
00000000
00001010
00000000
,
00000100
00000000
00000000
00000100
00000000
00000000
00000100
00000000
00010000
00000000
00000000
00010000
00000000
00000000
00010000
00000000
,
00001000
00000000
00000000
00001000
00000000
00000000
00001000
00000000
01000000
00000000
00000000
01000000
00000000
00000000
01000000
00000000
,
00010000
00010000
10000000
00000000
00100000
00000000
10100000
00000000
,
01000000
01000000
00010000
00000000
00100000
00000000
11000000
00000000
,
00100000
00000000
00000000
00100000
00000000
00000000
00100000
00000000
00010000
00000000
00000000
00010000
00000000
00000000
00010000
00000000
,
00001000
00000000
00000000
00001000
00000000
00000000
00001000
00000000
00000020
00000000
00000000
00000000
00000230
00000000
00000000
00000000
,
00000310
00000000
00001001
00000000
00000000
00000000
00000000
00000100
,
00000001
00000000
00000000
00000010
00000100
00000000
00000000
00001000
,
00010000
00000000
00000100
00020000
00000000
00000000
00001000
00000000
,
00130000
10000000
01000000
00100000
,
10010000
00000000
00000000
00000000
00000000
01000000
00100000
00000000
,
01000000
00001000
00100000
01000000
,
00010000
00000000
00010000
00001000
00000000
00000000
00000000
00000010
,
00000100
00000000
00000000
00001000
00000002
00000000
00000003
00000000
,
00000001
00000010
00000001
00000010
00001000
00000010
00001000
00000010
,
00001000
00010000
00001000
00000010
00001000
00000000
00010000
00001000
,
00100000
00000000
01100000
00000000
10000000
00100000
00010000
00000000
,
00100000
00000000
01000000
00000000
00010000
10000000
00100000
00000000
,
01002000
00000000
00000000
00103000
00010000
00001000
00000100
00000000
,
00001000
00000010
00000100
00000001
00000010
00000000
00000001
00000000
,
00000100
00000000
00000000
00000010
00000000
00000000
00000010
00000000
00001000
00000000
00000000
00010000
00000000
00000000
00001000
00000000
,
01000000
00000000
00000000
00100000
00000000
00000000
00100000
00000000
00010000
00000000
00000000
10000000
00000000
00000000
00010000
00000000
,
10000000
01000000
10000000
01000000
00010000
01000000
00010000
01000000
,
00010000
00001000
00000100
00001000
00010000
00000100
00001000
00000010
,
00000100
00000000
00001010
00000000
00000001
00000010
00001000
00000000
,
00000001
00000000
00000011
00000000
00001100
00001000
00000010
00000000
,
00020010
00000000
00000000
00030100
00001000
00010000
00100000
01000000
,
00100000
00000000
00010000
10000000
00010000
00000000
01000000
00000000
,
00100000
00000000
00000000
10000000
00000000
00000000
01000000
00000000
00010000
00000000
00000000
00001000
00000000
00000000
00000010
00000000
,
00000100
00000000
00000000
00001000
00000000
00000000
00000010
00000000
00000001
00000000
00000000
00001000
00000000
00000000
00010000
00000000
,
00001000
00010000
00001000
00010000
00001000
00000010
00000001
00000010
,
00001000
00010000
00001000
00010000
00100000
10000000
00010000
00100000
,
01000000
10000000
00100000
01000000
00010000
00100000
00001000
00010000
,
00000100
00001000
00000010
00000100
00000001
00000010
00001000
00000000
,
00010000
00001000
00010000
00000000
00100000
00000000
01000000
00000000
,
00010000
10000000
00010000
00000000
10000000
00000000
10000000
00100000
,
00020000
00000000
00000000
00000010
00000020
00000000
00000000
00000000
,
00000000
00000000
00000000
00000000
00030030
00000000
00000000
00000000
00000100
00000000
00000000
00000001
00000000
00000000
00001000
00000000
,
00000200
00000000
00000000
00010000
00020000
00000000
00030300
00000000
,
00011000
00000000
00000000
00000000
,
00000000
00000000
00000000
00000000
;

//---------------dance-double - ----------------
#NOTES:
     dance-double:
     :
     Hard:
     14:
     :
00000000
00000000
00000000
00000000
,
00000000
00000000
00000000
00000000
,
00000000
00000000
00000000
00000000
,
00000000
00000000
00000000
00000000
,
00000000
00000000
00000000
00000000
,
00000000
00000000
00100000
00000000
01100000
00000000
00000000
00000000
10000000
00000000
00100000
01000000
00000000
00001000
00000000
00010000
,
00000000
00000000
00000100
00000000
00001100
00000000
00000000
00000000
00000001
00000000
00001000
00000001
00000000
00000010
00000000
00000100
,
00000000
00000000
00000010
00000000
00000011
00000000
00000000
00000000
00000100
00000000
00000010
00001000
00000000
00100000
00000000
01000000
,
00100000
00000000
10000000
00000000
10010000
00000000
00000000
00000000
00100000
00000000
01000000
00010000
00000000
00001000
00000000
00000010
,
00000100
00000001
00000100
00001000
,
00000100
00000001
00000100
00001000
,
00000001
00000000
00000000
00000001
00000000
00000000
00000010
00000000
00001000
00000000
00000000
00001000
00000000
00000000
00100000
00000000
,
00001000
00000000
00000000
00001000
00000000
00000000
00010000
00000000
00100000
00000000
00000000
00100000
00000000
00000000
01000000
00000000
,
00100000
10000000
00100000
00010000
,
00100000
10000000
00100000
00010000
,
10000000
00000000
00000000
10000000
00000000
00000000
00010000
00000000
01000000
00000000
00000000
01000000
00000000
00000000
00100000
00000000
,
00001000
00000000
00000000
00001000
00000000
00000000
00000100
00000000
00000020
00000000
00000000
00000000
00000230
00000000
00000000
00000000
,
00000301
00000000
00001000
00000000
00000001
00000000
00000100
00000010
00000000
00000100
00000000
00000010
00000100
00000000
00000001
00000000
,
00001000
00000000
00000100
00000000
00000010
00000000
00001000
00010000
00000000
00001000
00000000
00000010
00001000
00000000
00010000
00000000
,
00000100
00000000
00001000
00000100
00000000
00010000
00000100
00000000
00010000
00000000
00001000
01000000
00000000
00010000
01000000
00000000
,
00100000
00000000
10000000
00100000
00000000
01000000
00010000
00000000
10000000
00000000
01000000
00010000
00000000
01000000
10000000
00000000
,
00100000
00000000
10000000
00000000
00010000
00000000
10000000
00100000
00000000
01000000
00000000
00010000
10000000
00000000
00010000
00000000
,
00100000
00000000
00001000
00000000
00000100
00000000
00000010
00001000
00000000
00000001
00000000
00000010
00000100
00000000
00001000
00000000
,
00000001
00000000
00001000
00000010
00000000
00010000
00000100
00000000
00010000
00000000
00001000
01000000
00000000
00010000
10000000
00000000
,
01000000
00000000
00100000
00001000
00000000
00010000
00000010
00000000
00001000
00000000
00000001
00000000
00000010
00000000
00000001
00000000
,
00000100
00000000
00000000
00000100
00000000
00000000
00000110
00000000
00000000
00001000
00010000
00000000
00010000
00000000
01000000
00000000
,
00200000
00000000
20300000
00000000
,
31000000
00000000
00000000
01000000
00000000
00000000
01100000
00000000
00000000
00010000
00001000
00000000
00001000
00000000
00000100
00000000
,
00000002
00000023
00000230
00002300
00000000
00003020
00000000
00000230
,
00000001
00000000
00000000
00000001
00000000
00000000
00000301
00000000
00000000
00000100
00000010
00000000
00010000
00000000
00001000
00000000
,
01000000
00000000
00000000
01000000
00000000
00000000
01100000
00000000
00000000
00010000
00100000
00000000
01000000
00000000
00010000
00000000
,
10000000
00000000
00000000
10000000
00000000
00000000
11000000
00000000
00000000
00100000
00010000
00000000
00001000
00000000
00000100
00000000
,
00000020
00000000
00000000
00000001
00000002
00000000
00000033
00000000
,
00001000
00000000
00000100
00000000
00000010
00000001
00000010
00000100
00001000
00000000
00000010
00000000
00001000
00000100
00010000
00000010
,
00001000
00000000
00000000
00010000
00000000
00000000
00001000
00000000
00000010
00000000
00010000
00000000
00000100
00001000
00000100
00000000
,
00010000
00000000
00001000
00010000
00000000
00010000
01000000
00000000
00100000
00000000
10000000
01000000
00000000
01000000
00010000
00000000
,
10000000
00100000
00010000
00001000
00010000
01000000
00100000
10000000
,
02000000
00000000
00000000
00000000
03100000
00000000
00010000
00100000
00010000
00000000
10000000
00000000
01000000
00000000
00010000
00000000
,
00000100
00001000
00000010
00001000
00000100
00000010
00000001
00000100
,
00000010
00000000
00000010
00000100
00000000
00000100
00000010
00000000
00001000
00000000
00001000
00010000
00000000
00010000
00001000
00000000
,
00100000
00000000
00100000
01000000
00000000
01000000
00100000
00000000
10000000
00000000
10000000
00010000
00000000
00010000
10000000
00000000
,
00010000
00000000
00100000
00000000
01000000
10000000
01000000
00100000
00010000
00000000
01000000
00000000
00010000
00100000
00001000
01000000
,
00010000
00000000
00000000
00101000
00000000
00000000
00010200
00000000
00000000
00000000
00000310
00000000
00000001
00000010
00000001
00000000
,
00000100
00000000
00000001
00001000
00000000
00001000
00000100
00000000
00000010
00000000
00001000
00010000
00000000
00010000
00100000
00000000
,
00010000
00000000
00001000
00000000
00100000
00000000
00001000
00000000
01000000
00000000
00001000
00000000
00100000
00000000
00010000
10000000
,
00200000
00000000
00000000
00000000
00310000
00000000
00100000
01000000
00100000
00000000
10000000
00000000
01000000
00000000
00100000
00000000
,
10000000
00100000
00010000
00100000
00001000
00010000
00000100
00001000
,
00000010
00000000
00001000
00010000
00000000
00010000
01000000
00000000
00100000
00000000
00010000
00001000
00000000
00001000
00000100
00000000
,
00000010
00000000
00001000
00010000
00000000
00010000
00100000
00000000
01000000
00000000
00010000
00001000
00000000
00001000
00000010
00000000
,
00000001
00000010
00000001
00000000
00000100
00000001
00000000
00001000
00000100
00000000
00010000
00001000
00000000
01000000
00000000
00010000
,
10000000
00100000
10000000
00000000
00010000
00100000
00000000
00001000
00010000
00000000
00000010
00001000
00000000
00000001
00000000
00000010
,
00000001
00000100
00000000
00000010
00001000
00000000
00000100
00010000
00001000
00100000
00000000
00010000
01000000
00000000
00100000
00000000
,
10000000
00000000
00000000
01010000
00000000
00000000
00100000
00000000
00001000
00000000
00000000
00010100
00000000
00000000
00001000
00000000
,
00000010
00000000
00000100
00000000
00000001
00001000
00000100
00000010
00000001
00000000
00000100
00000000
00000010
00000000
00001000
00000000
,
00000100
00000000
00010000
00000000
00001000
01000000
00100000
00010000
00001000
00000000
01000000
00000000
00010000
00000000
10000000
00000000
,
00200000
00000000
01000000
01300000
10020000
00000000
00100000
00000000
,
10000000
00000000
01030000
00000000
00100000
10000000
01000000
00010000
,
00001000
00000000
00000000
00000000
00000000
00000000
00000000
00000000
00010000
00000100
00010000
00000100
00010000
00000100
00010000
00000100
,
00001000
00000000
00000000
00000000
,
00000000
00000000
00000000
00000000
;
