#TITLE:Roll the Dice;
#ARTIST:lapix;
#BANNER:Roll the Dice-bn.png;
#BACKGROUND:Roll the Dice-bg.png;
#JACKET:Roll the Dice-jacket.png;
#MUSIC:Roll the Dice.ogg;
#SAMPLESTART:71.3;
#SAMPLELENGTH:20;
#DISPLAYBPM:165;
#BPMS:0=165;
#BGCHANGES:;

//---------------dance-single - ----------------
#NOTES:
     dance-single:
     :
     Beginner:
     4:
     :
0000
0000
0000
0000
,
0000
0000
0000
0000
,
0000
0000
0000
0000
,
0002
0000
0003
0000
,
2000
0000
3000
0000
,
0010
0000
0010
0000
,
0100
0000
0100
0000
,
0001
0000
0001
0000
,
1000
0000
1000
0000
,
0010
0010
0000
0000
,
1000
0000
0001
0000
,
0100
0100
0000
0000
,
0001
0000
1000
0000
,
0020
0000
0030
0000
,
0200
0000
0300
0000
,
0001
0000
0001
0000
,
1000
1000
1000
0000
,
1001
0000
1001
0000
,
1001
0000
0100
0000
,
0110
0000
0110
0000
,
0001
0001
0000
0000
,
0110
0000
1001
0000
,
0110
0000
1000
0000
,
1001
0000
0010
0010
,
0010
0000
0110
0000
,
1001
0000
1001
0000
,
1001
0000
0100
0000
,
0110
0000
0110
0000
,
1000
1000
0000
0000
,
0100
0100
0100
0000
,
1000
0000
0010
0000
,
0100
0000
0001
0000
,
0110
0000
0000
0000
,
1000
1000
1000
1000
,
0000
0000
0000
0000
,
0001
0000
0010
0000
,
0001
0000
0100
0000
,
0001
0001
0001
0001
,
0000
0000
0000
0000
,
0010
0000
0100
0000
,
0100
0000
0010
0000
,
1000
0000
0001
0000
,
0010
0000
0100
0000
,
1001
0000
0000
1001
,
0000
0000
1001
0000
,
0010
0000
0100
0000
,
0001
0000
1000
0000
,
0110
0000
0000
0110
,
0000
0000
0110
0000
,
0020
0000
0030
0000
,
2000
0000
3000
0000
,
0002
0000
0003
0000
,
0200
0000
0300
0000
,
0001
0000
0001
0000
,
1000
0000
1000
0000
,
0010
0000
0010
0000
,
0100
0000
0100
0000
,
0001
0001
0000
0000
,
0010
0000
0100
0000
,
1000
1000
0000
0000
,
0010
0000
0100
0000
,
0002
0000
0003
0000
,
2000
0000
3000
0000
,
0020
0000
0030
0000
,
0100
0100
0100
0100
,
0200
0000
0300
0000
,
0001
0000
1000
0000
,
0010
0000
1000
0000
,
0100
0000
0010
0000
,
0001
0000
0001
0000
,
0010
0000
0001
0000
,
0100
0000
0010
0000
,
1000
1000
1000
0000
,
1001
0000
0010
0000
,
1000
0000
0100
0000
,
1000
0000
0001
0000
,
0010
0000
0001
0000
,
0100
0000
0010
0000
,
1000
0000
0001
0000
,
0010
0000
0001
0000
,
0100
0100
0100
0000
,
0220
0000
0000
0000
,
0000
0000
0000
0000
,
0300
0000
0000
0000
,
0000
0000
0000
0030
;

//---------------dance-single - ----------------
#NOTES:
     dance-single:
     :
     Easy:
     7:
     :
0000
0000
0000
0000
,
0000
0000
0000
0000
,
0000
0000
0000
0000
,
0002
0003
2000
3000
,
0020
0030
0200
0300
,
0001
0101
1000
1100
,
0001
0011
1000
1010
,
0010
0010
1000
1000
,
0001
0001
0100
0100
,
0001
0010
1000
0000
,
0010
0100
0001
1000
,
0100
0010
0001
0000
,
1000
0001
0100
0010
,
2000
3000
0200
0300
,
0020
0030
0002
0003
,
0100
0010
1000
0001
,
1000
1000
0110
1001
,
0002
0103
0002
0103
,
0002
0203
0310
1000
,
0100
2000
3010
2000
,
3100
0110
0001
0001
,
0100
0020
1030
0002
,
0023
0230
1300
0001
,
2002
0003
0010
3010
,
1000
0001
0101
1100
,
0002
0103
0002
0103
,
0002
0203
0310
1000
,
0100
1000
0001
0100
,
1010
0011
1000
1000
,
1001
0110
1001
0110
,
0001
2000
3010
0200
,
0301
0001
1000
1000
,
0020
0030
0200
0300
,
0001
0100
1000
0010
,
0100
0010
0001
0100
,
0010
1000
0001
1000
,
0010
0100
0010
0100
,
0001
0010
1000
0100
,
0010
0001
1000
0010
,
1000
0100
0001
0100
,
1000
0001
1000
0001
,
0010
0001
0100
0100
,
0010
1000
0100
0100
,
1100
0011
0000
0101
,
1010
0000
1001
0110
,
0001
1000
0010
0010
,
1000
0001
0100
0100
,
0101
1010
0000
1100
,
0011
0000
1001
0110
,
0020
0000
0000
0030
,
2000
0000
3001
0000
,
0200
0300
0020
0030
,
2000
3000
0002
0003
,
1000
1100
0001
0101
,
1000
1010
0001
0011
,
0100
0100
0001
0001
,
1000
1000
0010
0010
,
1000
0001
0010
0000
,
0001
0100
0010
1000
,
0100
1000
0010
0000
,
1000
0001
0010
0100
,
1000
1000
1000
1000
,
0001
0001
0001
0001
,
0100
0100
0100
0100
,
0010
0010
0010
0010
,
2000
3000
0020
0030
,
0200
0300
0002
0003
,
0020
0030
0002
0003
,
2000
3000
0200
0300
,
2000
3000
0002
0003
,
0200
0300
0020
0030
,
2000
3000
0200
0300
,
1000
0001
1000
0001
,
0010
0001
0011
0000
,
1000
0100
1100
0000
,
0001
0100
0101
0000
,
1000
0010
1010
0000
,
0010
0010
0100
0100
,
1000
0001
1000
0001
,
0010
0001
1000
0100
,
1000
1000
1000
1001
,
0220
0000
0000
0000
,
0000
0000
0000
0000
,
0030
0000
0000
0000
,
0000
0000
0000
0300
;

//---------------dance-single - ----------------
#NOTES:
     dance-single:
     :
     Medium:
     11:
     :
0000
0000
0000
0000
,
0000
0000
0000
0000
,
0000
0000
0000
0000
,
0001
0100
1000
0000
0010
0000
0100
0000
,
0001
0010
0001
1000
,
1100
1100
0101
0101
,
1010
1010
0011
0011
,
2000
0000
3010
0100
0002
0000
0013
0001
,
0200
0000
0301
1000
0020
0000
1030
0100
,
0010
0000
0000
0010
0000
0000
0010
0000
0000
0000
0000
0000
0001
0000
1000
0000
,
0001
0000
0100
0001
0010
0000
0001
1000
,
0100
0000
0000
0100
0000
0000
0100
0000
0000
0000
0000
0000
1000
0000
0010
0000
,
1000
0000
0100
0010
0001
0000
0110
0000
,
0002
1000
0010
0103
,
2000
0001
0100
3010
,
0200
0000
0301
1000
0020
0000
0130
0010
,
1000
0001
1000
0001
1000
0000
1001
0000
,
0001
0100
2000
0000
3001
0100
2000
0000
,
3001
0100
1000
0010
0110
0000
1001
0000
,
1000
0010
0200
0000
0301
0010
0200
0000
,
1300
0001
1000
0000
0010
0100
0001
1000
,
0100
1000
0002
0000
0103
0001
2000
0000
,
3100
1000
0002
0000
0023
0000
0031
1000
,
0200
0020
0300
0000
0031
0001
1000
1000
,
0010
0000
0000
1000
0000
0000
0001
0000
0110
0000
0000
0000
1001
0000
0000
0000
,
1000
0100
0002
0000
1003
0100
0002
0000
,
1003
0000
0100
0000
0001
0000
0010
0000
0012
0000
0000
0000
1003
0001
1000
0000
,
0010
1000
0200
0000
0310
0001
0200
0000
,
0301
1000
0001
0000
0100
0010
1000
0001
,
0102
0000
2003
0000
3100
0010
0100
0001
,
1000
0010
0200
0000
0301
0100
0020
0000
,
1030
0100
0020
0000
0031
1000
0001
1000
,
0001
0010
0100
0000
1000
0100
0010
0000
,
0002
2003
3020
0230
,
0301
1000
0100
0000
0010
0001
0100
0000
,
0001
0010
1000
0000
0100
1000
0010
0000
,
1000
0001
0100
0001
0010
0001
0001
0000
,
2000
3002
0203
0320
,
1030
0010
0100
0000
0001
1000
0010
0000
,
0100
0001
1000
0000
0010
0001
0100
0000
,
0001
1000
0010
1000
0100
1000
1000
0000
,
0010
0100
0001
0000
0001
0010
1000
0000
,
0100
0000
0000
1000
0000
0000
0001
0000
0100
0000
0010
0000
0110
0000
0000
0000
,
1010
0000
0000
1010
0000
0000
1010
0000
0000
0000
0000
0000
0101
0000
0000
0101
,
0000
0101
0000
0000
1001
0010
0100
0000
,
0001
1000
0100
0000
1000
0010
0100
0000
,
0010
0000
0000
1000
0000
0000
0001
0000
0010
0000
0100
0000
1001
0000
0000
0000
,
1100
0000
0000
1100
0000
0000
1100
0000
0000
0000
0000
0000
0011
0000
0000
0011
,
0000
0011
0000
0000
0110
0001
1000
0000
,
0020
0000
0000
0030
,
2000
3000
0002
0003
,
1000
1000
0100
0100
,
0010
0010
0001
0001
,
0101
0101
1100
1100
,
0011
0011
1010
1010
,
0002
0000
0013
0001
2000
0000
3100
0010
,
0002
0000
0103
0010
1000
0001
1000
0001
,
0010
0000
0000
0010
0000
0000
0010
0000
0000
0000
0000
0000
0001
0000
1000
0000
,
0001
0000
1000
0100
0010
0000
0001
1000
,
0100
0000
0000
0100
0000
0000
0100
0000
0000
0000
0000
0000
1000
0000
0010
0000
,
1000
0000
0100
0010
0001
0000
1000
0100
,
0020
0100
0001
1030
,
0010
0001
1000
0000
0010
0100
0001
0000
,
0011
1100
0011
1100
,
0101
1010
0101
1010
,
0001
0000
0000
0001
0000
0000
0000
0000
1000
0000
0000
1000
0000
0000
0000
0000
,
0010
0000
0000
0010
0000
0000
0000
0000
0100
0000
0000
0100
0000
0000
0000
0000
,
0001
0000
0000
0010
0000
0000
0000
0000
0100
0000
0000
1000
0000
0000
0000
0000
,
0010
0000
0000
1000
0000
0000
0000
0000
0001
0000
0000
0100
0000
0000
0000
0000
,
0010
0000
0000
0100
0000
0000
0000
0000
0001
0000
0000
1000
0000
0000
0000
0000
,
0010
0000
0000
0010
0000
0000
0000
0000
1000
0000
0000
1000
0000
0000
0000
0000
,
0001
0000
0000
0001
0000
0000
0000
0000
0100
0000
0000
0100
0000
0000
0000
0000
,
0001
0000
0000
1000
0000
0000
0001
0000
0100
0000
0010
0000
0200
0000
0000
0000
,
0301
0000
0000
0100
0000
0000
0010
0000
1000
0000
0000
0001
0000
0000
0000
0000
,
0010
0000
0000
0001
0000
0000
0000
0000
1000
0000
0000
0100
0000
0000
0000
0000
,
1000
0000
0000
0001
0000
0000
0010
0000
0001
0000
0000
0100
0000
0000
0000
0000
,
0010
0000
1000
0001
0100
0000
1001
0000
,
0010
0000
0000
1000
0000
0000
0100
0000
0010
0000
0000
0001
0000
0000
0100
0000
,
0001
0000
0000
1000
0000
0000
0010
0000
1000
0000
0000
0001
0000
0000
0100
0000
,
0001
0000
0000
0010
0000
0000
0001
0000
1000
0000
0000
0010
0000
0000
1000
0000
,
0001
0000
0000
0100
0000
0000
0001
0000
1000
0000
0000
0100
0000
0000
1000
0000
,
2200
0000
0000
0000
,
0000
0000
0000
0000
,
0300
0000
0000
0000
,
0000
0000
0000
3000
;

//---------------dance-single - ----------------
#NOTES:
     dance-single:
     :
     Hard:
     14:
     :
0000
0000
0000
0000
,
0000
0000
0000
0000
,
0000
0000
0000
0000
,
0001
0100
1000
0000
0001
0010
1000
0000
,
1000
0100
0001
0000
1000
0010
0001
0000
,
0100
0010
0100
0010
0000
0000
1000
0001
1000
0001
0000
0000
,
0100
0010
0100
0010
0000
0000
1000
0001
1000
0001
0000
0000
,
0010
0001
0100
0010
1000
0100
0001
0000
,
1000
0010
0100
0001
1000
0010
0001
0000
,
0010
0000
0001
1000
0000
0001
1000
0000
0000
0100
0000
0000
0010
0000
0001
0000
,
1000
0000
0000
0010
0000
0000
1000
0000
0001
0000
0000
0010
0000
0000
0100
0000
,
1000
0000
0010
0100
0000
0010
0100
0000
0000
0001
0000
0000
1000
0000
0001
0000
,
0010
0000
0000
0001
0000
0000
1000
0000
0100
0010
0000
0000
0001
0000
1000
0000
,
0010
0000
0000
0100
0001
0000
0000
0100
0001
0000
0000
0100
0001
0000
0000
0010
,
0100
0000
0000
1000
0100
0000
0000
1000
0100
0000
0000
1000
0100
0000
0010
0000
,
0001
0100
0001
0010
1000
0100
1000
0010
,
1000
1000
1000
1000
1000
0000
1001
0000
,
1002
0203
0301
0000
2001
3200
1300
0000
,
0120
0032
2003
3010
2000
3002
0203
0300
,
0101
2000
3020
0230
0301
0020
0032
2003
,
3010
0000
0010
0000
0120
0000
0000
0000
1030
0100
1000
0100
1000
0000
0001
0000
,
0020
0032
1003
0000
1010
2000
3001
0000
,
0011
0200
0310
0000
2000
3100
2000
3002
,
0013
0001
1000
0010
0100
0001
0001
0001
,
1000
0000
0000
0100
0000
0000
1000
0000
0001
0000
0000
0000
1001
0000
0000
0000
,
2001
3200
1300
0000
1002
0203
0301
1000
,
0020
0000
0230
0000
0302
0000
2003
0000
3100
0000
0010
0001
0010
0000
0100
0000
,
1000
0000
0001
0000
1100
0000
0000
0000
0011
0000
0001
0000
1000
0000
0010
0100
,
0010
0000
0010
0000
0210
0000
0000
0000
0301
0100
0001
0100
0001
0000
1000
0000
,
0010
0100
0010
0001
0010
1000
0010
0001
,
0010
0100
0010
1000
0010
0001
0020
0000
,
1030
0100
0010
0001
0100
0010
1000
0001
,
0010
0001
1000
0001
0010
0001
1000
0100
,
0020
0032
2003
3200
,
0310
0001
0100
0010
1000
0100
1000
0001
,
0010
0100
1000
0010
1000
0001
0100
0010
,
0100
0001
0010
0100
1000
0010
1000
0001
,
0200
0302
2003
3020
,
0130
0010
0100
0001
0010
1000
0010
0001
,
0100
0010
0100
1000
0100
0001
0010
0100
,
1000
0010
0100
0001
1000
0100
0010
0001
,
0100
0000
0010
0000
1000
0001
0000
0000
1000
0000
0100
0000
1000
0000
0001
0000
,
0010
0000
0001
0000
0100
0010
0000
0010
1000
0000
0001
0000
0200
0000
0000
0000
,
0310
0000
0000
1010
0000
0000
1010
0000
0000
0000
0001
1000
0001
0000
0000
0101
,
0000
0000
0101
0000
0000
1001
0000
0000
0110
0000
1000
0000
0002
0000
0000
0000
,
0013
0000
0001
0000
0100
0010
0000
0100
0010
0000
1000
0000
0001
0000
0100
0000
,
0010
0000
1000
0000
0100
0010
0000
0100
0010
0000
0001
0000
2000
0000
0000
0000
,
3100
0000
0000
1100
0000
0000
1100
0000
0000
0000
0001
0000
0011
0000
0000
0011
,
0000
0000
1001
0000
0000
0110
0000
0000
1001
0000
0001
0000
0100
0000
0010
1000
,
0020
0000
0130
0001
,
1000
0010
1000
0001
,
0010
0001
1000
0000
0010
1000
0001
0000
,
0100
0001
1000
0000
0100
1000
0001
0000
,
1000
0100
1000
0100
0000
0000
0010
0001
0010
0001
0000
0000
,
1000
0010
1000
0010
0000
0000
0100
0001
0100
0001
0000
0000
,
0010
0001
1000
0010
1000
0001
0100
0000
,
0001
0010
0100
1000
0010
0100
0001
0000
,
0010
0000
0001
1000
0000
0010
0100
0000
0000
0001
0000
0000
1000
0000
0100
0000
,
0010
0000
0000
0001
0000
0000
0100
0000
0001
0000
0000
1000
0000
0000
0100
0000
,
0010
0000
0001
0100
0000
0010
1000
0000
0100
0000
0000
1000
0000
0000
0001
0000
,
0010
0000
0000
0100
0000
0000
0010
0000
0001
0000
0000
1000
0000
0000
0100
0000
,
1000
0000
0000
0010
0100
0000
0000
0010
0100
0000
0000
0010
0100
0000
0000
0001
,
0010
0100
1000
0010
1000
0100
0001
0000
,
0011
0000
0000
0001
1000
0000
0000
1000
0010
0000
0000
0010
0100
0000
0000
0100
,
0001
1000
0110
1001
,
0010
0000
0000
1000
0000
0000
0100
0000
1000
0000
0000
0001
0000
0000
0010
0000
,
0001
0000
0000
0100
0000
0000
1000
0000
0010
0000
0000
1000
0000
0000
0001
0000
,
0010
0000
0000
0100
0000
0000
0010
0000
0001
0000
0000
0100
0000
0000
1000
0000
,
0001
0000
0000
0010
0000
0000
0001
0000
0100
0000
0000
0010
0000
0000
1000
0000
,
0010
0000
0000
1000
0000
0000
0001
0000
1000
0000
0000
0100
0000
0000
0010
0000
,
0001
0000
0000
0100
0000
0000
0001
0000
1000
0000
0000
0010
0000
0000
1000
0000
,
0100
0000
0000
0010
0000
0000
0001
0000
1000
0000
0000
0100
0000
0000
0001
0000
,
0010
0000
0001
1000
0000
0001
1000
0000
0001
1000
0000
0001
1000
0000
0000
0000
,
0010
0000
0000
1000
0000
0000
0001
0100
0001
0000
0000
0010
0000
0000
0100
0000
,
1000
0000
0000
0010
0000
0000
0100
0001
0100
0000
0000
0010
0000
0000
1000
0000
,
0100
0000
0000
0010
0000
0000
0001
0100
0001
0000
0000
1000
0000
0000
0010
0000
,
0100
0000
0000
0001
0000
0000
1000
0000
1000
0000
0000
0100
0000
0000
0010
0000
,
0001
0000
0000
1010
0000
0000
1000
0100
1000
0000
0000
0010
0000
0000
0100
0001
,
0100
0000
0000
0010
0000
0000
1000
0000
0100
0000
0000
0010
0000
0000
0001
1000
,
0001
0000
0000
0010
0000
0000
0001
0000
0100
0000
0000
1000
0000
0000
0010
0000
,
0100
0000
0001
1000
0000
1000
0010
0000
0100
0000
0001
0010
0000
0010
0100
0000
,
2200
0000
0000
0000
,
0000
0000
0000
0000
,
0300
0000
0000
0000
,
0000
0000
0000
3000
;
