#TITLE:Rock Me Gently;
#ARTIST:Andy Kim;
#BANNER:Rock Me Gently-bn.png;
#BACKGROUND:Rock Me Gently-bg.png;
#JACKET:Rock Me Gently-jacket.png;
#MUSIC:Rock Me Gently.ogg;
#OFFSET:1.3;
#SAMPLESTART:63.4;
#SAMPLELENGTH:20;
#LASTBEATHINT:0.584;
#DISPLAYBPM:120:127;
#BPMS:0=120,12=121,24=123,32=122,48=124,52=121.2,64=123.1,76=121.8,92=122.75,96=124.4,100=126,108=122.25,120=123.84,136=125,144=122.985,148=123.15,152=124.65,168=123.27,172=121.89,176=123.56,184=127,192=123.14,198=124.573,206=126.2,210=122.35,214=124.67,218=123.123,234=125.4;
#BGCHANGES:;

//---------------dance-single - ----------------
#NOTES:
     dance-single:
     :
     Beginner:
     3:
     :
0000
0000
0000
0000
,
0000
0000
0000
0000
,
0000
0000
0000
0000
,
0000
0000
0000
0000
,
0000
0000
0000
0000
,
0001
0000
1000
0000
,
0010
0000
1000
0000
,
1000
0000
0100
0000
,
0010
0000
0001
0000
,
0000
0010
0010
0000
,
0000
0001
0001
0000
,
0000
1000
1000
0000
,
0000
0100
0100
0000
,
0000
1000
1000
0000
,
0000
0001
0001
0000
,
0100
0000
0110
0000
,
0010
0000
0110
0000
,
0000
0001
0001
0000
,
0000
0010
0010
0000
,
0000
0000
0100
0100
,
0000
0000
1000
1000
,
0000
0010
0010
0000
,
1000
0000
1001
0000
,
0001
0000
1001
0000
,
0100
0000
0010
0000
,
1000
1000
1000
0000
,
0000
0000
0001
0001
,
0000
0010
0010
0000
,
0001
0000
1000
0000
,
0010
0000
0100
0000
,
0001
0001
0001
0000
,
1000
0000
1001
0000
,
0010
0000
0110
0000
,
0001
0001
0001
0000
,
0010
0000
0100
0000
,
1000
0000
0010
0000
,
1000
0000
0001
0000
,
0100
0000
0010
0000
,
0100
0100
0100
0000
,
0110
0000
0001
0000
,
0010
0010
0010
0000
,
0001
0000
1001
0000
,
1000
0000
0010
0000
,
1000
1000
0000
0000
,
0100
0000
0010
0000
,
0001
0000
1001
0000
,
0100
0000
0110
0000
,
1000
0000
0001
0000
,
0100
0000
0110
0000
,
1001
0000
0002
0000
,
0003
0000
0010
0010
,
0010
0000
0001
0000
,
0100
0000
0010
0000
,
1000
0000
0100
0000
,
0010
0000
0001
0001
,
0001
0000
0100
0100
,
0100
0000
0010
0000
,
1001
0000
0100
0000
,
0110
0000
1000
1000
,
1000
0000
0001
0000
,
0100
0000
2000
0000
,
0000
0000
0000
0000
,
0000
0000
3000
0000
;

//---------------dance-single - ----------------
#NOTES:
     dance-single:
     :
     Easy:
     7:
     :
0000
0000
0000
0000
,
0000
0000
0000
0000
,
0000
0000
0000
0000
,
0000
0000
0000
0000
,
0000
0000
0000
0000
,
0001
0010
0001
0100
,
0010
0100
1000
1000
,
1000
0100
0010
0100
,
1000
0001
0100
0010
,
1001
1000
0200
0300
,
1000
0010
0002
0003
,
0100
0001
0020
0030
,
0001
0110
1000
1000
,
0010
1000
0002
0003
,
0010
0001
0100
0010
,
1000
1100
0001
0101
,
1000
1100
0001
0101
,
1001
0010
2000
3000
,
0100
0010
0002
0003
,
0100
0110
1000
0001
,
0000
1001
0100
0010
,
0000
1000
0100
0001
,
0010
0000
0110
0001
,
1000
0100
1000
1000
,
0001
0100
0001
0001
,
1100
1100
1100
0000
,
0000
0001
0100
1000
,
0000
0010
1000
0001
,
0100
0010
0200
0300
,
0101
0101
1100
1100
,
0001
1000
0020
0030
,
1000
0100
1000
1000
,
1001
0100
0010
0100
,
1001
1001
1001
0010
,
1000
0100
1000
0001
,
0010
0100
1000
0010
,
1000
0001
2000
3000
,
1100
1100
0101
0101
,
1000
0010
0002
0003
,
0110
1001
1000
0100
,
1000
0001
0010
0100
,
1000
1100
0001
0100
,
0010
0010
1000
0001
,
0100
0110
0010
1000
,
0001
0101
1000
0001
,
1000
0100
0020
0030
,
0001
0100
0002
0003
,
1000
0001
0200
0300
,
0010
1000
0002
0000
,
2003
0000
3002
0100
,
0010
0103
0101
0101
,
0101
0010
1000
0100
,
1000
0001
0010
0100
,
1000
0010
0001
1000
,
0200
0300
1001
1001
,
0110
0110
0001
0100
,
2000
3000
0010
1000
,
0010
0100
0001
0010
,
0001
1000
0110
0110
,
0110
0010
0001
0100
,
0001
0100
1000
0000
;

//---------------dance-single - ----------------
#NOTES:
     dance-single:
     :
     Medium:
     10:
     :
0000
0000
0000
0000
,
0000
0000
0000
0000
,
0000
0000
0000
0000
,
0000
0000
0000
0000
,
0000
0000
0000
0000
,
0001
0010
0000
0001
1000
0100
0000
0010
,
0001
0000
0100
0010
1000
0000
1000
0000
,
1000
0001
0000
0010
0001
0100
0000
0010
,
0100
0000
0001
0000
1000
0001
0010
0000
,
1001
0000
0001
0100
0010
1000
0000
0000
,
0010
0000
0001
1000
0001
0100
0000
0000
,
0000
0010
1000
0001
1000
0100
0000
0000
,
0000
0110
0000
0001
1000
0001
0200
0000
,
0310
0000
1000
0001
1000
0100
0000
0000
,
0000
0010
0001
0010
0100
1000
0001
1000
,
0000
0000
0010
0200
0000
0301
0000
2000
,
0000
0000
3010
0000
0000
0000
0200
0000
0000
0000
0301
1000
0001
0000
0000
0000
,
1100
0000
0001
0100
1000
0010
0000
0101
,
0000
0001
1000
0100
1000
0002
0000
0000
,
0013
0001
0000
1000
0020
0000
0130
0001
,
0000
0011
0000
0001
0010
0100
1000
0000
,
1010
0000
0010
0100
0001
0100
0001
1000
,
0000
0000
0000
0010
1000
0000
0001
0100
,
0010
0100
0010
0100
0000
0110
0000
0000
,
1000
0001
1000
0001
0000
1001
0000
0100
,
0001
0000
0001
0000
0001
1000
0100
0000
,
0000
1000
0010
2000
0000
3001
0100
0000
,
0000
0101
0000
1000
0002
0000
0103
0000
,
0010
1000
0000
1010
0000
0000
0000
0001
,
2000
0000
3002
0000
0013
0001
0100
0000
,
0011
0000
1100
0000
0001
1000
0000
1000
,
0010
0100
0010
0100
0000
0110
0000
0000
,
1020
0000
1030
0002
0000
0013
0100
0000
,
1100
0101
1100
0101
,
1000
0001
0010
0100
0000
1000
0001
0000
,
0010
0001
0000
0100
0001
1000
0100
0000
,
0010
0001
0000
0100
0001
1000
0000
0010
,
0200
0000
0302
0000
0013
0100
1000
0000
,
1010
0000
0101
0000
1000
0001
0000
0100
,
0010
0000
1001
0000
1000
0100
1000
0001
,
0001
0100
1000
0000
0010
1000
0001
0100
,
0100
0010
0010
1000
0001
0000
0010
0001
,
1000
0000
0011
0000
0100
0010
1000
0001
,
0001
0100
0100
0010
1000
0000
1000
0100
,
1000
0001
1000
0000
0010
0100
0001
1000
,
0020
0000
1030
0002
0000
0100
0103
0000
,
0000
1000
0100
0002
0000
0010
0013
0000
,
0000
0001
0010
0001
1000
1000
0000
0000
,
0000
0010
1000
0001
0200
0000
0310
0000
,
1020
1030
0102
1000
,
0013
0001
0100
0000
0011
0000
1010
0000
,
0011
0000
1010
0000
0001
0100
0010
1000
,
0000
0100
0010
0000
0001
1000
0000
1000
,
0010
0100
0001
0000
0010
0100
0000
1000
,
0010
1000
0000
0001
0200
0000
0320
0000
,
0130
0001
1000
0000
0110
0000
1001
0000
,
1000
0001
0000
1000
0010
0100
0010
0100
,
0000
0110
0000
0000
0101
0000
0010
0001
,
0000
1000
0001
0000
0110
0000
1001
0000
,
0110
0000
1001
0000
1000
0100
0010
0001
,
0000
0100
0002
0000
2000
0000
0000
0000
,
0000
0000
0000
0000
,
0000
0000
3003
0000
;

//---------------dance-single - ----------------
#NOTES:
     dance-single:
     :
     Hard:
     13:
     :
0000
0000
0000
0000
,
0000
0000
0000
0000
,
0000
0000
0000
0000
,
0000
0000
0000
0000
,
0000
0000
0000
0000
,
0001
0100
1000
0010
1000
0001
0001
0100
,
0001
0000
0010
0000
1000
0000
0100
0000
1000
0000
0000
0000
1000
0000
0001
0100
,
0001
0000
0010
0000
1000
0000
0001
0000
1000
0000
0100
0000
0100
0000
0010
0001
,
0010
0100
1000
0000
0101
0001
0100
0000
,
1001
0000
1000
0100
0001
0100
1000
0000
,
0001
0000
1000
0010
0002
0100
0103
0000
,
0010
1000
0001
1000
0100
0100
0010
0000
,
0001
0000
0011
0000
0000
0000
1000
0000
0010
0100
0020
0000
0100
0000
0000
0000
,
0031
0000
1010
1000
0100
1000
0001
0000
,
0010
0001
0100
0001
0010
0100
1000
0001
,
0100
0000
0110
0010
1000
0000
1100
0001
,
0100
0000
0000
0000
0011
0000
0001
0000
0100
0000
0010
1000
0010
0000
0000
0000
,
1001
0000
0001
0100
2000
0010
3010
0100
,
0001
0010
0001
1000
0010
1000
0200
0000
,
0310
2100
0000
0001
3001
0100
0010
1000
,
0001
0000
0101
0000
0000
0000
1000
0000
0100
0010
0100
0000
0020
0000
0000
0000
,
0031
0000
0110
1000
0001
1000
0100
0010
,
0001
0000
0100
0010
1010
0000
1000
0001
,
0100
0100
0001
1001
0000
0110
1000
0000
,
0001
0100
0010
1000
0000
1000
0001
0100
,
0101
0000
0101
0000
1100
0001
0100
0000
,
0010
1000
0010
1000
0100
0010
0002
0000
,
1003
1010
0000
0001
2000
0100
3100
0000
,
0110
0001
0100
0010
1000
0100
0001
1000
,
2000
0000
3020
0000
0130
0001
1000
0000
,
1100
0000
0000
0000
1100
0000
0000
0000
0001
1000
0001
0000
0000
0000
0100
0000
,
0010
0010
1000
1001
0000
0110
0000
0001
,
2000
0000
0010
0000
3010
0000
0200
0000
0000
0000
0001
0000
0301
1000
0001
0000
,
1001
0000
1001
0000
0110
0001
1000
0100
,
0001
0100
0010
0100
1000
0010
0100
0001
,
0010
1000
0010
0100
0010
0001
0100
0010
,
1000
0100
1000
0001
0010
0100
1000
0001
,
0011
0000
1100
0000
0001
0100
1000
0000
,
1010
0000
0000
0000
1010
0000
0000
0000
1000
0100
1000
0000
0001
0000
0100
0000
,
0110
0000
0000
0000
1001
0000
0001
0100
0010
0000
0010
0000
1000
0000
0001
0000
,
1000
0000
0100
0000
0010
0000
0001
0000
1000
0000
0001
0100
0001
0000
0010
0000
,
0010
0101
0101
0001
1000
0010
0100
0001
,
0100
0000
0010
0000
1000
0000
0001
0000
0010
0000
0100
1000
0001
0000
0010
0000
,
0100
0000
1000
0000
1000
0000
0001
0000
0100
0000
0010
0000
1000
0001
1000
0000
,
0100
1000
0001
0000
0100
0000
0010
0000
1000
0000
0001
0100
0000
0001
0010
0000
,
0001
0100
1000
2010
0000
0001
3001
0100
,
0010
1000
0100
0001
0100
0010
0011
0000
,
1000
0001
0001
1000
0010
0100
0100
0000
,
0001
0100
0010
1000
0100
0001
0100
0001
,
0100
1000
0100
1000
0100
0001
0100
1000
,
0100
0001
0100
1000
1001
0000
1001
0000
,
0110
0001
1000
0010
0100
0001
0010
0100
,
0001
0100
1000
0010
1000
0001
0100
0010
,
0001
0010
1000
0001
1000
0100
0001
0100
,
0010
0001
0100
0010
1010
0000
1010
0000
,
1000
0100
0001
0000
0101
0000
1100
0000
,
0010
1000
0010
0000
0100
0000
0001
0000
1000
0000
1000
0000
0001
0000
1001
0000
,
0000
0110
0000
0010
1000
0100
1000
0002
,
0100
0103
0010
0000
1100
0000
1100
0000
,
0011
0001
0100
0000
0010
1000
0001
1000
,
0100
0010
0002
0000
2000
0000
0000
0000
,
0000
0000
0000
0000
,
0000
0000
3003
0000
;
