#TITLE:Ribbon;
#ARTIST:Ryu*;
#BANNER:Ribbon-bn.png;
#BACKGROUND:Ribbon-bg.png;
#JACKET:Ribbon-jacket.png;
#MUSIC:Ribbon.ogg;
#SAMPLESTART:54.53;
#SAMPLELENGTH:20;
#DISPLAYBPM:181;
#BPMS:0=181;
#BGCHANGES:;

//---------------dance-single - ----------------
#NOTES:
     dance-single:
     :
     Beginner:
     4:
     :
0000
0000
0000
0000
,
0000
0000
0000
0000
,
0000
0000
0000
0000
,
0000
0000
0000
0000
,
0020
0000
0030
0000
,
0200
0000
0300
0000
,
0001
0000
1000
0000
,
0000
0010
0010
0000
,
0100
0000
0001
0000
,
1000
1000
1000
0000
,
0010
0000
0100
0000
,
0001
0001
0001
0000
,
2000
0000
3000
0000
,
0002
0000
0003
0000
,
0100
0000
0010
0000
,
0000
1000
1000
0000
,
0001
0000
0001
0000
,
0100
0100
0100
0000
,
0010
0000
1000
0000
,
0010
0010
0010
0000
,
0100
0000
0010
0000
,
0100
0000
0010
0000
,
1000
0000
0001
0000
,
0000
0000
1000
1000
,
0000
0000
0001
0001
,
0000
0100
0100
0000
,
0010
0000
1000
0000
,
0100
0000
0010
0000
,
0001
0000
0100
0000
,
0001
0000
1000
0000
,
0020
0000
0030
0000
,
0200
0000
0300
0000
,
0001
0000
1000
0000
,
0000
0100
0100
0000
,
2000
0000
3000
0000
,
0010
0010
0010
0000
,
0002
0000
0003
0000
,
0100
0100
0100
0000
,
0010
0000
0100
0000
,
0010
0000
1000
0000
,
0100
0000
0010
0000
,
0000
0001
0001
0001
,
0001
0000
0100
0000
,
0010
0000
1000
0000
,
0100
0000
0010
0000
,
0100
0000
1000
0000
,
0010
0000
1000
0000
,
0001
0000
0010
0000
,
0001
0000
0100
0000
,
0000
1000
1000
1000
,
1000
0000
0001
0000
,
0010
0000
0001
0000
,
0010
0000
0100
0000
,
0010
0000
0001
0000
,
0100
0000
0010
0000
,
1000
0000
0100
0000
,
1000
0000
0001
0000
,
0000
0100
0100
0000
,
1001
0000
1000
0000
,
1001
0000
0001
0000
,
0110
0000
0100
0000
,
0110
0000
0010
0000
,
0001
0000
0001
0000
,
1000
0000
1000
0000
,
0010
0000
1000
0000
,
0000
0100
0000
0110
,
0000
0001
0000
1001
,
0000
0000
1001
0000
,
0110
0000
0000
0000
;

//---------------dance-single - ----------------
#NOTES:
     dance-single:
     :
     Easy:
     6:
     :
0000
0000
0000
0000
,
0000
0000
0000
0000
,
0000
0000
0000
0000
,
0000
0000
0000
0000
,
0010
0000
1000
0100
,
0001
0000
1000
0010
,
0100
0000
0001
1000
,
0000
0010
0100
0001
,
1001
0000
0010
1000
,
0100
0010
0100
1000
,
0110
0000
0001
0100
,
0001
0010
0100
1000
,
0020
0030
1000
0100
,
0020
0030
0001
1000
,
0020
0030
0100
0001
,
0000
1001
1000
0100
,
0110
0000
0001
0010
,
0001
1000
0010
0100
,
1001
0000
0010
1000
,
0100
0010
0001
0100
,
0010
1000
0100
0010
,
0001
0100
0001
1000
,
0010
1000
0100
0001
,
0000
0110
0001
1000
,
0000
1001
0010
0100
,
0000
0110
1000
0100
,
0002
0000
0023
0000
,
0032
0000
2003
0000
,
3020
0000
0230
0000
,
0302
0000
0203
0000
,
0320
0030
1000
0001
,
0020
0030
0001
0100
,
0020
0030
1000
0100
,
0000
1000
0001
0100
,
2002
0000
0000
3003
,
0010
0010
0100
0100
,
0220
0000
0000
0330
,
0001
0001
1000
1000
,
0010
0010
0010
0010
,
1000
1000
1000
1000
,
0001
0001
0001
0001
,
0000
0100
0001
0010
,
0100
1000
0010
1000
,
0100
0010
0001
0100
,
0001
0010
0001
1000
,
0010
1000
0100
0010
,
0001
0100
0001
0010
,
0100
1000
0010
1000
,
0100
1000
0001
0100
,
0000
0010
0100
0100
,
0001
0010
0001
0100
,
1000
0010
1000
0001
,
1000
0100
0001
0010
,
0001
0100
0010
0100
,
0010
1000
0100
0010
,
0001
0100
0001
0010
,
0100
1000
0010
1000
,
0000
0001
0100
0100
,
0020
0030
1000
0001
,
0200
0300
0010
1000
,
0002
0003
0010
0100
,
2000
3000
0001
0010
,
2002
3003
0010
0100
,
0220
0330
0001
1000
,
0010
1000
0100
0001
,
0000
1001
0010
1000
,
0000
0110
0001
0100
,
0000
1001
0001
1000
,
0220
0000
0000
0000
,
0300
0000
0000
0000
,
0000
0000
0000
0000
,
0030
0000
0000
0000
;

//---------------dance-single - ----------------
#NOTES:
     dance-single:
     :
     Medium:
     10:
     :
0000
0000
0000
0000
,
0000
0000
0000
0000
,
0000
0000
0000
0000
,
0000
0000
0000
0000
,
0010
1000
0000
0100
0010
0001
0000
0100
,
0001
1000
0000
0010
1000
0001
0000
0100
,
0001
0010
0000
0100
1000
0010
0000
0100
,
0000
0001
0000
1000
0002
0000
0203
0000
,
0320
0000
0000
2030
0000
3002
0000
0103
,
0010
1000
0010
1000
0100
0010
0001
0000
,
0020
0000
0000
0032
0000
2003
0000
3100
,
1000
0000
0000
1000
0000
0000
1000
0000
0001
0000
0100
0000
0010
0000
0100
0000
,
0001
0010
0000
0002
0000
2003
0000
3100
,
1000
0010
0000
0200
0000
0302
0000
0013
,
0100
2000
0000
3002
0000
1003
0100
0010
,
0000
0011
0000
1000
0001
0000
1100
0000
,
0020
0000
1030
0200
0000
0320
0000
0031
,
0100
0010
0100
0010
1000
0001
0100
0000
,
0002
0000
0013
0200
0000
2300
0000
3010
,
0100
0001
0100
0001
0010
0100
1000
0000
,
2020
0000
3000
1000
0000
0001
0000
1030
,
2002
0000
0003
0010
0000
0100
0000
3010
,
0100
0001
0010
0100
0000
1000
0001
1000
,
0000
0110
0000
0001
1000
0000
0101
0000
,
0000
1100
0000
0001
1001
0000
0101
0000
,
0000
0011
0000
0100
0110
0000
1010
0000
,
0001
0010
0000
0002
0000
2003
0000
3100
,
1000
0001
0000
0020
0000
0230
0000
1300
,
0010
0100
0000
0020
0000
2030
0000
3001
,
0010
0001
0000
2000
0000
3002
0000
0103
,
0001
0010
0000
0002
0000
0203
0000
0310
,
1000
0100
0000
0020
0000
0032
0000
1003
,
0010
0100
0001
1000
0000
1100
0000
0101
,
0000
1000
0000
0001
0200
0000
0320
0000
,
2030
0001
0001
3001
,
1000
0000
0000
1000
0000
0000
1000
0000
0100
0000
0000
0100
0000
0000
0010
0000
,
0002
1000
1000
1003
,
0010
0000
0000
0010
0000
0000
0010
0000
1000
0000
0001
0000
1000
0000
0100
0000
,
0010
0001
0100
0000
1000
0010
0001
0000
,
0100
0001
1000
0000
0010
1000
0100
0000
,
1000
0010
0100
0001
1000
0100
0010
0001
,
0000
0100
0010
0100
0110
0000
1001
0000
,
0010
0001
0100
0020
0000
2030
0000
3001
,
1000
0100
1000
0002
0000
0023
0000
0130
,
0010
0001
1000
0020
0000
0230
0000
0301
,
0010
0001
0000
0011
0000
1010
0000
1000
,
0001
0100
0010
2000
0000
3002
0000
0013
,
0001
1000
0100
0020
0000
0230
0000
1300
,
0010
0100
0001
1000
0000
1000
0001
0010
,
0000
0001
1000
0010
1010
0000
0101
0000
,
0010
0001
0100
0010
0000
1000
0001
0100
,
0001
0010
0100
1000
0000
0010
1000
0001
,
1000
0100
0010
0100
0000
1000
0001
0010
,
0001
0100
0010
1000
0000
0100
0010
0001
,
0100
0010
1000
0000
0001
0010
0100
0000
,
0010
0001
1000
0000
0001
0100
1000
0000
,
0010
1000
0010
1000
0001
0100
0001
0100
,
0000
0010
0000
0100
0110
0000
1001
0000
,
0001
0010
0000
0011
0000
1100
0000
0010
,
1000
0001
0000
1001
0000
1010
0000
0100
,
1000
0001
0000
0011
0000
0101
0000
0010
,
0001
0100
0000
1010
0000
0110
0000
0001
,
1000
0010
1000
0001
0000
0001
0000
0001
,
0010
0001
0100
0010
0000
0010
0000
0010
,
1000
0100
0010
0001
0000
0101
0000
1100
,
0000
1001
0000
1000
1100
0000
0011
0000
,
0000
0110
0000
0001
0101
0000
1010
0000
,
0000
1100
0000
0001
0101
0000
0011
0000
,
2020
0000
0000
0000
,
3000
0000
0000
0000
,
0000
0000
0000
0000
,
0030
0000
0000
0000
;

//---------------dance-single - ----------------
#NOTES:
     dance-single:
     :
     Hard:
     13:
     :
0000
0000
0000
0000
,
0000
0000
0000
0000
,
0000
0000
0000
0000
,
0000
0000
0000
0000
,
0010
1000
0000
0100
0010
0001
0100
0001
,
1000
0001
0000
0010
0100
1000
0001
1000
,
0001
0010
0000
0001
0100
0010
0000
1000
,
0100
0010
0001
0100
0110
0000
0110
0000
,
1000
0010
1000
0001
0010
0100
1000
0010
,
0100
0000
0001
1000
0000
0001
1000
0000
0100
0000
0010
0000
0001
0000
0000
0000
,
1000
0001
0010
0100
0010
0001
1000
0010
,
0100
0000
0001
1000
0000
0001
1000
0000
0010
0000
0100
0000
0001
1000
0001
1000
,
0001
0010
0100
1000
0010
1000
0010
0100
,
0001
0010
0100
1000
0010
1000
0010
0100
,
0001
0010
0001
1000
0100
0010
0100
1000
,
0000
1010
0000
0101
0101
0000
0101
0000
,
0010
1000
0001
0010
0001
0100
0010
1000
,
0100
0000
0010
0001
0000
0010
0001
0000
1000
0000
0010
0000
1000
0100
0000
0000
,
0010
0001
0100
0001
0010
0100
1000
0001
,
0100
0000
0010
1000
0000
0010
1000
0000
0100
0000
0010
0000
0001
1000
0001
1000
,
0001
0010
0100
1000
0000
1000
0010
1000
,
0001
0010
0100
1000
0000
1000
0010
1000
,
0001
0010
0100
0010
0100
1000
0001
0100
,
0000
0101
0000
1100
1100
0000
1100
0000
,
0000
0011
0000
1001
1001
0000
1001
0000
,
0000
0110
0000
1010
1010
0000
1010
0000
,
0001
0010
0100
2000
0000
3002
0000
0103
,
0010
0100
0001
2000
0000
3200
0000
0310
,
0001
0100
0001
2000
0000
3020
0000
0130
,
0001
0000
1000
0000
0100
0000
0010
0000
0000
0000
0001
0000
0100
0010
0100
0010
,
0100
0001
1000
0200
0000
0320
0000
0031
,
0100
0010
1000
0002
0000
0203
0000
0310
,
1000
0001
1000
0010
0100
0001
1000
0001
,
0000
1100
0000
0011
0011
0000
0011
0000
,
0100
0001
1000
0010
1000
0010
1000
0001
,
0011
0000
0000
0110
0000
0000
1100
0000
1100
0000
0001
0000
1000
0100
1000
0100
,
1000
0010
0100
0001
0100
0001
0100
0010
,
1010
0000
0000
1010
0000
0000
0001
0000
1001
0000
1001
0000
0100
0010
0100
0010
,
0100
0001
0010
0100
0010
0100
0010
0001
,
1000
0010
0100
0001
0100
0001
0100
0010
,
1000
0100
0010
0001
0100
0010
1000
0001
,
0000
0010
0001
0100
0110
0000
0110
0000
,
1000
0010
0001
0010
0001
0100
1000
0100
,
0001
1000
0010
0100
1000
0010
0001
0100
,
0001
1000
0100
0010
1000
0010
0001
0100
,
0010
0100
0001
1000
0010
1000
0100
0001
,
1000
0100
0001
0100
0010
0001
0010
1000
,
0001
0010
0100
0010
1000
0001
1000
0100
,
0001
0100
1000
0010
1000
0010
0001
0100
,
0000
0010
1000
0001
1001
0000
1001
0000
,
0001
1000
0100
0010
0001
0100
0010
1000
,
0010
1000
0100
0001
1000
0010
0001
0100
,
1000
0001
0100
0010
0001
0100
0010
1000
,
0010
0001
1000
0001
0100
1000
0100
0010
,
0100
1000
0001
0100
0001
0010
1000
0010
,
0100
1000
0010
0100
1000
0001
0010
0001
,
1000
0010
0100
0001
0100
0001
1000
0010
,
0000
0100
0001
1000
1100
0000
1100
0000
,
0010
1000
0100
0110
0000
0011
0000
0001
,
1000
0010
0100
0101
0000
1100
0000
0001
,
0010
0100
1000
1010
0000
1001
0000
0001
,
0010
0001
0100
0110
0000
1001
0000
0110
,
1000
0010
0100
0001
0010
1000
0100
0001
,
1000
0010
0001
0010
0100
1000
0001
0100
,
1000
0010
0001
0010
0100
1000
0100
0001
,
0000
0011
0000
1010
1010
0000
1010
0000
,
0000
1100
0000
0110
0110
0000
0110
0000
,
0000
0011
0000
0101
0101
0000
0101
0000
,
2020
0000
0000
0000
,
3000
0000
0000
0000
,
0000
0000
0000
0000
,
0030
0000
0000
0000
;
