#TITLE:Rescue Me;
#ARTIST:NAOKI feat. Fracus;
#BANNER:Rescue Me.png;
#BACKGROUND:Rescue Me-bg.png;
#JACKET:Rescue Me-jacket.png;
#MUSIC:Rescue Me.ogg;
#SAMPLESTART:67.88;
#SAMPLELENGTH:20;
#DISPLAYBPM:145;
#BPMS:0=145;
#BGCHANGES:;

//---------------dance-single - ----------------
#NOTES:
     dance-single:
     :
     Beginner:
     2:
     :
0000
0000
0000
0000
,
0000
0000
0000
0000
,
0000
0000
0000
0000
,
0000
0000
0000
0000
,
0000
0000
0000
0000
,
0001
0000
0001
0000
,
1000
0000
1000
0000
,
0010
0000
1000
0000
,
0200
0000
0300
0000
,
1000
0000
0001
0000
,
1000
0000
0010
0000
,
0100
0000
0010
0000
,
1000
0000
0001
0000
,
0010
0000
0001
0000
,
0100
0000
0010
0000
,
1000
0000
0001
0000
,
2000
0000
3000
0000
,
1001
0000
0010
0000
,
1000
0000
0100
0000
,
1000
0000
0001
0000
,
0020
0000
0030
0000
,
0001
0000
0002
0000
,
0003
0000
0100
0000
,
0010
0000
1000
0000
,
1001
0000
0000
0000
,
0002
0000
0003
0000
,
1000
0000
0010
0000
,
2000
0000
3000
0000
,
0010
0000
0100
0000
,
0020
0000
0030
0000
,
1000
0000
0001
0000
,
0200
0000
0300
0000
,
0001
0001
0000
0000
,
1001
0000
0000
0000
,
0000
0000
0000
0000
,
0000
0000
0000
0000
,
0000
0000
0000
0000
,
0010
0000
1000
0000
,
0100
0000
0010
0000
,
0001
0000
0100
0000
,
0010
0010
0010
0000
,
1001
0000
0000
0000
,
1000
0000
0100
0000
,
0020
0000
0030
0000
,
0001
0000
0100
0000
,
2000
0000
3000
0000
,
0010
0000
1000
0000
,
0200
0000
0300
0000
,
1000
1000
0000
0000
,
0010
0000
1000
0000
,
0100
0000
1000
0000
,
0001
0000
0010
0000
,
0001
0000
0100
0000
,
0010
0000
0100
0000
,
0001
0000
0010
0000
,
0001
0001
0000
0000
,
1000
0000
1000
0000
,
0002
0000
0000
0000
,
0000
0000
0000
0003
;

//---------------dance-single - ----------------
#NOTES:
     dance-single:
     :
     Easy:
     6:
     :
0000
0000
0000
0000
,
0000
0000
0000
0000
,
0000
0000
0000
0000
,
0000
0000
0000
0000
,
0000
0000
0000
0000
,
0002
0000
0000
2003
0000
0000
3200
0000
,
0000
0000
0000
0000
,
2300
0000
0000
3002
0000
0000
0023
0000
,
0000
0000
0000
0030
,
0220
0330
0001
0100
,
1000
0010
0001
0000
,
2002
3003
0010
1000
,
0100
0010
0001
0000
,
0220
0330
0100
0001
,
0010
0100
1000
0000
,
0010
1000
0001
1000
,
2002
0000
0000
3003
,
2000
3000
0020
0030
,
1000
0001
0010
0100
,
2000
0000
0000
3020
0000
0000
0230
0000
,
0000
0000
0300
0110
,
0001
0010
1000
0100
,
1000
0001
0010
0100
,
1000
0010
0100
0001
,
2002
0000
0000
3003
,
0010
1000
0000
1000
,
0000
0001
0000
0001
,
0000
0100
0000
0100
,
0000
0010
0000
0010
,
1000
0100
0000
1000
,
0001
0010
0000
0100
,
1000
0010
0000
0100
,
0002
2000
0000
3003
,
0110
0001
0000
1000
,
0000
0001
0000
1000
,
0000
0100
0000
0010
,
0000
0100
0000
0010
,
0001
0001
0001
0001
,
1000
1000
1000
1000
,
0001
1000
0010
0100
,
1001
0110
1001
0000
,
0010
1000
0100
0010
,
0001
0100
0001
0010
,
0001
0100
0010
1000
,
0100
0010
0100
1000
,
0001
0010
0001
0100
,
1000
0001
0010
0001
,
0100
1000
0010
0001
,
0200
0020
0000
0330
,
1000
0010
1000
0100
,
0010
0001
0100
0010
,
1000
0100
0010
0001
,
0100
0001
0010
0100
,
1000
0010
1000
0001
,
0010
1000
0100
0010
,
0001
0100
0001
0010
,
0100
1000
0010
0100
,
0001
0000
0000
0000
;

//---------------dance-single - ----------------
#NOTES:
     dance-single:
     :
     Medium:
     9:
     :
0000
0000
0000
0000
,
0000
0000
0000
0000
,
0000
0000
0000
0000
,
0000
0000
0000
0000
,
0000
0000
0000
0000
,
0001
0010
0001
1000
,
0010
1000
0100
0010
,
0001
0100
0001
1000
,
0010
0100
0010
0100
0010
0100
0010
0000
,
0110
0000
0000
0000
0000
0000
0001
0000
1000
0000
0000
0010
0000
0000
1000
0000
,
0100
0000
0000
0010
0000
0000
0002
0000
0000
0000
0000
0000
0003
0000
0000
0000
,
1001
0000
0000
0000
0000
0000
1000
0000
0100
0000
0000
1000
0000
0000
0001
0000
,
0010
0000
0000
0001
0000
0000
0200
0000
0000
0000
0000
0000
0300
0000
0000
0000
,
0101
0000
0000
0000
0000
0000
0010
0000
0001
0000
0000
1000
0000
0000
0010
0000
,
0100
0000
0000
0001
0000
0000
2000
0000
0000
0000
0000
0000
3000
0000
0100
0000
,
1000
0000
0001
1000
0010
0000
0100
0001
,
0020
0001
1000
0031
,
1100
0000
0000
0001
2000
0000
3000
0010
,
1000
0000
0100
0010
0000
0001
0100
0000
,
0002
0000
0000
0000
0000
0000
2003
0000
0000
0000
0000
3020
0000
0000
0000
0000
,
1000
0000
0100
0000
1030
0000
0001
0100
,
0002
0000
0003
1000
0200
0000
0000
0000
,
0000
0000
0000
0000
0300
0000
0010
0000
0001
0000
0000
1000
0000
0000
0010
0000
,
1000
0000
0000
0100
0000
0000
1000
0000
0001
0000
0000
0100
0000
0000
0001
0000
,
0010
0000
0001
1000
0001
0000
0010
0100
,
2000
0000
0000
0000
0000
0000
3000
0001
,
0010
0000
0001
0100
0000
0010
0000
2000
,
0000
0000
0000
0000
0000
0000
3000
0100
,
1000
0000
0010
0100
0000
0001
0000
0010
,
0000
0000
0011
0000
1000
0000
0010
0100
,
0001
0000
1000
0010
0000
1000
0000
0100
,
0000
0000
1100
0000
0001
0000
0100
0010
,
1000
0000
2000
0002
0000
0000
3003
0000
,
0000
0000
0000
0000
0010
0000
1000
0001
0000
0000
0000
0000
0000
0000
0000
0000
,
0000
0000
0000
0000
0000
0000
0000
0000
0000
0000
0000
0000
0010
0000
0001
1000
,
0000
0000
0000
0000
,
0100
0000
0000
1000
0000
0000
0001
0000
0000
0000
0000
0000
0000
0000
0000
0000
,
0000
0000
0000
1000
0000
0000
0010
0000
0000
0000
0000
0100
0000
0000
0001
0000
,
0000
0000
0000
0010
0000
0000
0100
0000
0000
0000
0000
1000
0000
0000
0001
0000
,
0000
0000
0000
0010
0000
0000
0001
0000
0000
0000
0000
1000
0000
0000
0100
0000
,
0010
0110
1001
0000
,
1000
0001
0100
0000
0010
0000
1000
0100
,
0010
0000
0001
1000
0000
0010
0000
0100
,
0001
0010
0100
0000
1000
0000
0001
0010
,
0001
0000
0100
0010
0000
1000
0000
0100
,
1000
0001
0010
0000
0001
0000
0100
0010
,
1000
0000
0100
0010
0000
0001
0000
0100
,
0010
1000
0001
0000
0010
0000
0001
0100
,
0010
0000
0200
0020
0000
0000
0330
0000
,
1000
0100
1000
0000
0001
0010
0001
0000
,
0100
0010
1000
0000
0100
0010
0001
0000
,
1000
0001
0100
0000
0001
0010
0100
0000
,
0010
0001
1000
0000
0100
1000
0010
0000
,
1000
0001
1000
0000
0100
0010
0001
0000
,
0100
0001
0010
0000
0001
0100
0010
0000
,
1000
0100
0010
0000
0100
0010
0001
0000
,
1000
0001
0100
0010
1000
0001
2000
0000
,
0002
0000
0000
0000
,
0000
0000
0000
3003
;

//---------------dance-single - ----------------
#NOTES:
     dance-single:
     :
     Hard:
     12:
     :
0000
0000
0000
0000
,
0000
0000
0000
0000
,
0000
0000
0000
0000
,
0000
0000
0000
0000
,
0000
0000
0000
0000
,
0001
0000
0010
0000
0000
0100
0000
0000
1000
0000
0000
0010
0000
0000
1000
0000
,
0100
0000
0010
0000
0000
0001
0000
0000
1000
0000
0000
0001
0000
0000
0100
0000
,
0010
0000
1000
0000
0000
0100
0000
0000
0010
0000
0000
0001
0000
0000
1000
0000
,
0010
0000
1000
0000
0000
0001
0000
0000
0100
0000
0000
0010
0000
0000
1000
0000
,
0110
0000
0000
0010
1000
0000
0001
0000
0010
0000
0000
0001
0100
0000
0010
0000
,
1000
0000
0000
0100
1000
0000
0002
0000
0000
0000
0010
0000
0000
0000
0103
0000
,
1001
0000
0000
0010
1000
0000
0100
0000
1000
0000
0000
0001
0010
0000
0100
0000
,
1000
0000
0000
0001
1000
0000
0020
0000
0000
0000
0001
0000
0000
0000
0130
0000
,
1010
0000
0000
1000
0001
0000
0010
0000
0100
0000
0000
0010
0100
0000
1000
0000
,
0001
0000
0000
0010
0001
0000
2000
0000
0000
0000
0100
0000
0000
0000
3010
0000
,
1000
0000
0000
0001
0010
0000
0100
0000
1000
0000
0000
0001
1000
0000
0010
0000
,
0110
0000
0000
0100
0001
0000
0010
0000
0100
0000
1000
0001
0000
1000
0001
0000
,
0010
0000
0001
0100
0001
0000
1000
0000
0010
0000
0000
0100
0001
0000
1000
0000
,
0100
0000
0000
0010
0001
0000
1000
0000
0010
0000
1000
0000
0100
0000
0010
0000
,
0011
0000
0000
0100
0010
0000
1000
0000
0001
0000
0010
0100
0000
0000
1000
0000
,
0001
0000
1000
0000
0010
0000
0100
0001
0000
0000
1010
0000
0001
0000
0100
0000
,
0010
0000
0000
1000
0100
0000
0010
0000
0100
0000
1000
0001
0000
0000
0010
0001
,
0000
0000
0100
0010
0000
0000
1000
0000
0001
0000
0000
0010
0001
0000
0100
0000
,
0001
0000
0000
0010
0001
0000
1000
0000
0100
0000
0000
0010
0001
0000
0100
0000
,
1002
0000
1003
0100
1000
0001
0100
0010
,
0210
0000
0000
0001
0000
0000
0001
0000
0000
0000
0000
1000
0000
0000
1300
0000
,
0200
0000
0301
2000
0000
3002
0000
0023
,
0000
0000
0000
1000
0000
0000
1000
0000
0000
0000
0000
0001
0000
0000
0031
0000
,
0200
0000
0310
2000
0000
3002
0000
0013
,
0001
0000
0000
0000
0101
0000
0010
0000
1000
0000
0000
0100
1000
0000
0001
0000
,
0010
0000
0000
0000
1100
0000
1000
0000
0001
0000
0000
0010
0001
0000
0100
0000
,
0010
0000
1000
0000
0000
0100
0000
0000
1000
0000
0000
0001
0000
0000
0100
0000
,
0010
1000
0001
1000
0100
0010
0001
0100
,
0010
0000
0000
1000
0000
0000
1000
0000
0000
0000
0000
0001
0000
0000
0001
0000
,
0000
0000
0000
0100
0000
0000
0100
0000
0000
0000
0000
0010
0000
0000
0010
0000
,
0000
0000
0000
1000
0000
0000
0100
0000
0000
0000
0000
0010
0000
0000
0001
0000
,
0000
0000
0000
1000
0000
0000
0001
0000
0000
0000
0000
0100
0000
0000
0010
0000
,
1000
0000
0000
0100
1000
0000
0001
0000
0010
0000
0000
0001
0100
0000
0010
0000
,
1000
0000
0000
0001
1000
0000
0100
0000
0010
0000
0000
0001
1000
0000
0001
0000
,
0100
0000
0000
0010
1000
0000
0001
0000
0010
0000
0000
0001
0100
0000
0010
0000
,
0110
1001
0110
0000
,
1001
1000
0100
0000
0010
0001
0100
0001
,
1000
0001
0010
0000
0001
0100
0010
1000
,
0100
0010
0001
0000
0100
0010
1000
0001
,
1000
0001
0010
0000
0001
0100
0010
1000
,
0100
0010
0001
0000
0100
0010
1000
0100
,
1000
0100
0010
0000
0001
1000
0001
0010
,
0001
0100
0010
0000
1000
0001
1000
0100
,
0010
0001
0100
0010
1000
0001
1000
0000
,
0010
1000
0010
0100
0010
1000
0010
0001
,
0010
1000
0010
0100
0010
0001
0010
1000
,
0100
0001
0100
0010
0100
1000
0100
0001
,
0100
1000
0100
0001
0100
0010
0100
1000
,
0010
0001
0010
1000
0010
0100
0010
0001
,
0010
1000
0010
0100
0010
1000
0010
0001
,
0010
1000
0100
0010
0001
0100
0001
1000
,
0010
0001
0010
1000
0100
0010
0001
0200
,
0002
0000
0000
0000
,
0000
0000
0000
0303
;

//---------------dance-single - ----------------
#NOTES:
     dance-single:
     :
     Challenge:
     15:
     :
0000
0000
0000
0000
,
0000
0000
0000
0000
,
0000
0000
0000
0000
,
0000
0000
0000
0000
,
0000
0000
0000
0000
,
0001
0000
0000
0010
0100
0000
1000
0000
0010
0000
0000
0100
0001
0000
1000
0000
,
0100
0000
0010
0000
0001
0100
0000
0010
1000
0000
0000
0100
1000
0000
0001
0000
,
0010
0000
0001
0000
1000
0010
0000
0100
0001
0000
0000
1000
0001
0000
0100
0000
,
0010
0000
1000
0000
0100
0010
0000
0100
1000
0000
0001
0100
0000
0001
0010
0000
,
0110
0000
0000
1000
0001
0000
0100
0000
0010
0000
1000
0100
1000
0000
0001
0000
,
0010
0000
0001
1000
0001
0000
0010
0100
0000
0000
1000
0010
1000
0000
0100
0010
,
0001
0000
0000
1000
0010
0000
0100
0000
0001
0000
0010
0100
0010
0000
0001
1000
,
0100
0000
0000
1000
0010
0000
0100
0001
0000
0000
0010
0100
0010
0000
0001
1000
,
0100
0000
1000
0010
1000
0000
0001
0000
0010
0000
0100
1000
0000
0001
0100
0000
,
0010
0000
1000
0000
0001
0000
0010
0100
1000
0000
0010
1000
0001
0000
0100
0010
,
1000
0000
0000
0100
0010
0000
0001
0000
0100
0000
0010
1000
0000
1000
0001
0000
,
0010
0000
0001
0100
0001
0000
1000
0000
0100
0000
0010
0001
0000
1000
0100
0000
,
0110
0000
0001
1000
0001
0000
0100
0000
0010
0000
1000
0100
0010
0000
0001
0000
,
0100
0000
0010
1000
0001
0000
0010
0000
0100
0000
1000
0010
1000
0000
0001
0000
,
0100
0000
0010
1000
0010
0000
0100
0000
0001
0000
0010
0001
0000
1000
0100
0000
,
0010
0000
0100
1000
0001
0000
1000
0010
0100
0000
0001
0010
0001
0000
1000
0000
,
0100
0000
1000
0001
1000
0000
0010
0000
0100
0000
0001
0010
0001
0000
1000
0000
,
0100
0000
0010
0001
0000
0001
1000
0000
0100
0000
1000
0010
0000
0010
1000
0000
,
0100
0000
0010
0001
1000
0000
0010
0000
1000
0000
0100
1000
0001
0000
0010
0000
,
1001
0000
0000
0000
0110
0000
1000
0000
0001
0010
0100
1000
0010
1000
0001
0100
,
0020
0000
0000
1000
0000
0000
0031
0000
0200
0000
0000
1000
0000
0000
0310
0000
,
2000
0000
0000
0001
0000
0000
3100
0000
0002
0000
0000
0010
0000
0000
1003
0000
,
0200
0000
0000
0001
0000
0000
0310
0000
2000
0000
0000
0010
0000
0000
3100
0000
,
0002
0000
0000
1000
0000
0000
0103
0000
0020
0000
0000
0001
0000
0000
1030
0000
,
0100
0000
0010
0001
0000
0001
1000
0000
0010
0000
1000
0100
0000
0100
0010
0000
,
0001
0000
0100
0000
0010
1000
0000
0100
0010
0000
0001
1000
0000
1000
0100
0000
,
0001
0000
0100
0000
1000
0001
0000
0010
0001
0000
0100
0010
0000
1000
0100
0000
,
1001
0000
0010
0000
1000
0000
0001
0000
1000
0100
1000
0100
0010
0001
0010
0001
,
0100
0000
0000
0010
0000
0010
1000
0000
0000
0000
0000
0001
0000
0000
0001
0000
,
0000
0000
0000
1000
0000
0000
1000
0000
0000
0000
0000
0100
0000
0100
0010
0000
,
0000
0000
0000
0001
0000
0000
1000
0000
0000
0000
0000
0010
0000
0000
0100
0000
,
0101
0000
0000
1100
0000
0000
0101
0000
0000
0000
0001
1000
0001
1000
0001
1000
,
0001
0000
0000
0010
0001
0000
1000
0000
0010
0000
0000
0100
0001
0000
1000
0000
,
0100
0000
0000
0010
0100
0000
1000
0000
0001
0000
0000
0010
0001
0000
0100
0000
,
0010
0000
0000
1000
0100
0000
0010
0000
0001
0000
0000
1000
0001
0000
0100
0000
,
0110
1001
0110
0000
,
1001
0000
0010
0000
1000
0000
0100
0010
0000
0001
0000
0100
0000
0001
1000
0000
,
0010
0000
0001
0000
0010
0000
1000
0100
0000
1000
0000
0001
0000
0010
0100
0000
,
0001
0000
0100
0000
0010
0000
0001
1000
0000
0010
0000
1000
0000
0100
0010
0000
,
0001
0000
1000
0000
0010
0000
0001
0010
0000
0100
0000
1000
0000
0100
0001
0000
,
0010
0000
0001
0000
0100
0000
0010
1000
0000
0100
0000
0010
0000
0001
1000
0000
,
0010
0000
1000
0000
0100
0000
0010
0100
0000
1000
0000
0001
0000
1000
0001
0000
,
0100
0000
1000
0000
0100
0000
0010
0100
0000
0001
0000
0010
0000
0001
1000
0000
,
0010
0000
0100
0000
0010
0000
1000
0100
0000
1000
0000
0001
0000
0010
0001
0000
,
0100
0000
0010
1000
0100
0000
0010
0001
1000
0001
0000
0010
0001
0100
0010
0000
,
1000
0000
0100
1000
0001
0000
0010
0100
1000
0010
0000
0100
0001
1000
0001
0000
,
0010
0000
0100
1000
0001
0000
0010
0001
1000
0010
0000
1000
0100
0010
0001
0000
,
0100
0000
0001
1000
0001
0000
0010
0100
1000
0010
0000
1000
0001
0010
0100
0000
,
1000
0000
0010
1000
0001
0000
0010
0100
0010
0001
0000
0100
0010
1000
0001
0000
,
0010
0000
0001
1000
0010
0000
0100
0010
1000
0100
0000
1000
0001
0100
0001
0000
,
0010
0000
0100
1000
0001
0000
0100
0010
1000
0001
1000
0001
0010
0001
1000
0100
,
0010
0000
0010
0000
0010
0000
0010
0000
0001
1000
0010
0100
0001
0010
0100
2000
,
0002
0000
0000
0000
,
0000
0000
0000
3003
;

//---------------dance-double - ----------------
#NOTES:
     dance-double:
     :
     Easy:
     5:
     :
00000000
00000000
00000000
00000000
,
00000000
00000000
00000000
00000000
,
00000000
00000000
00000000
00000000
,
00000000
00000000
00000000
00000000
,
00000000
00000000
00000000
00000000
,
01000000
00000000
00010000
00010000
,
00001000
00000000
00000010
00000010
,
00001000
00000000
00010000
01000000
,
10000000
00000000
00100000
00010000
,
00001000
00000000
00000100
00000000
,
00000001
00000010
00001000
00000000
,
00010000
00000000
01000000
00000000
,
10000000
00100000
00010000
00000000
,
00001000
00000000
00000100
00000000
,
00000010
00001000
00010000
00000000
,
01000000
00000000
10000000
00000000
,
00100000
00010000
00001000
00000100
,
00000001
00000000
00000010
00000000
,
00001000
00010000
01000000
10000000
,
00100000
00000000
00010000
00000000
,
00001000
00000100
00000001
00000000
,
00000010
00000000
00001000
00000000
,
00010000
01000000
00010000
00001000
,
00000100
00000000
00000010
00000000
,
00001000
00000000
00000000
00000000
,
00010000
00000000
01000000
00000000
,
00100000
00000000
00010000
00000000
,
00001000
00000000
00000100
00000000
,
00000010
00000000
00001000
00000000
,
00010000
00000000
01000000
00000000
,
10000000
11000000
00000000
00000000
,
00010000
01010000
00000000
00000000
,
00001000
00000100
00000000
00000001
,
00000010
00000000
00000000
00000000
,
00001000
00000000
00000000
00000000
,
00010000
00000000
00000000
00000000
,
00001000
00000000
00000000
00000000
,
00010000
00000000
00001000
00000100
,
00000010
00000100
00000000
00001000
,
00010000
01000000
10000000
00000000
,
00100000
00010000
00001000
00000100
,
00000010
00000000
00000000
00000000
,
00000100
00000000
00000000
00000000
,
00001000
00000000
00000000
00000000
,
00010000
00000000
00000000
00000000
,
01000000
10000000
00100000
00000000
,
00010000
00001000
00000100
00000000
,
00000001
00000000
00000010
00000000
,
00000100
00000001
00000010
00000000
,
00001000
00010000
01000000
00000000
,
10000000
00100000
00010000
00000000
,
00001000
00000000
00010000
00000000
,
00100000
01000000
00010000
00000000
,
00001000
00000100
00000010
00000000
,
00001000
00010000
00000000
00100000
,
01000000
00000000
00010000
00000000
,
00001000
00000010
00000100
00000001
,
00001000
00000000
00000000
00000000
,
00000000
00000000
00000000
00000000
;

//---------------dance-double - ----------------
#NOTES:
     dance-double:
     :
     Medium:
     9:
     :
00000000
00000000
00000000
00000000
,
00000000
00000000
00000000
00000000
,
00000000
00000000
00000000
00000000
,
00000000
00000000
00000000
00000000
,
00000000
00000000
00000000
00000000
,
00010000
00000000
00110000
00000000
00010000
00001000
00000100
00000000
,
00000010
00000000
00000011
00000000
00001000
00010000
01000000
00000000
,
00100000
00000000
10100000
00000000
00010000
00001000
00000100
00000000
,
00000001
00000000
00000100
00000000
00001000
00010000
00100000
00000000
,
10000000
00000000
01000000
00010000
,
00001000
00000000
00000010
00000000
00000100
00000001
00000100
00000000
,
00001000
00000000
00010000
01000000
,
10000000
00000000
00100000
00000000
01000000
00010000
00001000
00000000
,
00000100
00000000
00000001
00000100
,
00001000
00000000
00010000
00000000
00100000
10000000
00100000
00000000
,
00010000
00001000
00000000
00000000
00000010
00000001
00000000
00000000
,
00000010
00001000
00000000
00000000
00010000
01000000
00010000
00000000
,
00001000
00000000
00000000
00000100
00000001
00000000
00000100
00000000
,
00000000
00001000
00000000
00010000
00100000
10000000
01000000
00000000
,
00010000
00000000
00000000
00001000
00000010
00000000
00000001
00000000
,
00000000
00000010
00000000
00000010
00001000
00010000
00100000
00000000
,
10000000
00000000
01000000
00000000
00010000
00001000
00000100
00000000
,
00000010
00000000
00000001
00000000
00001000
00010000
00100000
00000000
,
00010000
01000000
00010000
00000000
00001000
00000010
00001000
00000000
,
00010000
00100000
10000000
00000000
,
00100000
00000000
00000000
00010000
00001000
00000000
00000000
00000000
,
00000100
00000000
00000000
00000001
00000100
00000000
00000000
00000000
,
00001000
00000000
00000000
00010000
00001000
00000000
00000000
00000000
,
00010000
00000000
00000000
01000000
10000000
00000000
01000000
00000000
,
00100000
10000000
01000000
00000000
00100000
00000000
00110000
00000000
,
00001000
00000010
00001000
00000000
00000001
00000000
00000101
00000000
,
00001000
00010000
00100000
00000000
10000000
00000000
11000000
00000000
,
00100000
00010000
00001000
00000010
,
00000001
00000000
00000010
00000000
,
00001000
00000000
00010000
00100000
,
10000000
00000000
00100000
00000000
,
00010000
00000000
00001000
00000100
,
00000001
00000100
00000001
00000000
00000100
00000000
00001000
00000000
,
00010000
01000000
00010000
00000000
00001000
00000000
00000010
00000000
,
00000001
00000010
00001000
00000000
00010000
00000000
00100000
00000000
,
10000000
00100000
00010000
00000000
00001000
00000000
00000100
00000000
,
00000001
00000100
00001000
00010000
,
00100000
00000000
10000000
00000000
00100000
00010000
00100000
00000000
,
00010000
00001000
00000010
00000001
,
00000100
00000000
00001000
00000000
00010000
01000000
00010000
00000000
,
00001000
00000100
00000001
00000000
00000100
00000000
00001000
00000000
,
00010000
00100000
10000000
00000000
00100000
00000000
00010000
00000000
,
00001000
00000010
00000001
00000000
00000010
00000000
00001000
00000000
,
00010000
01000000
10000000
00000000
01000000
00000000
00010000
00000000
,
00001000
00000100
00000001
00000000
00000100
00000000
00001000
00000000
,
00010000
00100000
10000000
00000000
00100000
00000000
00010000
00000000
,
00001000
00000010
00000001
00000000
00000010
00000000
00001000
00000000
,
00010000
01000000
10000000
00000000
01000000
00000000
00010000
00000000
,
00001000
00001010
00001000
00010000
,
00100000
10100000
00100000
00010000
,
00001000
00000100
00000001
00000000
00000100
00001000
00010000
00000000
,
00100000
00010000
01000000
00000000
00100000
10000000
00010000
00001000
,
00000010
00000000
00000000
00000000
,
00000000
00000000
00000000
00000000
;

//---------------dance-double - ----------------
#NOTES:
     dance-double:
     :
     Hard:
     13:
     :
00000000
00000000
00000000
00000000
,
00000000
00000000
00000000
00000000
,
00000000
00000000
00000000
00000000
,
00000000
00000000
00000000
00000000
,
00000000
00000000
00000000
00000000
,
00000010
00000001
00000100
00000000
00001000
00010000
01000000
00000000
,
10000000
00100000
10000000
00000000
01000000
00000000
00110000
00000000
,
00100000
00010000
01000000
00000000
00010000
00001000
00010000
00000000
,
00000000
00000000
00001000
00000000
00000000
00000010
00000000
00000000
00000100
00000000
00000001
00000000
00000100
00000000
00000000
00000000
,
00000010
00000000
00000000
00000000
00000000
00000000
00001000
00000000
00010000
00000000
00000000
01000000
00000000
00000000
10000000
00000000
,
01000000
00000000
00000000
00010000
00000000
00000000
00100000
00000000
00010000
00001000
00000000
00010000
00000000
00000000
00000000
00000000
,
00100000
00000000
00000000
00000000
00000000
00000000
00010000
00000000
00001000
00000000
00000000
00000100
00000000
00000000
00000001
00000000
,
00000100
00000000
00000000
00001000
00000000
00000000
00000010
00000000
00001000
00010000
00000000
00001000
00000000
00000000
00000000
00000000
,
00010000
00000000
00000000
00000000
00000000
00000000
00100000
00000000
00010000
00000000
00000000
01000000
00000000
00000000
10000000
00000000
,
01000000
00000000
00000000
00010000
00000000
00000000
00100000
00000000
00010000
00001000
00000000
00010000
00000000
00000000
00000000
00000000
,
00001000
00000010
00000000
00000001
00000010
00001000
00000000
00000100
,
00001000
00000000
00000000
00010000
00000000
00000000
01000000
10000000
01000000
00000000
00000000
00000000
00010000
00000000
00000000
00000000
,
00110000
00000000
00000000
00000000
00000000
00000000
00001000
00000000
00010000
00000000
00000000
00001000
00000000
00000000
00000100
00000000
,
00000000
00000001
00000000
00000010
00000000
00000001
00000100
00000000
,
00001000
00000000
00010000
00001000
00000000
00000100
00001000
00010000
,
00000000
00000000
00100000
00000000
00000000
00000000
10000000
00000000
01000000
00000000
00000000
10000000
00000000
00000000
00100000
00000000
,
00010000
00001000
00000100
00000000
00000100
00000001
00000010
00000000
,
00000010
00000000
00001000
00000000
00010000
00000000
00000000
00000000
00010000
00100000
00000000
10000000
00000000
00000000
00100000
00000000
,
00010000
00000000
00000000
00001000
00000000
00000000
00000100
00000000
00000001
00000000
00000000
00000010
00000000
00000000
00000001
00000000
,
00000100
00000000
00000000
00000000
,
00001000
00000000
00010000
00000000
00000000
00100000
00000000
00000000
10000000
00000000
00000000
01000000
00000000
00000000
10000000
00000000
,
00100000
00000000
00010000
00000000
00000000
00001000
00000000
00000000
00000100
00000000
00000000
00000001
00000000
00000000
00000100
00000000
,
00001000
00000000
00000010
00000000
00000000
00001000
00000000
00000000
00010000
00000000
00000000
00100000
00000000
00000000
10000000
00000000
,
01000000
00000000
10000000
00100000
00000000
00010000
00000000
00001000
,
00000000
00000000
00010000
00000000
00000000
01000000
00000000
00000000
00010000
00000000
00000000
00001000
00000000
00000000
00000010
00000000
,
00000000
00000000
00001000
00000000
00000000
00000100
00000000
00000000
00000001
00000000
00000000
00000100
00000000
00000000
00001000
00000000
,
00000000
00000000
00010000
00000000
00000000
00100000
00000000
00000000
00010000
00000000
00000000
00001000
00000000
00000000
00010000
00000000
,
00100000
00000000
10000000
01000000
00000000
00010000
00000000
00001000
,
00000200
00000000
00000000
00000001
00000000
00000000
00000010
00000000
00002300
00000000
00000000
00010000
00000000
00000000
00000100
00000000
,
00023000
00000000
00000000
00100000
00000000
00000000
01000000
00000000
20030000
00000000
00000000
01000000
00000000
00000000
30200000
00000000
,
02300000
00000000
00000000
10000000
00000000
00000000
00100000
00000000
03020000
00000000
00000000
00001000
00000000
00000000
01000000
00000000
,
00032000
00000000
00000000
00000010
00000000
00000000
00000100
00000000
00003002
00000000
00000000
00000100
00000000
00000000
00000013
00000000
,
00002000
00000000
00010000
00000000
00010000
00000000
00000000
00000000
00023000
00100000
00000000
00130000
00000000
00000000
00000000
00000000
,
20000000
00000000
01000000
00000000
01000000
00000000
00000000
00000000
30200000
00010000
00000000
00310000
00000000
00000000
00000000
00000000
,
00002000
00000000
00000010
00000000
00000100
00000000
00000000
00000000
00003020
00000001
00000000
00001030
00000000
00000000
00000000
00000000
,
00020000
00000000
00100000
00000000
00000000
00031000
00000000
00000000
00002000
00000000
00000100
00000000
00013000
00000000
00000000
00000000
,
00100000
00000000
10000000
00000000
02000000
00000000
00000000
00000000
00010000
00000000
00000000
13000000
00000000
00000000
00000000
00000000
,
00100000
00000000
00010000
00000000
00002000
00000000
00000000
00000000
00000010
00000000
00000000
00013000
00000000
00000000
00000000
00000000
,
00000010
00000000
00001000
00000000
00000200
00000000
00000000
00000000
00000001
00000000
00000000
00001300
00000000
00000000
00000000
00000000
,
00000010
00000000
00001000
00000000
00020000
00000000
00000000
00000000
00100000
00000000
00000000
00031000
00000000
00000000
00000000
00000000
,
00100000
00000000
00010000
00000000
00100000
00000000
00000000
00000000
00010000
01000000
00000000
00010000
00000000
00000000
00001000
00000000
,
00000100
00000000
00000001
00000000
00000100
00000000
00000000
00000000
00001000
00010000
00000000
00001000
00000000
00000000
00000100
00000000
,
00000010
00000000
00001000
00000000
00000010
00000000
00000000
00000000
00001000
00000100
00000000
00001000
00000000
00000000
00010000
00000000
,
01000000
00000000
10000000
00000000
01000000
00000000
00000000
00000000
00010000
00001000
00000000
00010000
00000000
00000000
01000000
00000000
,
10000000
00000000
01000000
00000000
00010000
00000000
00000000
00000000
00010000
01000000
00010000
00000000
00001000
00000000
00000010
00000000
,
00001000
00000000
00010000
00000000
00100000
00000000
00000000
00000000
00100000
00010000
00002000
00000000
00000010
00000000
00003100
00000000
,
00000001
00000000
00000100
00000000
00001000
00000000
00000000
00000000
00001000
00000100
00001000
00000000
00010000
00000000
00100000
00000000
,
00010000
00000000
00001000
00000000
00000010
00000000
00000000
00000000
00000010
00001000
00020000
00000000
00100000
00000000
01030000
00000000
,
00100000
00000000
00010000
00000000
01000000
00000000
00000000
00000000
10000000
01000000
00100000
00000000
00010000
00000000
00001000
00000000
,
00000010
00000001
00000010
00000000
00000000
00000100
00001000
00000010
,
00001000
00010000
00000000
00100000
00000000
00000000
10000000
00000000
01000000
10000000
00000000
00100000
00000000
00000000
00010000
00000000
,
00000000
00000000
00001000
00000000
00000000
00000010
00000000
00001000
00010000
00000000
00100000
00000000
00010000
00000000
00001000
00000000
,
00000100
00000000
00000000
00000000
,
00000000
00000000
00000000
00000000
;

//---------------dance-double - ----------------
#NOTES:
     dance-double:
     :
     Challenge:
     15:
     :
00000000
00000000
00000000
00000000
,
00000000
00000000
00000000
00000000
,
00000000
00000000
00000000
00000000
,
00000000
00000000
00000000
00000000
,
00000000
00000000
00000000
00000000
,
00000100
00000000
00000000
00000100
00001000
00000000
00000000
00001000
00000010
00000000
00000000
00000010
00000100
00000000
00000000
00000100
,
00000001
00000000
00000000
00000001
00000010
00000000
00000000
00000010
00000100
00000000
00000000
00000100
00010000
00000000
00000000
00010000
,
00001000
00000000
00000000
00001000
00100000
00000000
00000000
00100000
01000000
00000000
00000000
01000000
10000000
00000000
00000000
10000000
,
00100000
00000000
00100000
00000000
00100000
00000000
00100000
00000000
10000000
00010000
10000000
00010000
10000000
00010000
10000000
00010000
,
01000000
00000000
00000000
00100000
10000000
00000000
00010000
00000000
00100000
00001000
00000000
00001000
00010000
00000000
00000100
00000000
,
00000010
00000100
00000000
00000100
00001000
00000000
00000001
00000000
00000000
00000000
00000100
00000010
00000000
00000000
00000100
00000010
,
00010000
00000000
00000000
00001000
00100000
00000000
01000000
00000000
10000000
00100000
00000000
00100000
01000000
00000000
00010000
00000000
,
00100000
00001000
00000000
00001000
01000000
00000000
00100000
00000000
00000000
00000000
10000000
00010000
00000000
00000000
10000000
00010000
,
00100000
01000000
00000000
00100000
00001000
00000000
01000000
00000000
00010000
00100000
00000000
00100000
00001000
00000000
00000100
00000000
,
00000001
00000000
00000010
00000001
00000000
00000001
00001000
00000000
00000000
00000000
00000100
00000010
00000000
00000000
00000100
00000010
,
00000001
00000000
00001000
00000010
00000100
00000000
00000001
00000000
00000010
00000000
00000100
00010000
00001000
00000000
01000000
00000000
,
00100000
00000000
00000000
10000000
01000000
00000000
10000000
00010000
01000000
00000000
00001000
00010000
00000000
00000000
00001000
00010000
,
00100000
10000000
00000000
10000000
00100000
00000000
01000000
00000000
00010000
00100000
00000000
00100000
00010000
00000000
01000000
00000000
,
10000000
00100000
01000000
00100000
10000000
00000000
00010000
00000000
00100000
00000000
01000000
00100000
00010000
00000000
00001000
00000000
,
00000101
00000000
00000010
00001000
00000010
00000000
00001100
00000000
00000010
00000000
00000001
00000100
00000001
00000000
00001000
00000100
,
00000000
00000000
00000010
00000001
00000000
00000000
00000100
00000010
00000000
00000000
00001000
00000001
00001000
00000000
01000000
00000000
,
10000000
00000000
00100000
01000000
00100000
00000000
01100000
00000000
01100000
00000000
01000000
00010000
00000000
00000000
10000000
00010000
,
00000000
00000000
00100000
00001000
00010000
00000000
00000100
00000000
00000010
00000001
00000000
00000001
00000100
00000000
00000010
00000000
,
00001010
00000000
00000000
00000101
00000000
00000000
00000011
00000000
00001100
00000000
00000000
00001001
00000000
00000000
00000110
00000000
,
00000010
00000000
00000010
00000000
00000010
00000000
00000010
00000000
00010000
00001000
00010000
00001000
00010000
00001000
00010000
00001000
,
02000000
00000000
00000000
00100000
00000000
00000000
00100000
00000000
00000000
00000000
00000000
00100000
00000000
00000000
03100000
00000000
,
10000000
01000000
10000000
00010000
00000000
00100000
00010000
02000000
,
00000000
00000000
10000000
00000000
00000000
00010000
00000000
00000000
10000000
00000000
00000000
00010000
00000000
00000000
13000000
00000000
,
01000000
00000000
00001000
00000000
00100000
00000000
00010000
00000000
00000000
00000000
01000000
00100000
00000000
01000000
00100000
00000000
,
00001000
00000000
00000010
00000000
00001000
00000100
00000000
00000100
00000010
00000000
00000010
00000001
00000000
00000001
00001000
00000000
,
00000010
00000001
00000010
00001000
00000100
00000001
00000100
00001000
,
00000010
00000000
00010000
00000000
00001000
00100000
00000000
00100000
01000000
00000000
01000000
10000000
00000000
10000000
00010000
00000000
,
10010000
00000000
01000000
00000000
00100000
00000000
01100000
00000000
00001000
00010000
00001000
00010000
00001000
00010000
00001000
00010000
,
00000100
00000000
00000000
00000001
00000000
00000001
00000010
00000000
00000000
00000000
00000000
00001000
00000000
00000000
00001000
00000000
,
00000000
00000000
00000000
00001000
00000000
00000000
00001000
00000000
00000000
00000000
00000000
00000000
00000000
00010000
00000000
00001000
,
01000000
00000000
00000000
00001000
00000000
00000000
00001000
00000000
00000000
00000000
00000000
00001000
00000000
00000000
00001000
00000000
,
00110000
00000000
00000000
00000000
00000000
00000000
00000000
00000000
11000000
00000000
00000000
00000000
00000000
00000000
00000000
00000000
00110000
00000000
00000000
00000000
00000000
00000000
00000000
00000000
00000000
00000000
00000000
00000000
00000000
00000000
01000000
00000000
00000000
00010000
00000000
00000000
01000000
00000000
00000000
00010000
00000000
00000000
01000000
00000000
00000000
00010000
00000000
00000000
,
10000000
00000000
00000000
00100000
01000000
00000000
00010000
00000000
00100000
00000000
00000000
01000000
10000000
00000000
00100000
00000000
,
01000000
00000000
00000000
00001000
00010000
00000000
00000010
00000000
00001000
00000000
00000000
00000100
00001000
00000000
00000001
00000000
,
00000010
00000000
00000000
00000100
00000010
00000000
00000001
00000000
00001000
00000000
00000000
00000010
00010000
00000000
00001000
00000000
,
00011000
00011000
00022000
00030000
,
01003000
00000000
00100000
00000000
01000000
00000000
00010000
00100000
00000000
01000000
00000000
10000000
00000000
01000000
10000000
00000000
,
01000000
00000000
00100000
00000000
00001000
00000000
00010000
00000010
00000000
00000100
00000000
00000010
00000000
00010000
00001000
00000000
,
00000100
00000000
00000001
00000000
00000010
00000000
00000100
00000010
00000000
00000001
00000000
00001000
00000000
00000001
00000100
00000000
,
00000010
00000000
00001000
00000000
00000001
00000000
00001000
00000100
00000000
00000010
00000000
00000100
00000000
00001000
00000001
00000000
,
00000100
00000000
00000010
00000000
00010000
00000000
00001000
00100000
00000000
01000000
00000000
00100000
00000000
00001000
01000000
00000000
,
00100000
00000000
00001000
00000000
00100000
00000000
10000000
01000000
00000000
00100000
00000000
00010000
00000000
10000000
00100000
00000000
,
01000000
00000000
00100000
00000000
01000000
00000000
00010000
00100000
00000000
00001000
00000000
00010000
00000000
00000010
00000100
00000000
,
00000001
00000000
00001000
00000000
00000001
00000000
00000010
00000100
00000000
00000010
00000000
00000001
00000000
00001000
00000100
00000000
,
00000010
00000000
00000001
00000000
00001000
00000000
00000010
00010000
00000000
00000100
00010000
00000100
00001000
00000100
00010000
00000000
,
01000000
00000000
10000000
00000000
00100000
00000000
01000000
00001000
00000000
00100000
00010000
01000000
00100000
01000000
00010000
00000000
,
00000100
00000000
00000001
00000000
00000010
00000000
00000100
00010000
00000000
00000010
00000000
00001000
00000000
00000001
00000100
00000000
,
00001000
00000000
00000010
00000000
00001000
00000000
00000001
00000100
00000000
00000001
00000010
00000001
00000100
00000010
00010000
00000000
,
00001000
00000000
01000000
00000000
00100000
00000000
01000000
00010000
00000000
00100000
00000000
00001000
00000000
00000100
00001000
00000000
,
00100000
00000000
00010000
00000000
01000000
00000000
00100000
10000000
00000000
01000000
10000000
00010000
01000000
00010000
00100000
00000000
,
00001000
00000000
00001000
00000000
00010000
00000000
01000000
00100000
00000000
10000000
00000000
01000000
00100000
01000000
00100000
00000000
,
00001000
00000000
00001000
00000000
00010000
00000000
00010000
00000000
00001000
00010000
00001000
00010000
00001000
00010000
00001000
00010000
,
00001000
00000000
00000000
00000000
;
