#VERSION:0.83;
#TITLE:Redshift;
#SUBTITLE:;
#ARTIST:technoplanet;
#TITLETRANSLIT:;
#SUBTITLETRANSLIT:;
#ARTISTTRANSLIT:;
#GENRE:;
#ORIGIN:;
#TAGS:;
#CREDIT:;
#BANNER:Redshift-bn.png;
#BACKGROUND:Redshift-bg.png;
#PREVIEWVID:;
#JACKET:Redshift-jacket.png;
#CDIMAGE:;
#DISCIMAGE:;
#LYRICSPATH:;
#CDTITLE:;
#MUSIC:Redshift.ogg;
#OFFSET:0.250000;
#SAMPLESTART:70.487000;
#SAMPLELENGTH:20.000000;
#SELECTABLE:YES;
#DISPLAYBPM:190.000000;
#BPMS:0.000000=190.000000;
#STOPS:;
#DELAYS:;
#WARPS:;
#TIMESIGNATURES:0.000000=4=4;
#TICKCOUNTS:0.000000=4;
#COMBOS:0.000000=1;
#SPEEDS:0.000000=1.000000=0.000000=0;
#SCROLLS:0.000000=1.000000;
#FAKES:;
#LABELS:0.000000=Song Start;
#BGCHANGES:;
#KEYSOUNDS:;
#ATTACKS:
;

//---------------dance-single - ----------------
#NOTEDATA:;
#CHARTNAME:;
#CHARTHASH:0:
#STEPSTYPE:dance-single;
#BANNER:;
#DESCRIPTION:;
#CHARTSTYLE:;
#DIFFICULTY:Hard;
#METER:15;
#METERF:0.000000;
#RADARVALUES:0.791562,0.938670,0.640961,0.809635,0.455420,657.000000,581.000000,76.000000,96.000000,0.000000,0.000000,0.000000,0.000000,0.000000,0.791562,0.938670,0.640961,0.809635,0.455420,657.000000,581.000000,76.000000,96.000000,0.000000,0.000000,0.000000,0.000000,0.000000;
#CREDIT:;
#DISPLAYBPM:190.000000;
#NOTES:
0000
0000
0000
0000
,
0000
0000
0000
0000
,
0000
0000
0000
0000
,
0000
0000
0000
0000
,
0000
0000
0000
0000
,
0100
1000
0000
0101
0000
0001
0010
0100
,
1000
0010
0001
0010
0100
0010
1000
0001
,
0020
0000
0031
2000
0000
3100
0010
0000
,
0011
0000
0000
0110
0000
0000
1100
0000
0110
0000
0000
0011
0000
0000
1000
0001
,
1000
0000
0020
0000
0000
0230
0000
0000
0302
0000
0000
2003
0000
0000
3200
0000
,
0000
0000
2300
0000
0000
3002
0000
0000
0023
0000
0000
0032
0000
0000
2003
0000
,
0000
0000
3200
0000
0000
0320
0000
0000
0032
0000
0000
0023
0000
0000
0230
0000
,
0000
0000
2300
0000
0000
3002
0000
0000
0023
0000
0000
0032
0000
0000
0103
0010
,
0200
0000
0300
1010
0000
0001
1000
0000
,
0101
0000
1000
1100
0000
0001
0101
0000
,
1001
0000
0010
0001
0100
0010
1000
0000
,
1000
0000
0001
0010
0001
0000
1000
0010
1000
0000
0100
0000
0001
0000
0100
0000
,
2100
0000
0000
0000
3010
0000
0100
0000
0001
1000
0001
0000
0010
0000
0000
0000
,
0200
0000
0000
0000
1300
0000
0010
0000
0100
0001
0100
0000
1000
0000
0000
0000
,
0020
0000
0000
0000
1030
0000
0001
0000
0010
0100
0010
0000
0001
0000
0000
0000
,
2000
0000
0000
0000
3001
0000
1000
0000
0010
0100
0010
0000
1000
0000
0000
0000
,
0200
0000
0000
0000
0310
0000
0001
0000
1000
0010
1000
0000
0001
0000
0000
0000
,
0020
0000
0000
0000
1030
0000
0010
0000
0001
0100
0001
0000
1000
0000
0000
0000
,
0002
0000
0000
0000
1003
0000
0100
0000
1000
0010
1000
0000
0001
0000
0000
0000
,
0101
0101
0000
1010
0000
1100
0000
0110
,
0110
0000
0000
0000
0001
0000
0010
0000
0100
1000
0100
0000
0010
0000
0000
0000
,
0002
0000
0000
0000
0103
0000
0010
0000
1000
0100
1000
0000
0001
0000
0000
0000
,
0200
0000
0000
0000
0310
0000
1000
0000
0001
0010
0001
0000
0100
0000
0000
0000
,
2000
0000
0000
0000
3010
0000
0100
0001
0200
0000
0010
0000
0310
0000
0000
0000
,
2010
0000
0000
0000
3100
0000
1000
0001
2000
0000
0000
0000
3010
0000
0100
0000
,
0102
0000
0000
0000
1003
0010
1000
0010
1000
0000
0100
0000
0010
0000
0001
0000
,
0200
0000
0000
0000
0301
1000
0001
1000
0002
0000
0000
0000
0013
0100
0010
0000
,
0002
0000
0000
0000
1003
0010
1000
0010
2000
0000
0000
3001
0000
0000
0100
0010
,
0100
0000
0101
0000
1001
0000
0000
0000
1100
0000
0000
0101
0000
0000
1100
0000
,
0000
0000
0001
0000
0001
1000
0001
0000
0200
0000
0000
0000
0320
0000
0000
0000
,
1030
0000
1010
0000
1001
0000
0000
0000
0011
0000
0000
1010
0000
0000
0011
0000
,
1000
0100
1000
0000
0010
0000
0100
0000
0001
0000
0001
0000
0001
0010
0001
0010
,
0001
0000
0011
0000
0110
0000
0000
0000
1100
0000
0000
0110
0000
0000
0011
0000
,
0000
0000
1000
0000
0010
0100
0010
0100
0020
0000
0000
0000
2030
0000
0000
0000
,
3100
0000
1010
0000
0110
0000
0000
0000
0101
0000
0000
0110
0000
0000
1010
0000
,
0000
0001
1000
0010
0001
0010
1000
0000
,
0100
0000
0000
0000
,
0000
0000
0000
0000
,
0000
0000
0000
0000
,
0000
0000
0000
0000
,
2000
0000
0000
0010
0000
0010
0000
3010
,
0002
0000
0000
0000
1003
0000
0000
0000
0010
0000
0000
0100
0000
0000
0010
0000
,
1000
0000
1000
0100
0010
0000
0011
0000
,
0100
0000
0100
0010
1000
0000
1100
0000
,
0001
0000
0001
1000
0100
0000
0110
0000
,
0011
1100
0101
1010
,
1001
0000
1000
0100
0010
0001
0100
0000
,
0110
0000
0010
1000
0001
1000
0100
0000
,
0010
0000
0001
0000
1000
0000
0001
0000
0100
0000
0010
0000
1000
0100
1000
0100
,
1000
1100
0101
1100
,
0001
0000
0100
0000
0001
0000
1000
0100
0000
1000
0100
0000
0020
0000
0000
0000
,
0031
0000
0000
0000
0100
0000
1020
0000
0000
0000
1000
0000
1030
0000
0100
0010
,
0001
0000
0100
0000
0010
0000
1000
0000
0100
0000
1000
0001
0000
1000
0001
0000
,
0200
0000
0000
0000
0310
0000
2001
0000
0000
0000
0001
0000
3001
0000
1000
0010
,
0100
0001
1000
0200
0000
0320
0000
0031
,
0201
0000
1300
0100
0001
0010
0100
1000
,
0021
0000
0000
0000
1030
0000
0010
0000
0001
0000
1000
0100
0000
1000
0001
0000
,
0200
0000
0310
0100
1000
0100
0001
1000
,
0200
0000
0000
0000
0320
0000
0000
0000
0032
0000
0000
2003
0000
0000
3002
0000
,
0203
0000
0000
0000
0310
0000
2100
0000
0000
0000
0001
0000
3001
0000
1000
0100
,
0010
0001
0100
0020
0000
2030
0000
3001
,
1000
0100
0010
0012
0000
2003
0000
3001
,
0200
0000
0000
0000
0310
0000
0000
0000
1001
0000
0000
1001
0000
0000
1001
0000
,
1000
0000
0000
0000
0101
0000
0020
0000
0000
0000
1000
0000
1030
0000
0001
0100
,
0020
1000
1030
0000
0200
0010
0310
0001
,
2010
0000
0000
0000
3100
0000
0010
0001
0100
0002
0000
0000
1003
0100
1000
0001
,
0100
0110
1001
1100
,
0001
0000
0000
0000
0011
0000
0100
0010
0100
0000
0001
0000
1000
0000
0100
0000
,
0001
0000
0100
0000
1000
0000
0100
0000
0010
0000
1000
0000
0010
0001
1000
0001
,
0100
0000
0000
0110
0000
0110
0000
0110
0000
0000
1000
0100
0010
0000
0001
1000
,
0010
0000
0100
0000
1000
0000
0100
0000
0001
0000
0010
0000
0100
0001
0100
1000
,
0010
0000
0000
0000
1000
0000
0001
0000
0010
0100
0010
0000
0001
0100
0010
1000
,
0100
0000
0000
0000
0010
0000
0001
0000
1000
0100
0010
0000
0001
1000
0001
0100
,
0010
0000
0000
0000
0000
0000
0000
0000
0000
0000
0000
0000
1000
0000
0000
0100
0000
0000
0000
0000
0000
0000
0000
0000
0101
0000
0000
0000
0000
0000
0000
0000
0001
0000
0000
0000
0010
0000
0000
0000
0100
0000
0000
0000
1000
0000
0000
0000
,
0010
0000
1000
0001
1000
0000
2100
0000
0000
0000
3002
0000
0000
0000
0103
0000
,
0020
0000
0000
0000
1030
0000
0100
0000
0010
0000
1000
0000
0010
0000
0001
0100
,
0010
0000
1000
0000
0100
0000
0010
0000
0001
0000
1000
0100
0000
1000
0010
0000
,
0200
0000
0000
0000
0310
0000
1000
0000
0100
0000
0001
0000
0100
0000
0010
0001
,
1000
0000
0000
0000
0100
0000
0000
0000
1100
0000
0000
0011
0000
0000
1001
0000
,
0110
0000
0000
0000
1000
0000
0010
0000
1000
0000
0100
0000
0010
0000
0001
0100
,
2000
0000
0000
0000
3010
0000
1000
0000
0200
0000
0010
0000
0310
0000
0001
1000
,
0200
0000
0000
0000
1300
0000
0010
0100
0002
0000
0000
0000
1003
0001
0100
0010
,
1000
0100
1000
0000
0001
0100
0001
0000
1000
0010
1000
0000
0001
0010
0001
0000
,
0100
0000
0020
0000
0000
2030
0000
0000
3002
0000
0000
0023
0000
0000
0230
0000
,
0000
0000
0302
0000
0000
0203
0000
0000
2300
0000
0000
3020
0000
0000
0230
0000
,
0000
0000
0302
0000
0000
2003
0000
0000
3020
0000
0000
0230
0000
0000
0301
1000
,
0001
0000
0010
0000
0100
0000
1000
0000
0010
0000
0100
0000
0001
1000
0001
2000
,
0002
0000
0000
3003
;

//---------------dance-single - ----------------
#NOTEDATA:;
#CHARTNAME:;
#CHARTHASH:0:
#STEPSTYPE:dance-single;
#BANNER:;
#DESCRIPTION:;
#CHARTSTYLE:;
#DIFFICULTY:Medium;
#METER:13;
#METERF:0.000000;
#RADARVALUES:0.575901,0.743114,0.455420,0.927706,0.164457,478.000000,424.000000,54.000000,110.000000,0.000000,0.000000,0.000000,0.000000,0.000000,0.575901,0.743114,0.455420,0.927706,0.164457,478.000000,424.000000,54.000000,110.000000,0.000000,0.000000,0.000000,0.000000,0.000000;
#CREDIT:;
#DISPLAYBPM:190.000000;
#NOTES:
0000
0000
0000
0000
,
0000
0000
0000
0000
,
0000
0000
0000
0000
,
0000
0000
0000
0000
,
0000
0000
0000
0000
,
0100
1000
0000
2002
0003
0000
3001
1000
,
0020
2030
3200
0320
,
0032
0000
0103
0020
0000
1030
0002
0000
,
1003
0000
0000
1000
0000
0000
1000
0000
0001
0000
0000
0001
0000
0000
0001
0000
,
0010
0000
0001
0000
0100
0000
0000
0000
0020
0000
0000
1030
0000
0000
1010
0000
,
0000
0000
0001
0000
0000
1000
0000
0000
0010
0000
0000
1000
0000
0000
0001
0000
,
0000
0000
1000
0000
0000
0100
0000
0000
0001
0000
0000
0100
0000
0000
1000
0000
,
0000
0000
0010
0000
0000
0100
0000
0000
0001
0000
0000
0100
0000
0000
0010
0000
,
2000
0000
3000
2200
0300
0000
3001
1000
,
0020
0000
1030
0002
0000
1003
0020
0000
,
0230
0000
0000
0302
0000
0000
1003
0000
,
0010
0100
0010
0100
0001
1000
0001
1000
,
1001
0000
1000
0000
0100
0010
0001
0000
,
0101
0000
1100
0000
0001
0100
1000
0000
,
1010
0000
0011
0000
0100
0001
1000
0000
,
0110
0000
1001
0000
0010
0100
0001
0000
,
2000
0000
3020
0000
1030
0100
0010
0001
,
0200
0000
0320
0000
1030
0001
1000
0100
,
0020
0000
0032
0000
1003
0001
1000
0100
,
0010
0010
0000
0011
0000
1100
0000
0001
,
0001
0000
0100
0010
1000
0010
0100
0000
,
0001
0000
1000
0010
1000
0001
0100
0000
,
1010
0000
1000
0001
0010
0001
1000
0000
,
0101
0000
0010
0100
0001
0100
0010
0000
,
2200
0000
0000
0000
3300
0000
0001
1000
0002
0000
0000
0000
0003
0000
0100
0010
,
0200
0000
0310
1000
0002
0000
0013
0100
,
2000
0000
0000
0000
3000
0000
0010
0100
0020
0000
0000
0000
0030
0000
1000
0001
,
1000
0000
0100
0000
0010
0000
0000
0000
0001
0000
0000
1000
0000
0000
0001
0000
,
0000
0000
0100
0000
0010
0000
0000
0000
1001
0000
0000
0110
0000
0000
1001
0000
,
0000
0000
1100
0001
2000
0000
3020
0000
,
0030
0000
0100
0000
0001
0000
0000
0000
0011
0000
0000
1100
0000
0000
0011
0000
,
0000
0000
0000
0000
0000
0000
0000
0000
0100
0000
0010
0000
0100
0010
0100
0010
,
0100
0000
0001
0000
1000
0000
0000
0000
1100
0000
0000
0101
0000
0000
1100
0000
,
0000
0000
0000
0001
2000
0000
3200
0000
,
0300
0000
1000
0000
0001
0000
0000
0000
0101
0000
0000
1010
0000
0000
0101
0000
,
0000
2000
3002
0023
,
0230
0000
0000
0000
,
0000
0000
0000
0300
,
0000
0000
0000
0000
,
0000
0000
0000
0000
,
1000
0000
0000
0010
0000
1000
0000
0001
,
0100
0010
0101
1100
,
0002
0000
0000
2003
0000
0000
3200
0000
,
0320
0000
0000
0032
0000
0000
2003
0000
,
3020
0000
0000
0230
0000
0000
0302
0000
,
2003
3200
0320
0032
,
0103
0000
0010
1000
0010
0100
0001
0000
,
0010
0000
0001
1000
0010
0100
0001
0000
,
1000
0000
0100
0010
0001
0100
1000
0000
,
1010
0101
1100
0011
,
2002
0000
0000
0000
3003
0010
0110
0000
,
0002
0000
0000
0000
0000
0000
2003
0000
0000
0000
0000
0000
3000
0000
0010
0100
,
0010
0000
1000
0000
0001
0000
1000
0000
0100
0000
0000
0010
0000
0000
0001
0000
,
0200
0000
0000
0000
0000
0000
0320
0000
0000
0000
0000
0000
0030
0000
1000
0001
,
1000
0100
0010
0001
0000
0100
0000
0010
,
0100
0000
0000
0011
0000
1100
0000
0001
,
2000
0000
0000
0000
3020
0000
0000
0000
0130
0000
0000
0001
0000
0000
1000
0000
,
0001
0000
0000
1100
0000
0101
0000
0010
,
2000
0000
0000
0000
3002
0000
0000
0000
0013
0000
0000
0100
0000
0000
1000
0000
,
0002
0000
0000
0000
0000
0000
0203
0000
0000
0000
0000
0000
0300
0000
0010
1000
,
0010
0100
0001
1000
0000
0100
0000
0010
,
0002
0000
0000
0023
0000
0230
0000
1300
,
0002
0000
0000
0000
0100
0000
0000
0000
1000
0000
0000
1000
0000
0000
1003
0000
,
0002
0000
0000
0000
0000
0000
2003
0000
0000
0000
0000
0000
3000
0000
0001
0010
,
0002
0000
1003
0000
2100
0000
3010
0100
,
0120
0000
1030
0010
2000
0000
3001
0010
,
0200
2300
3002
0203
,
0310
0000
0000
0000
1001
0000
0000
0000
1000
0000
0000
0100
0000
0000
0010
0000
,
0001
0000
0100
0010
1000
0100
1000
0001
,
0200
0000
0310
0100
0102
0000
1003
0001
,
0020
0230
2300
3002
,
1003
0000
0010
1000
0100
0010
0001
0100
,
0001
0000
1000
0010
1000
0100
0010
0001
,
1000
1100
0001
0011
,
2000
0000
3010
0200
0000
0301
2000
0000
,
3200
0000
0000
0000
0300
0000
2000
0000
0002
0000
0000
0000
3003
0000
1000
0010
,
1000
0100
0010
0001
0000
1010
0000
0000
,
0201
0000
0000
1000
0000
0301
0000
0100
,
0020
0000
0000
0000
1030
0000
0000
0000
0010
0000
0000
0100
0000
0000
0001
0000
,
0100
0000
0000
1000
0001
1000
0010
0100
,
0002
0000
0000
0013
0100
0000
0110
0000
,
2001
0000
3010
0100
0102
0000
1003
0001
,
0011
0000
0000
0000
1100
0000
0000
0000
0101
0000
0000
0000
1000
0001
1000
0001
,
1000
0000
0020
0000
0000
0230
0000
0000
0302
0000
0000
2003
0000
0000
3020
0000
,
0000
0000
2030
0000
0000
3200
0000
0000
0320
0000
0000
0032
0000
0000
0203
0000
,
0000
0000
0302
0000
0000
2003
0000
0000
3020
0000
0000
2030
0000
0000
3001
0000
,
1000
0100
0010
0001
1000
0100
0010
0002
,
0000
0000
0000
0003
;

//---------------dance-single - ----------------
#NOTEDATA:;
#CHARTNAME:;
#CHARTHASH:0:
#STEPSTYPE:dance-single;
#BANNER:;
#DESCRIPTION:;
#CHARTSTYLE:;
#DIFFICULTY:Easy;
#METER:8;
#METERF:0.000000;
#RADARVALUES:0.437347,0.586669,0.522889,0.539756,0.000000,363.000000,301.000000,62.000000,64.000000,0.000000,0.000000,0.000000,0.000000,0.000000,0.437347,0.586669,0.522889,0.539756,0.000000,363.000000,301.000000,62.000000,64.000000,0.000000,0.000000,0.000000,0.000000,0.000000;
#CREDIT:;
#DISPLAYBPM:190.000000;
#NOTES:
0000
0000
0000
0000
,
0000
0000
0000
0000
,
0000
0000
0000
0000
,
0000
0000
0000
0000
,
0000
0000
0000
0000
,
0100
0000
0000
1001
0000
0000
0001
0000
,
1000
1000
0001
0001
,
0200
0000
0000
0320
0000
0000
2030
0000
,
0001
0001
0100
3010
,
2000
3001
0101
0101
,
0000
0010
1010
1010
,
0000
1000
1100
1100
,
0000
0001
0011
0011
,
0100
0000
0000
0110
0000
0000
1000
0000
,
0002
0000
0000
0023
0000
0000
0230
0000
,
2300
0001
0100
3010
,
1000
0001
1000
0001
,
1001
0010
1000
0100
,
0110
0010
0001
0100
,
0101
1000
0010
0100
,
1010
1000
0010
0001
,
0100
0010
1000
0001
,
0010
0001
0100
0010
,
1000
0001
1000
0100
,
1000
0001
0000
0100
0000
0100
0000
0100
,
0010
1000
0110
0110
,
0001
0010
1100
1100
,
0010
0100
0101
0101
,
1000
0010
1001
1001
,
0100
1000
0010
0100
,
0001
0010
0001
0100
,
1000
0001
0010
0100
,
1100
0101
1100
0101
,
0000
1001
0110
1001
,
0002
0103
2000
3010
,
0000
1100
0011
1100
,
0020
0130
0002
1003
,
0000
0101
1010
0101
,
0002
1003
0200
0310
,
0000
0011
0110
1100
,
0000
0020
2030
3002
,
0203
0000
0000
0000
,
0000
0000
0000
0300
,
0000
0000
0000
0000
,
0000
0000
0000
0000
,
2000
0000
0002
3003
,
0100
0001
0100
1000
,
0010
0000
0000
0100
0000
0000
0001
0000
,
1000
0000
0000
0001
0000
0000
0100
0000
,
0001
0000
0000
0010
0000
0000
0100
0000
,
2000
3200
0320
0032
,
0103
0000
0000
0010
0000
0000
1000
0000
,
0001
0000
0000
0010
0000
0000
0100
0000
,
1000
0010
1000
0000
0001
0010
0001
0000
,
0200
0320
0230
0320
,
2030
3002
0203
0320
,
2030
0000
0000
0002
0000
0000
3003
0000
,
0010
0001
0100
1000
,
0020
0000
0000
0200
0000
0000
0330
0000
,
0001
0000
0010
0000
0000
0001
0000
1000
,
0100
0000
0000
1000
0000
0001
0000
0000
,
0200
0300
0010
0010
,
1000
0000
0000
0010
0000
0100
0000
0000
,
0002
1003
0101
1100
,
0020
0000
0000
2000
0000
0000
3030
0000
,
0100
0010
0001
1000
,
0010
0000
0000
0100
0000
0010
0000
0000
,
1000
0001
1001
0110
,
0020
0000
0000
2000
0000
0000
3030
0000
,
0002
0103
0020
0130
,
0002
0003
2000
3100
,
2000
3020
0230
0302
,
0013
1001
0001
0100
,
1000
0010
0100
0001
,
0110
0110
0110
0001
,
1000
0001
0100
0100
,
1010
0001
1000
0100
,
0011
0100
0010
1000
,
0101
1000
1100
0001
,
0200
0000
0000
0320
0000
0000
2030
0000
,
3002
0000
0000
0200
0000
0000
0303
0000
,
0010
1000
0100
0001
,
1000
0000
0000
0010
0000
0100
0000
0010
,
0200
0301
1001
1001
,
1100
0001
0010
0100
,
0011
1000
0010
0100
,
0101
0010
1100
0001
,
2000
3002
0203
0320
,
1030
0001
0011
0011
,
0000
0100
1010
1010
,
0000
0010
1001
1001
,
2000
0000
3002
0000
1003
0100
0020
0002
,
0000
0000
0000
0033
;

//---------------dance-single - ----------------
#NOTEDATA:;
#CHARTNAME:;
#CHARTHASH:0:
#STEPSTYPE:dance-single;
#BANNER:;
#DESCRIPTION:;
#CHARTSTYLE:;
#DIFFICULTY:Beginner;
#METER:5;
#METERF:0.000000;
#RADARVALUES:0.215662,0.312890,0.101204,0.016867,0.000000,179.000000,167.000000,12.000000,2.000000,0.000000,0.000000,0.000000,0.000000,0.000000,0.215662,0.312890,0.101204,0.016867,0.000000,179.000000,167.000000,12.000000,2.000000,0.000000,0.000000,0.000000,0.000000,0.000000;
#CREDIT:;
#DISPLAYBPM:190.000000;
#NOTES:
0000
0000
0000
0000
,
0000
0000
0000
0000
,
0000
0000
0000
0000
,
0000
0000
0000
0000
,
0000
0000
0000
0000
,
0100
0000
1001
0000
,
1000
0000
0001
0000
,
0010
0000
0010
0000
,
0001
0000
0100
0000
,
1000
0000
0010
0010
,
0000
0000
0100
0100
,
0000
0000
0001
0001
,
0000
0000
1000
1000
,
1000
0000
1001
0000
,
0010
0000
0100
0000
,
0010
0000
1000
0000
,
0001
0000
0001
0000
,
0100
0000
0010
0000
,
0010
0000
1000
0000
,
1000
0000
0001
0000
,
1000
0000
0100
0000
,
1000
0000
0001
0000
,
1000
0000
0100
0000
,
0010
0000
0001
0000
,
0110
0000
0000
0000
,
1001
0000
1000
0000
,
0010
0000
1000
0000
,
0100
0000
0010
0000
,
0001
0000
0100
0000
,
1000
0000
0001
0000
,
0010
0000
0100
0000
,
0100
0000
0010
0000
,
0001
0001
0001
0001
,
0000
1000
1000
0000
,
1001
0000
0010
0010
,
0000
0100
0100
0000
,
0110
0000
0001
0001
,
0000
1000
1000
0000
,
1001
0000
0100
0100
,
0000
0001
0001
0000
,
1000
0000
1001
0000
,
0100
0000
0000
0000
,
0000
0000
0000
0000
,
0000
0000
0000
0000
,
0000
0000
0000
0000
,
1000
0000
1000
0000
,
0001
0000
0001
0000
,
0100
0000
0000
0000
,
0100
0000
0000
0000
,
0010
0000
0000
0000
,
0010
0000
1000
0000
,
0001
0000
0000
0000
,
1000
0000
0000
0000
,
0010
0000
0010
0000
,
1000
0000
0100
0000
,
0110
0000
0000
0000
,
0001
0000
0001
0000
,
1000
0000
0010
0000
,
1000
0000
0100
0000
,
0010
0000
0010
0000
,
0010
0000
0001
0000
,
1000
0000
0100
0000
,
0100
0000
1000
0000
,
0010
0000
0001
0000
,
1000
0000
1000
0000
,
0100
0000
0010
0000
,
0001
0000
0100
0000
,
0100
0000
0010
0010
,
0000
0110
0000
0000
,
1000
0000
0100
0000
,
0001
0000
0000
0000
,
1000
1000
1000
1000
,
0000
1001
0000
0000
,
0010
0000
0100
0000
,
0110
0000
0000
0000
,
0001
0000
1000
0000
,
0001
0000
0010
0000
,
0001
0000
0100
0000
,
1000
0000
0010
0000
,
0100
0000
0001
0000
,
0010
0000
0100
0000
,
0010
0000
0100
0000
,
1000
0000
0001
0000
,
1000
0000
0010
0000
,
0001
0000
0001
0000
,
1000
0000
1000
0000
,
0010
0000
0100
0000
,
0010
0010
0010
0010
,
0000
0000
1000
1000
,
0000
0000
0001
0001
,
0000
0000
0100
0100
,
0200
0000
0300
0000
,
0002
0000
0000
0003
;

//---------------dance-single - ----------------
#NOTEDATA:;
#CHARTNAME:;
#CHARTHASH:0:
#STEPSTYPE:dance-single;
#BANNER:;
#DESCRIPTION:;
#CHARTSTYLE:;
#DIFFICULTY:Challenge;
#METER:18;
#METERF:0.000000;
#RADARVALUES:1.181922,1.212449,0.657828,0.472287,1.260837,981.000000,903.000000,78.000000,56.000000,0.000000,0.000000,0.000000,0.000000,0.000000,1.181922,1.212449,0.657828,0.472287,1.260837,981.000000,903.000000,78.000000,56.000000,0.000000,0.000000,0.000000,0.000000,0.000000;
#CREDIT:;
#DISPLAYBPM:190.000000;
#NOTES:
// measure 0
0000
0000
0000
0000
,  // measure 1
0000
0000
0000
0000
,  // measure 2
0000
0000
0000
0000
,  // measure 3
0000
0000
0000
0000
,  // measure 4
0000
0000
0000
0000
,  // measure 5
0100
0000
1100
0000
0000
0000
0101
0000
0000
0000
0000
0000
0001
1000
0001
1000
,  // measure 6
0010
1000
0010
0000
0100
0001
0100
0000
0001
0010
0001
0000
1000
0100
1000
0001
,  // measure 7
0200
0000
0010
0000
0310
0000
2000
0000
0001
0000
3001
0000
0100
0010
1000
0001
,  // measure 8
0010
0000
0000
0011
0000
0000
1000
0100
0001
0000
0000
1010
0000
0000
0010
0100
,  // measure 9
0001
0000
1100
0000
0010
0000
0100
0000
0101
0000
0000
1010
0000
0000
0101
0000
,  // measure 10
0000
0000
0011
0000
1000
0000
0100
0000
1001
0000
0000
1010
0000
0000
1100
0000
,  // measure 11
0000
0000
0101
0000
0010
0000
0100
0000
0110
0000
0000
1010
0000
0000
0101
0000
,  // measure 12
0000
0000
1001
0000
0010
0000
0100
0000
0110
0000
1000
0100
0010
0001
0100
0000
,  // measure 13
0202
0000
0000
0000
0303
0000
1100
0000
0000
0000
0001
1000
0100
0010
0001
1000
,  // measure 14
0010
0000
1100
0011
0000
0101
1010
0100
,  // measure 15
0110
0000
0001
0000
1000
0000
0010
0100
0001
0010
0100
1000
0001
0010
0100
1000
,  // measure 16
0010
0000
1000
0100
1000
0000
0001
0100
0001
0000
1000
0010
1000
0000
0001
0010
,  // measure 17
0002
0000
0000
0000
0103
0010
0100
0010
1000
0010
1000
0010
1000
0001
1000
0001
,  // measure 18
0200
0000
0000
0000
0301
0010
0001
0010
0100
1000
0100
1000
0010
1000
0010
1000
,  // measure 19
0002
0000
0000
0000
1003
0001
1000
0001
1000
0010
1000
0010
1000
0100
1000
0100
,  // measure 20
2000
0000
0000
0000
3100
0010
0100
0010
0001
0100
0001
0100
0001
1000
0001
1000
,  // measure 21
0020
0000
0000
0000
1030
0010
1000
0010
0100
0010
0100
0010
1000
0001
1000
0001
,  // measure 22
0020
0000
0000
0000
0130
1000
0100
1000
0001
1000
0001
1000
0001
0100
0001
0100
,  // measure 23
0002
0000
0000
0000
0013
0100
0010
0100
0010
0001
0010
0001
1000
0010
1000
0010
,  // measure 24
1000
0000
1100
0000
0000
0000
0011
0000
0000
0000
1000
0100
0010
0001
0010
0100
,  // measure 25
2000
0000
0000
0000
3010
0100
0010
0100
0001
1000
0001
1000
0001
0010
0100
1000
,  // measure 26
0001
0000
0100
0000
0010
1000
0001
1000
0100
0010
0100
0010
0001
0100
0010
1000
,  // measure 27
0100
0000
0010
0001
1000
0010
1000
0010
0100
0001
0100
0001
1000
0100
0010
0001
,  // measure 28
0010
0000
0001
1000
0001
0100
0010
1000
0100
0000
1000
0000
0010
0100
0010
1000
,  // measure 29
0002
0000
0010
0000
0013
0001
0100
0000
2010
0000
0001
0000
3001
0000
1000
0100
,  // measure 30
0010
0000
0001
1000
0001
0100
0010
0100
0001
0010
0100
0010
0001
0100
0010
1000
,  // measure 31
0200
0000
0000
0000
1300
0010
0100
0001
0020
0000
0000
0000
0130
0010
0001
1000
,  // measure 32
0010
0000
1000
0100
0010
0000
0001
0100
0010
1000
0001
0100
0001
0010
0100
1000
,  // measure 33
0001
0000
0011
0000
1001
0000
0000
0000
1100
0000
0000
1001
0000
0000
0110
0000
,  // measure 34
0000
0000
0010
1000
0010
0100
0001
1000
0020
0000
0000
0000
0230
0000
0000
0000
,  // measure 35
0301
0000
0101
0000
0110
0000
0000
0000
1001
0000
0000
1100
0000
0000
0101
0000
,  // measure 36
1000
0000
0000
0100
0000
0000
1000
0000
0000
0000
0000
0000
0001
0000
0000
0000
0000
0000
0100
0000
0000
0010
0000
0000
2000
0000
0000
0000
0000
0000
0000
0000
3001
0000
0000
0000
1000
0000
0000
0100
0000
0000
0001
0000
0000
0100
0000
0000
,  // measure 37
1000
0000
0010
0100
0010
0100
0010
0100
0010
0000
0000
1001
0000
0000
0110
0000
,  // measure 38
1000
0100
0010
0000
0001
0000
0100
0010
1000
0100
0010
0001
1000
0100
0010
0001
,  // measure 39
0100
0000
0101
0000
1100
0000
0010
0100
0001
0000
0000
0011
0000
0000
1100
0000
,  // measure 40
0000
0000
0001
1000
0001
0000
0100
0000
0010
0000
1000
0100
0010
0001
1000
0010
,  // measure 41
0100
0000
0001
0000
0100
0000
0020
0000
0000
0000
1000
0000
1030
0001
0100
0001
,  // measure 42
2000
0000
0000
3002
0000
0023
0000
0130
,  // measure 43
0010
0001
1000
0020
0000
0230
0320
2030
,  // measure 44
3002
0000
0003
0022
0033
0001
1000
0100
,  // measure 45
0110
0001
1000
0020
0130
0002
1003
0200
,  // measure 46
0320
0000
0130
0000
2000
0000
3001
0000
0200
0000
0000
0302
0000
0000
0013
0000
,  // measure 47
2000
0100
3100
0020
0001
0031
0200
0010
,  // measure 48
0320
1000
1030
0002
0010
0013
0200
1000
,  // measure 49
2300
0001
3001
0200
0010
0310
2000
3001
,  // measure 50
1100
0011
0101
1010
,  // measure 51
1001
0000
0100
0000
0010
0000
0001
0000
1000
0000
0010
0000
0100
0001
1000
0001
,  // measure 52
0100
0000
0010
0000
1000
0000
0001
0000
0010
0000
0100
1000
0010
0100
0001
1000
,  // measure 53
0100
0000
0010
0000
0010
0000
0001
0100
0001
0000
1000
0100
0010
0001
1000
0001
,  // measure 54
0100
0000
0010
0000
1000
0100
1000
0001
0010
0100
0000
0000
1000
0010
1000
0001
,  // measure 55
1000
0100
0001
0100
1000
0000
0010
0100
0000
0001
1000
0000
1001
0000
0100
0010
,  // measure 56
0001
0000
0100
0000
0010
0000
1010
0000
1000
0000
0001
0000
1000
0100
0010
0001
,  // measure 57
0100
0000
0010
0000
1000
0000
0001
0000
0010
0000
0001
0100
0000
0010
1000
0000
,  // measure 58
0100
0000
1000
0000
0001
0000
0010
0100
1000
0000
0001
0000
0100
0000
0010
1000
,  // measure 59
0001
0010
0100
1000
0010
1100
0001
0101
,  // measure 60
0110
0000
1000
0000
0010
0000
0100
0010
0001
0000
0010
0000
1000
0001
1000
0100
,  // measure 61
0010
0000
0001
0000
1000
0010
1000
0001
0100
0000
0010
0000
1000
0100
0001
0100
,  // measure 62
1000
0000
0010
0000
0100
0001
1000
0000
0010
0000
1000
0000
0100
0010
0001
0000
,  // measure 63
2000
0000
3001
0000
0200
0000
0310
0100
0001
0000
1000
0100
0000
0010
0001
0000
,  // measure 64
0100
0000
0010
0000
1000
0000
0011
0000
0001
0000
0100
0000
0010
1000
0001
0010
,  // measure 65
0100
0000
0001
0000
0100
1000
0001
0000
0100
0000
0010
0000
1000
0100
0010
0001
,  // measure 66
1000
0000
0010
0000
0100
0000
0101
0000
1000
0100
1000
0000
0001
0010
0001
0000
,  // measure 67
0100
0000
0010
0000
1000
0001
0010
0000
1100
0000
0000
1001
0000
0000
0011
0000
,  // measure 68
1010
0000
0000
0000
1001
0000
0100
0000
0010
0000
1000
0000
0100
0010
0001
0100
,  // measure 69
2000
0000
0000
0000
3100
0001
1000
0000
0120
0000
0000
0000
1030
0010
1000
0001
,  // measure 70
0100
0000
0010
0000
0100
0000
0001
1000
0001
0010
0100
1000
0010
0100
0001
1000
,  // measure 71
0100
1000
0001
0000
0100
0001
1000
0000
0100
1000
0001
0100
0001
1000
0100
0010
,  // measure 72
0001
0000
0000
0000
0010
0001
0010
0001
0010
0100
0010
0100
1000
0010
0100
0001
,  // measure 73
1000
0000
0010
0000
0100
0001
1000
0100
0010
0000
0001
1000
0010
0100
0010
1000
,  // measure 74
0001
1000
0000
1100
0000
0110
0000
0011
0000
1000
0001
0100
0010
0001
0010
1000
,  // measure 75
0100
0000
1000
0010
0000
0100
0001
0000
0010
0001
0100
0001
1000
0100
0010
0001
,  // measure 76
0100
0000
0000
0000
0010
1000
0001
1000
0100
0010
0001
0100
0001
0010
0100
1000
,  // measure 77
0001
0000
0000
0000
1000
0001
1000
0010
0100
0010
1000
0001
0010
0100
0010
0001
,  // measure 78
1000
0000
0000
0000
0000
0000
0000
0000
0000
0000
0000
0000
0100
0000
0000
1000
0000
0000
0001
0000
0000
0000
0000
0000
0011
0000
0000
0000
0000
0000
0000
0000
0000
0000
0000
0000
1000
0000
0000
0000
0100
0000
0000
0000
0010
0000
0000
0000
,  // measure 79
0001
0000
0100
0010
0100
0000
0001
0000
1000
0100
1000
0001
0010
0001
0100
1000
,  // measure 80
0010
0000
0000
0000
1000
0100
0010
0000
0002
0000
0100
0000
0103
0000
0010
1000
,  // measure 81
0001
0000
0010
0000
0100
1000
0010
0000
1000
0000
0100
0010
0000
0100
0010
0001
,  // measure 82
2000
0000
0010
0000
3010
0000
0102
0000
1003
0000
2010
0000
3001
0000
1000
0100
,  // measure 83
0001
0000
0010
0000
0100
0000
1000
0000
1001
0000
0000
0110
0000
0000
1000
0010
,  // measure 84
0001
0000
1000
0000
0010
0100
0010
0100
0001
0000
1000
0000
0100
0010
0001
1000
,  // measure 85
0010
0000
0100
0000
0001
1000
0100
1000
0010
0000
0100
0000
0001
0010
0001
1000
,  // measure 86
0100
0000
1000
0000
0010
0100
0001
1000
0100
0000
0010
0000
0100
1000
0001
0010
,  // measure 87
0100
0000
1000
0001
1000
0000
0001
0010
0001
0100
0010
1000
0001
0010
0100
1000
,  // measure 88
0001
0000
0011
0000
0100
0010
1000
0000
1100
0000
1000
0001
0000
0100
0010
0000
,  // measure 89
0000
0000
0110
0000
1000
0001
0100
0000
0011
0000
0001
0100
0000
0010
1000
0000
,  // measure 90
0000
0000
0101
0000
0010
1000
0001
0000
1100
0000
0100
1000
0000
0010
1000
0001
,  // measure 91
1000
0100
0010
0100
0001
0010
1000
0001
0100
0010
1000
0001
0100
0010
2000
0002
,  // measure 92
0000
0000
0000
3003
;
