#TITLE:Red Roses;
#ARTIST:Mutsuhiko Izumi;
#BANNER:Red Roses-bn.png;
#BACKGROUND:Red Roses-bg.png;
#JACKET:Red Roses-jacket.png;
#MUSIC:Red Roses.ogg;
#SAMPLESTART:71.067;
#SAMPLELENGTH:20;
#DISPLAYBPM:136:170;
#BPMS:0=136,92=155,164=170;
#STOPS:92=1.162,164=1.093;
#BGCHANGES:;

//---------------dance-single - ----------------
#NOTES:
     dance-single:
     :
     Beginner:
     4:
     :
0000
0000
0000
0000
,
0000
0000
0000
0000
,
0000
0000
0000
0000
,
0000
0000
0000
0000
,
0002
0000
0000
0003
0000
0000
0000
0000
,
2000
0000
0000
3000
0000
0000
0000
0000
,
0010
0000
1000
0000
,
0001
0001
0000
0000
,
0100
0100
0100
0000
,
0002
0000
0000
0003
0000
0000
0000
0000
,
0020
0000
0000
0030
0000
0000
0000
0000
,
0100
0100
0000
0000
,
2000
0000
0000
3000
0000
0000
0000
0000
,
0020
0000
0000
0030
0000
0000
0000
0000
,
0100
0000
0001
0000
,
0010
0010
0000
0001
,
0001
0000
1000
0000
,
0010
0000
0100
0000
,
0010
0000
1000
0000
,
0100
0000
0010
0000
,
0100
0000
1000
0000
,
0010
0000
0001
0000
,
1000
1000
1000
0000
,
1001
0001
0000
0001
,
0000
0001
0000
0001
,
0000
1000
0000
1000
,
0000
1000
0000
1000
,
0000
0020
0000
0030
,
0000
0100
0100
0100
,
0000
0002
0000
0003
,
0000
1000
1000
1000
,
0000
1001
0000
0010
,
0000
0110
0000
0001
,
0000
0110
0000
1000
,
0000
0100
0000
0010
,
0000
1001
0000
0010
,
0000
0110
0000
1000
,
0000
1001
0000
0000
,
0000
0001
0000
1000
,
0000
0010
0000
0100
,
0000
0110
0000
0001
,
0001
1000
1000
0000
,
0000
0010
0010
0010
,
0000
0100
0100
0000
,
0000
0010
0010
0000
,
0000
0000
2000
0000
0000
3000
0000
0000
,
0000
0000
0200
0000
0000
0300
0000
0000
,
0000
1000
0000
0001
,
0000
0010
0010
0000
,
0000
0001
0001
0001
,
0000
0000
0200
0000
0000
0300
0000
0000
,
0000
0000
0020
0000
0000
0030
0000
0000
,
0000
1000
1000
0000
,
0000
0000
0002
0000
0000
0003
0000
0000
,
0000
0000
0200
0000
0000
0300
0000
0000
,
0000
0001
0000
1000
,
0000
0010
0010
0010
,
0000
1000
1000
1000
,
1000
1000
1000
0000
,
0000
0001
0000
0010
,
0000
0100
0100
0000
,
0000
0010
0000
0010
,
0000
0100
0000
0100
,
0000
1000
0000
0001
,
0000
0100
0100
0000
,
0000
0001
0000
1000
,
0000
0010
0000
0000
,
0000
0000
0000
0000
,
0001
0001
0000
0000
;

//---------------dance-single - ----------------
#NOTES:
     dance-single:
     :
     Easy:
     7:
     :
0000
0000
0000
0000
,
0000
0000
0000
0000
,
0000
0000
0000
0000
,
0000
0000
0000
0000
,
1001
1001
0001
0100
,
0000
0010
1000
0100
,
2000
0000
0001
3100
,
0002
0000
1003
0001
0000
0000
0000
0100
,
0010
0000
1000
0000
0001
0100
0000
0001
,
2000
0000
0000
0020
0000
0000
3030
0100
,
0002
0000
0000
0020
0000
0000
0033
0001
,
0200
0020
0000
0330
,
2010
0000
0000
3001
0000
0000
0000
0000
,
0102
0000
0000
1003
0000
0000
0000
0000
,
0010
1000
0100
0001
,
0110
0000
0000
0110
0000
0000
0001
1000
,
0001
0010
0001
0100
,
1000
0010
1000
0001
,
0011
0010
0100
1000
,
1010
0010
1000
0100
,
1001
0010
0100
0001
,
0010
0001
0100
1000
,
1100
0000
1100
0000
1100
0000
0000
0001
,
1000
0020
0130
0020
,
1030
0020
0130
0001
,
0010
0200
0310
0200
,
1300
0200
0301
0010
,
0100
2000
0001
0001
,
3001
0001
0010
0002
,
0003
0200
0010
0010
,
0310
0100
0001
2000
,
3000
0101
0001
0100
,
1000
1010
1000
0100
,
0001
0010
0010
0100
,
0100
1000
0001
1000
,
0001
0011
0001
0010
,
1000
1100
1000
0010
,
0001
0200
0000
0320
,
0000
1030
0001
1000
,
0100
2000
3010
0002
,
0103
0000
0011
0000
0011
0000
0001
1000
,
0001
1001
1001
0001
,
0010
0001
0100
2000
,
3000
1100
1100
0010
,
1000
0001
0200
0000
,
0300
0000
0002
0000
0000
2000
0000
0000
,
3003
0000
0020
0000
0000
2030
0000
3001
,
0000
0202
0303
0010
,
0100
0000
2000
0000
3001
1000
0000
0000
,
0000
0010
0100
0000
0001
0000
0010
0100
,
0000
1000
0002
0000
0000
0200
0000
0000
,
0303
0001
0020
0000
0000
0200
0000
0000
,
0330
1000
0020
0000
2000
0000
0000
0000
,
3030
0100
2000
0000
0000
0002
0000
0000
,
3003
0010
0002
0000
0000
0200
0000
0000
,
0303
0001
1000
0000
0010
0000
1000
0001
,
0100
0000
2010
0000
3001
0100
0020
0000
,
0000
1030
1000
0001
,
0010
0000
0001
0100
2000
0000
0000
0000
,
3000
0010
0200
0000
0000
0002
0000
0000
,
0303
0010
0200
0000
0020
0000
0000
0000
,
0330
0000
0012
0000
0000
1003
0000
0000
,
0000
0000
2100
0000
0000
3001
0000
0000
,
0000
0010
0001
0100
,
1000
0000
0210
0000
0301
1000
0000
0000
,
0000
0020
2030
3200
,
0320
0031
0022
0000
,
0030
2000
0000
3003
,
0110
2002
0000
0000
,
3003
0000
0000
0000
;

//---------------dance-single - ----------------
#NOTES:
     dance-single:
     :
     Medium:
     10:
     :
0000
0000
0000
0000
,
0000
0000
0000
0000
,
0000
0000
0000
0000
,
0000
0000
0000
0000
,
0002
0000
0000
0000
0000
0000
2003
0000
0000
0000
0000
0000
0000
0000
3010
0100
,
0020
0000
0000
0000
0000
0000
2030
0000
0000
0000
0000
0000
0000
0000
3001
0010
,
0001
0100
0000
0010
1000
0100
1000
0001
,
0021
0000
0000
0000
0130
0000
1100
0000
0000
0000
0000
0000
0000
0000
1000
0001
,
1000
0000
0010
0000
1000
0000
0001
0000
0010
0000
0100
0000
0000
0000
1000
0010
,
2000
0000
0000
0000
0000
0000
3002
0000
0000
0000
0000
0000
0000
0000
0103
0010
,
0200
0000
0000
0000
0000
0000
0302
0000
0000
0000
0000
0000
0000
0000
1003
0010
,
2000
0000
0000
0000
0200
0000
0000
0000
0000
0000
0000
0000
3300
0000
0010
0001
,
0020
0000
0000
0000
0000
0000
0230
0000
0000
0000
0000
0000
0000
0000
1300
0010
,
2000
0000
0000
0000
0000
0000
3002
0000
0000
0000
0000
0000
0000
0000
1003
0100
,
1000
0002
0000
0023
0000
0031
0100
0000
,
1020
0000
0130
0101
0000
1000
0001
1000
,
0002
0000
0000
0000
0003
0000
0000
0000
0010
0000
0010
0000
0000
0000
0001
0100
,
0002
0000
0000
1003
0000
0010
1000
0100
,
0020
0000
0031
2000
0000
3001
0100
0000
,
0110
0000
1000
0010
0000
1000
0001
0100
,
0002
0000
0000
0000
0003
0000
0000
0000
0100
0000
0100
0000
0000
0000
0010
1000
,
0010
0000
0100
0100
0000
0001
1000
0001
,
0100
0000
0000
0000
0100
0000
0000
0000
2002
0000
0000
0000
3003
0000
1000
0001
,
1000
0000
0010
1000
0000
0100
0010
0001
,
0000
0100
0001
0010
0000
0001
0100
0010
,
1000
0001
1000
0100
0000
0010
0100
0010
,
0000
0001
0100
0010
0000
1000
0001
1000
,
0100
0010
0002
0000
0000
0000
0000
0000
,
0003
0000
0100
0000
0001
0000
0000
0010
0000
0000
0100
0000
2000
0000
0000
0000
,
3000
0010
0200
0000
0000
0000
0000
0000
,
0300
0000
0010
0000
1000
0000
0000
0001
0000
0000
1000
0000
0200
0000
0000
0000
,
0300
0000
0000
0000
0010
0001
0000
0000
0100
0000
0000
0100
0000
0000
0010
0000
,
1000
0000
0001
0000
0000
1000
0000
0000
0100
0000
0000
0100
0000
0000
0010
0000
,
0001
1000
0001
0100
0001
0010
0100
1000
,
0001
0000
1000
0010
1000
0100
0010
0001
,
0100
0000
0010
0000
0000
1000
0000
0000
1000
0000
0000
1000
0000
0000
0001
0000
,
0100
0000
0010
0000
0000
0100
0000
0000
0001
0000
0000
0001
0000
0000
0010
0000
,
0001
0100
0020
0000
2030
0000
3200
0000
,
0302
0000
0000
0000
0013
0000
0000
1000
0000
0000
0001
0000
1000
0000
0100
0000
,
0020
0000
0031
0100
0001
0000
1000
0100
,
1000
0000
0000
0000
1010
0000
0000
0000
0011
0000
0000
0000
1000
0001
1000
0001
,
1000
0000
1001
0000
1001
0000
0000
0001
,
0010
0100
2000
0000
3010
1000
0010
0100
,
0000
0000
0110
0000
0110
0000
0000
0001
,
0010
0100
1000
0001
0200
0000
0000
0000
,
0300
0010
2000
0000
0000
3002
0000
0000
,
0000
0013
0002
0000
0000
0203
0000
0320
,
0000
1030
0001
0020
0000
0000
0031
0100
,
0010
1000
2100
0000
3001
0011
0000
0000
,
0000
0100
0010
1000
0100
1000
0001
0100
,
0000
0001
2000
0000
0000
3020
0000
0000
,
0000
0130
0002
0000
0000
2003
0000
0000
,
0000
3100
0020
0000
0002
0000
0000
0000
,
0033
0000
1000
0001
2000
0000
0000
0000
0000
0000
3200
0000
0000
0000
0000
0000
,
0000
0000
0310
0001
0020
0000
0000
0000
0000
0000
0230
0000
0000
0000
0000
0000
,
0000
0000
1300
0010
1000
0000
0002
0000
0000
0000
0023
0000
0000
0000
0031
0000
,
1000
0000
2010
0000
3100
1000
2200
0000
,
3300
0000
0001
0010
1000
0010
0001
0010
,
1000
0010
0001
0100
0020
0000
1030
0001
,
1000
0100
0020
0000
0031
0200
0000
0000
,
0000
0000
0301
1000
0002
0000
0000
0000
0020
0000
0000
0000
0000
0000
0000
0000
,
0033
0000
0001
0100
0002
0000
0000
0000
0000
0000
2003
0000
0000
0000
0000
0000
,
0000
0000
3010
0100
0020
0000
0000
0000
0000
0000
2030
0000
0000
0000
0000
0000
,
0000
0000
3001
0010
0001
0100
0010
1000
,
0100
1000
1002
0000
0100
0103
0000
0000
,
0000
0000
0001
0010
0100
1000
0001
0010
,
0100
1000
0001
0000
0022
0000
0000
0000
,
0030
2000
0000
3003
,
1100
0202
0000
0000
,
0303
0000
0000
0000
;

//---------------dance-single - ----------------
#NOTES:
     dance-single:
     :
     Hard:
     13:
     :
0000
0000
0000
0000
,
0000
0000
0000
0000
,
0000
0000
0000
0000
,
0000
0000
0000
0000
,
0101
0000
0000
0000
1000
0000
0200
0000
0010
0000
0010
0000
0310
0000
0001
1000
,
0002
0000
0100
0000
0000
0000
0023
0000
1000
0000
1000
0000
1030
0000
0010
0100
,
0010
0011
0000
1001
1000
0010
1000
0001
,
2010
0000
0000
0000
0001
0000
3001
0000
0000
0000
0000
0000
0000
0000
1000
0100
,
1000
0000
0010
0000
0100
0000
1000
0000
0100
0000
0001
0000
0010
0000
0001
1000
,
0002
0000
0000
0000
0103
0000
0210
0000
0000
0000
0001
0000
0301
0000
1000
0010
,
2000
0000
0000
0000
3100
0000
2100
0000
0000
0000
0010
0000
3010
0000
0100
0001
,
0200
0000
0000
0000
0320
0000
0000
0000
1030
0000
0001
0000
0100
0000
0010
1000
,
0020
0000
0000
0000
0130
0000
0002
0000
1000
0000
1000
0000
1003
0000
0100
0010
,
0200
0000
0001
0000
0000
0000
2300
0000
0000
0000
0100
0000
3100
0000
0010
0001
,
0010
0002
0000
2003
0000
3100
0020
0000
,
0032
0000
0100
0103
0000
0010
1000
0001
,
1010
0000
0000
0000
0100
0000
0010
0000
0001
0000
0001
0000
0100
0000
0010
1000
,
0020
0000
0130
0110
0000
0001
0100
1000
,
1100
0001
0100
0010
1000
0001
1000
0000
,
0101
0010
0100
2000
0000
3001
1000
0100
,
1001
0000
0000
0000
0010
0000
1000
0000
0100
0000
0100
0000
0010
0000
0001
1000
,
0002
0000
0000
0000
0103
0000
0012
0000
0000
0000
1003
0000
0010
0100
0010
0100
,
0010
0000
0000
0000
1100
0000
0000
0000
0202
0000
0000
0000
0303
0000
1000
0001
,
0100
0000
0010
1000
0010
0100
0010
1000
,
0010
0100
0010
1000
0010
0100
1000
0100
,
0001
0100
0010
1000
0010
0100
0010
1000
,
0010
0100
0010
1000
0010
0100
1000
0100
,
0001
0000
0100
0010
2000
0000
0000
0000
0001
0000
0000
0000
0100
0000
0100
0000
,
3100
0000
1000
0001
1000
0000
0000
0010
0000
0000
0100
0000
0002
0000
0000
0000
,
0013
0000
0001
0100
0002
0000
0000
0000
0010
0000
0000
0000
1000
0000
1000
0000
,
1003
0000
0010
0100
0010
0000
0000
1000
0000
0000
0001
0000
2000
0000
0100
0000
,
3100
0000
0010
0000
0001
0100
0000
0001
0100
0000
0000
0110
0000
0000
0010
0000
,
1000
0001
1000
0001
0000
0011
0000
0000
1100
0000
0000
0011
0000
0000
0100
0000
,
0010
1000
0010
1000
0000
0000
0001
0000
0100
0000
1000
0000
0100
0000
0001
0000
,
0010
1000
0010
0100
1000
0010
0100
0001
,
1000
0001
1000
0001
0000
0101
0000
0000
1010
0000
0000
0101
0000
0000
1000
0000
,
0100
0010
0100
0010
0000
1001
0000
0000
0110
0000
0000
1001
0000
0000
0010
0000
,
1000
0100
1000
0100
1000
0000
0000
0010
0000
0000
0100
0000
0001
0000
0000
1000
,
0000
0000
0100
0000
0010
0000
0000
0001
0000
0000
1000
0000
0010
0000
0100
0000
,
0001
0000
1000
0000
0100
0000
0000
0010
0000
0000
0001
0000
1000
0000
0000
0001
,
0000
0000
0100
0000
1010
0000
0000
0000
0011
0000
0000
0000
1000
0001
1000
0001
,
1000
0000
1001
0000
1001
0001
0100
0010
,
1000
0100
0020
0000
0031
0100
0010
2000
,
0100
3000
1100
0000
1100
0000
0001
0100
,
0010
1000
0001
0010
2000
0000
0100
0100
,
3100
0000
1000
0010
2000
0000
0000
0000
3100
0000
0020
0000
0000
0000
0001
0000
,
0031
0000
1000
0001
2000
0000
0010
0000
3000
0000
1100
0000
0000
0000
0202
0000
,
0303
0000
0100
0010
0100
0000
2002
0000
0003
0000
3001
0000
1000
0000
0010
0000
,
1000
0001
0012
0000
0100
0103
0000
0000
,
0000
0000
0001
1000
0001
0000
0100
0000
0010
0000
1000
0000
0100
0000
0001
0000
,
0100
0000
1000
0010
2000
0000
0000
0000
3100
0000
2000
0000
0000
0000
0001
0000
,
3001
0000
0100
0010
0200
0000
0000
0000
0301
0000
0020
0000
0000
0000
1000
0000
,
1030
0000
0010
0001
0100
0000
0000
0000
2010
0000
0000
0000
0100
0000
0100
0000
,
3100
0000
1000
0001
2000
0000
0000
0000
3010
0000
0200
0000
0000
0000
0010
0000
,
0310
0000
0100
0001
0200
0000
0000
0000
0301
0000
2000
0000
0000
0000
0100
0000
,
3100
0000
1000
0001
0010
0000
1100
0000
0000
0000
0102
0000
0000
0000
0100
0000
,
0103
0000
0210
0000
0001
0301
2000
0000
,
0000
0000
3010
0001
0010
1000
0010
0001
,
0010
0000
1000
0000
0100
0010
0001
0200
0000
0000
0010
0000
0310
0000
1000
0000
,
0001
0010
0001
0010
0200
0000
0000
0000
1300
0000
0002
0000
0100
0000
0100
0000
,
0103
0000
0010
1000
0002
0000
0000
0000
2003
0000
0000
0000
0100
0000
0100
0000
,
3100
0000
0010
0001
2000
0000
0000
0000
3100
0000
0012
0000
0000
0000
0010
0000
,
0013
0000
0001
1000
0020
0000
0000
0000
0130
0000
0210
0000
0000
0000
0001
0000
,
0301
0000
1000
0010
0100
1000
0100
0001
,
0010
0100
2100
0000
0001
3001
0000
0000
,
0000
0000
0000
0000
0010
0000
0001
0000
0100
0010
0100
0010
0100
0000
0001
0000
,
1000
0100
1000
0100
0010
0000
0000
0000
0022
0000
0000
0000
0000
0000
0000
0000
,
0030
1000
1000
1003
,
1100
0202
0000
0000
,
0303
0000
0000
0000
;
