#TITLE:Reboot;
#ARTIST:BEMANI Sound Team "TAG";
#BANNER:Reboot-bn.png;
#BACKGROUND:Reboot-bg.png;
#JACKET:Reboot-jacket.png;
#MUSIC:Reboot.ogg;
#SAMPLESTART:65.87;
#SAMPLELENGTH:20;
#DISPLAYBPM:240;
#BPMS:0=240;
#STOPS:188=0.75;
#BGCHANGES:;

//---------------dance-single - ----------------
#NOTES:
     dance-single:
     :
     Beginner:
     8:
     :
0000
0000
0000
0000
,
0000
0000
0000
0000
,
0000
0000
0000
0000
,
0000
0000
0000
0000
,
1000
0000
0001
0000
,
0100
0000
0010
1000
,
0010
0000
0100
0000
,
0001
1000
0001
0000
,
0010
0001
0010
0000
,
0001
0100
0001
0000
,
0100
0010
0100
0000
,
0110
0000
1001
0000
,
1000
0100
1000
0000
,
0001
0100
0001
0000
,
1000
0010
1000
0000
,
1001
0000
0110
0000
,
1000
0000
1000
0000
,
1000
0000
1000
0001
,
0100
0000
0100
0000
,
0100
0000
0100
0001
,
0010
0000
0001
0000
,
1000
0000
0010
1000
,
0100
0000
0010
0000
,
1000
0000
0001
0000
,
0010
0000
0010
0000
,
0010
0000
0010
1000
,
0001
0000
0001
0000
,
0001
0000
0001
1000
,
0100
0000
1000
0000
,
0010
0000
1000
0001
,
0100
0000
0010
0000
,
1000
0000
0001
0000
,
2000
0000
0000
3000
,
0002
0000
0000
0003
,
0200
0000
0000
0300
,
0020
0000
0000
0030
,
1000
0000
0001
0000
,
0010
0000
0001
0000
,
0100
0000
0010
0000
,
1000
0100
1000
0100
,
0020
0000
0000
0030
,
0002
0000
0103
0010
,
0200
0000
0301
0000
,
2000
0000
3010
0000
,
1000
0010
1000
0010
,
0100
0001
0100
0001
,
0010
0000
0100
0000
,
0110
2000
0000
0000
,
0000
0000
3000
1000
,
0000
0002
0000
0000
,
0000
0000
0003
0001
,
0000
0200
0000
0000
,
0000
0000
0300
0100
,
0000
0020
0000
0000
,
0000
0000
0030
0010
,
0000
1000
0000
0100
,
0000
1000
0000
0001
,
0000
0010
0000
0001
,
0000
0010
0000
0100
,
0000
1000
0000
0010
,
0000
1000
0000
0001
,
0000
0100
0000
0010
,
0000
0100
0000
0010
,
0000
2002
0000
0000
,
0000
0000
0000
0000
,
0003
0010
0000
0100
,
0000
0010
0000
3100
,
0000
1001
0000
0010
,
0000
1000
0000
0100
,
0000
0010
0000
0001
,
0000
0100
0000
0010
,
0000
0110
0000
1000
,
0000
0001
0000
0010
,
0000
0001
0000
0100
,
0000
1000
0000
0010
,
0000
1000
0000
0001
,
0000
1000
0000
0100
,
0000
0010
0000
0100
,
0000
1000
0000
0001
,
0000
0200
0000
0000
,
0300
0020
0000
0000
,
0030
2000
0000
0000
,
3000
0001
0000
0001
,
0000
1001
0000
0010
,
0000
0110
0000
1000
,
0000
1001
0000
0100
,
0000
1001
0000
0010
,
1000
0001
0000
0010
,
0000
0001
0000
0100
,
0000
0010
0000
1000
,
0100
1000
0000
0001
,
0000
0010
0000
0001
,
0100
0010
0000
1000
,
0001
0010
0000
0100
,
1000
0001
0000
0100
,
0010
2000
0000
0000
,
3100
0200
0000
0000
,
0310
0020
0000
0000
,
0031
0002
0000
0000
,
1003
0020
0000
0000
,
0000
0000
0000
0000
,
0030
1000
0001
1000
,
0001
0100
0010
0100
,
0010
1000
0000
0100
,
0000
1000
0000
0001
,
0000
0010
0000
0001
,
0000
0100
0000
0010
,
0000
0100
0000
0001
,
0000
0010
0000
1000
,
0000
0001
0000
1000
,
0000
0001
0100
0010
,
1000
0002
0000
0000
,
0003
0020
0000
0031
,
0000
2000
0000
3010
,
0000
0200
0000
0301
,
0000
0010
0000
0001
,
0000
0100
0000
0010
,
0000
1000
0000
0002
,
0000
0000
0000
0000
,
0003
0020
0000
0000
,
0000
0000
0000
0000
,
0000
0000
0000
0000
,
0030
0000
0000
0000
;

//---------------dance-single - ----------------
#NOTES:
     dance-single:
     :
     Easy:
     12:
     :
0000
0000
0000
0000
,
0000
0000
0000
0000
,
0000
0000
0000
0000
,
0000
0000
0000
0000
,
1000
0000
1000
0000
1000
0001
0000
0010
,
0000
0001
0000
0010
0100
0000
1000
0001
,
1000
0000
1000
0000
1000
0001
0000
0010
,
0000
0001
0000
0100
0000
0001
0100
0001
,
0000
0100
0000
0010
0000
0100
0000
0010
,
0000
1000
0000
0001
0000
1000
0000
0001
,
0000
0010
0000
0001
0000
1000
0000
0100
,
2000
3020
0230
0302
,
0013
0000
0001
0000
0100
0000
0010
1000
,
0000
0100
0000
1000
0000
0001
0100
0000
,
0010
0000
1000
0000
0010
0100
0010
0000
,
1000
0000
0001
1000
0000
0001
1000
0000
,
1100
0100
1100
0100
,
1100
0000
0100
0000
1000
0001
1000
0000
,
0101
0100
0101
0100
,
0101
0000
0100
0000
0010
1000
0010
0000
,
1001
0000
0010
2000
0000
3200
0000
0320
,
0000
0032
0000
1003
0001
0000
0010
0001
,
0100
0100
0010
0010
,
1000
1000
0001
0001
,
1010
0010
1010
0010
,
1010
0000
0010
0000
1000
0100
1000
0000
,
0011
0010
0011
0010
,
0011
0000
0010
0000
0001
0100
0001
0000
,
1001
0000
0010
2000
0000
3002
0000
0203
,
0000
0320
0000
1030
0100
0000
1000
0001
,
0100
0100
0010
0010
,
1000
0001
1001
0110
,
2000
0010
0001
3100
,
0020
0001
1000
0130
,
0002
1000
0100
0013
,
0200
0010
1000
0301
,
0020
0001
0100
1030
,
0002
1000
0100
0013
,
2000
0010
0100
3001
,
0200
1000
0010
0301
,
2020
0000
0000
0000
0030
0000
3001
0200
,
0000
0000
0320
2030
,
3002
0000
0000
0100
0000
0000
0013
0000
,
1000
0001
0100
0010
,
1000
1100
0001
0101
,
0010
0000
1000
0100
0000
1000
0001
0000
,
0200
0000
0000
0020
0000
0000
0330
0000
,
0110
0000
0001
0000
0000
1000
0000
0000
,
0010
0000
0000
0100
0000
0000
0110
0000
,
0000
0000
1000
0000
0000
0100
0000
0000
,
0010
0000
0000
0001
0000
0000
0101
0000
,
0000
0000
0010
0000
0000
0100
0000
0000
,
0001
0000
0000
1000
0000
0000
1100
0000
,
0000
0000
0100
0000
0000
0010
0000
0000
,
0001
0000
0000
1000
0000
0000
0001
0100
,
0001
0100
0002
0000
0000
2003
0000
0000
,
3200
0000
0000
0320
0000
0000
0130
1000
,
0001
0000
2000
0000
0000
3020
0000
0000
,
0230
0000
0000
0302
0000
0000
0013
0001
,
0100
0000
0020
0000
0000
0230
0000
0000
,
0302
0000
0000
2003
0000
0000
3001
1000
,
0010
0000
0200
0000
0000
0302
0000
0000
,
2003
0000
0000
3020
0000
0000
1030
0001
,
0100
2020
0000
0000
,
0030
0000
0001
0000
0001
0000
3001
1000
,
0001
0200
0000
0000
0310
2000
0000
0000
,
3100
0020
0000
0000
0031
0100
0000
0010
,
1000
0000
1001
0000
0000
0010
0000
0000
,
1000
0000
0100
0000
0000
0010
0000
0000
,
0001
0000
1000
0000
0000
0001
0000
0000
,
0100
0220
0300
1000
,
1030
0000
0001
0000
0000
0010
0000
0000
,
1000
0000
0100
0000
0000
0010
0000
0000
,
0001
0000
0100
0000
0000
0001
0000
0000
,
1000
0000
0020
0000
0030
1000
0002
0000
,
0003
0000
1000
0000
0000
0100
0000
0000
,
1000
0000
0001
0000
0000
0010
0000
0000
,
0100
0000
0010
0000
0000
0001
0000
0000
,
0100
0220
0030
0001
,
0301
0012
0100
1000
,
0103
1020
0001
0100
,
0031
2010
0010
0100
,
3010
2100
3001
0102
,
1003
0000
0010
0000
0000
1000
0000
0000
,
0001
0000
1000
0000
0000
0100
0000
0000
,
0010
0000
0100
0000
0000
1000
0000
0000
,
0001
2002
0003
0010
,
3010
0000
1000
0000
0000
0100
0000
0000
,
0001
0000
1000
0000
0000
0001
0000
0000
,
0010
0000
0001
0000
0000
0100
0000
0000
,
0010
2000
3200
2300
,
3002
0013
0001
0010
,
0100
1000
0010
1000
,
0001
1000
0100
0010
,
0001
0100
0010
1000
,
0001
0102
0100
0100
,
0103
1020
1000
1000
,
1030
2100
0100
0100
,
3100
0000
2002
0000
3000
0000
1003
0001
,
1000
0001
0100
0000
0010
0000
0100
0000
,
0010
1000
0001
1000
,
0001
2000
3020
0230
,
0302
0023
0230
2300
,
3002
0203
0010
0001
,
0310
2000
0001
0100
,
3010
2000
0001
0100
,
3010
0002
0010
0010
,
0013
0200
0010
0001
,
1300
0200
0010
1000
,
0310
0002
1000
0010
,
1003
0020
0000
0230
0000
0302
0000
0000
,
0103
2020
0000
0030
,
3001
0200
0000
0000
0000
0000
0320
0000
,
2030
0000
3100
0000
0000
1000
0000
0000
,
0001
0000
0010
0000
0000
0001
0000
0000
,
0100
0001
0011
1000
,
1010
0000
0020
0000
1030
0200
0000
1300
,
0200
0000
2300
0000
0000
0002
0000
0000
,
0000
0000
0000
3003
,
1000
0001
0020
0000
0000
0000
0000
0000
,
0000
0000
0000
0000
,
0000
0000
0000
0000
,
0030
0000
0000
0000
;

//---------------dance-single - ----------------
#NOTES:
     dance-single:
     :
     Medium:
     15:
     :
0000
0000
0000
0000
,
0000
0000
0000
0000
,
0000
0000
0000
0000
,
0000
0000
0000
0000
,
1000
0001
1000
0000
0100
0010
0000
0001
,
0000
0100
0000
0010
1000
0100
1000
0100
,
0010
0000
0001
0000
1000
0010
0000
0100
,
0000
0110
0000
1001
0000
0010
1000
0001
,
0000
0010
0000
0010
0000
0100
0000
0100
,
0000
1000
0000
0001
0000
1000
0000
0001
,
0000
1000
0000
0100
0000
0010
0000
0001
,
0200
0000
0310
1000
0002
0000
0013
0100
,
0000
1100
0000
0011
0000
1000
0001
0100
,
0000
1010
0000
0101
0000
0010
0001
2000
,
0000
3020
0000
0230
0000
0302
0000
1003
,
0010
0100
0010
0100
0000
0010
0100
0010
,
2000
3001
0012
0103
,
2010
0000
3100
0000
1000
0010
1000
0001
,
0200
0310
1002
0013
,
0120
0000
0031
0000
1000
0010
1000
0001
,
2000
0000
3100
0020
0000
0031
0000
1002
,
0000
0103
0000
0010
1000
0001
1000
0001
,
0100
0000
0000
0100
0010
0000
0000
0010
,
1000
0000
0000
1000
0001
0000
0000
0001
,
0020
0130
0120
0130
,
2100
0000
3001
0000
1000
0010
1000
0001
,
0020
0031
0021
0130
,
1200
0000
0310
0000
0100
1000
0001
0100
,
0020
0000
1030
0002
0000
0103
0000
2010
,
0000
3010
0000
0100
0001
0010
0001
1000
,
0100
0000
0000
0100
0010
0000
0000
0010
,
0001
0000
0100
0000
1000
0010
1000
0000
,
2100
0000
0000
3010
0000
0000
0102
0000
,
0000
0013
0000
0000
1000
0001
1000
0000
,
1002
0000
0000
0103
0000
0000
2001
0000
,
0000
3100
0000
0000
0010
0001
0010
0000
,
0012
0000
0000
1003
0000
0000
2010
0000
,
0000
3001
0000
0000
0100
0010
0100
0000
,
0001
0000
0000
0010
0000
0001
0100
0020
,
0000
2030
0000
3200
0000
0320
0000
0032
,
0000
0000
0000
0000
0000
0103
0001
0200
,
0000
0000
0320
2030
,
3002
0000
0000
0023
0000
0000
0230
0000
,
2300
3020
2030
3002
,
0013
0001
0200
0000
0310
2000
0000
3100
,
0020
0000
0031
2000
0000
3001
2000
0000
,
3020
0000
0000
0200
0000
0000
0330
0000
,
0110
0000
1000
0010
0000
1000
0010
0000
,
1000
0010
0000
1000
0010
0000
1010
0000
,
1010
0000
0001
0100
0000
0001
0100
0000
,
0001
0100
0000
0001
0100
0000
0101
0000
,
0101
0000
1000
0100
0000
1000
0100
0000
,
1000
0100
0000
1000
0100
0000
1100
0000
,
1100
0000
0010
0001
0000
0010
0001
0000
,
0010
0001
0000
0010
0001
0000
0011
0000
,
0011
0000
1000
0001
0000
0100
0010
0000
,
1000
0001
0000
0100
0010
0000
1001
0000
,
1001
0000
0001
0010
0000
0100
1000
0000
,
0001
0010
0000
0100
1000
0000
0110
0000
,
0110
0000
0010
0001
0000
0001
0100
0000
,
0010
1000
0000
1000
0100
0000
1001
0000
,
0110
0000
0001
1000
0000
0001
1000
0000
,
0001
1000
0000
0001
1000
0000
1100
0000
,
0110
0022
0030
2000
,
3000
0000
2000
0000
3000
0000
1003
0001
,
0000
0102
0000
0013
0000
2010
0000
3001
,
0000
1200
0000
0310
0000
0021
0000
0031
,
0100
0000
1001
0000
0010
1000
0000
0001
,
0100
0000
0010
0000
1000
0100
0000
0010
,
0001
0000
0100
0000
0001
0010
0000
0100
,
1000
0120
0001
1000
,
0031
0000
0100
0000
0010
1000
0000
0001
,
1000
0000
0100
0000
0010
0100
0000
0010
,
0001
0000
1000
0000
0010
1000
0000
0001
,
0100
0000
0001
0010
0100
2000
0000
0000
,
3010
0100
0010
0000
1000
0001
0000
0001
,
0010
0000
0100
0000
1000
0001
0000
1000
,
0100
0000
0010
0000
0100
0010
0000
0001
,
1000
2100
0001
0100
,
3001
0000
0021
0000
0000
1000
0000
0000
,
0031
0100
0010
1000
0100
0000
2000
0000
,
3002
0000
0013
0001
0010
0100
1000
0000
,
1000
0000
0001
0100
0001
0000
1000
0100
,
1000
0000
1010
0000
0010
1000
0000
0001
,
0100
0000
0110
0000
0001
0010
0000
0100
,
1000
0000
1100
0000
0010
0100
0000
0001
,
1000
0000
0010
1000
0100
0000
1100
0000
,
0101
0000
1100
0000
0010
0001
0000
1000
,
0100
0000
1001
0000
1000
0010
0000
0100
,
0001
0000
0011
0000
0010
0100
0000
1000
,
0001
0000
1000
0010
1000
0010
0100
0001
,
0100
0001
0010
0000
0001
1000
0000
0010
,
0100
0000
0001
0000
1000
0100
0000
0010
,
0001
0000
0100
0000
0010
1000
0000
0001
,
1000
0000
0001
0100
0010
0000
1010
0000
,
0101
0000
1000
0010
1000
0010
1000
0010
,
1000
0000
0001
0100
0001
0100
0001
0100
,
0001
0000
0010
0001
0010
0001
0010
0001
,
0010
0000
0100
1000
0100
1000
0100
1000
,
0100
0000
1000
0001
1000
0001
1000
0001
,
1000
0000
0010
0100
0010
0100
0010
0100
,
0010
0000
1000
0100
0010
0001
1000
0100
,
0010
0001
0200
0000
0320
0000
1030
0001
,
1000
0100
0010
0000
0001
0100
0000
0010
,
1000
0010
0000
0110
0000
0110
0000
0001
,
1000
0100
1000
0001
1000
0001
0000
0011
,
0000
0001
0010
0100
0000
1000
0010
1000
,
0001
0100
0000
1010
0000
1000
0100
1000
,
0001
1000
0000
0010
0100
0001
0000
0101
,
0000
1000
0010
0100
0010
0100
0000
0001
,
1000
0020
0000
2030
0000
3200
0000
1300
,
0002
0000
0203
0000
0000
0000
0000
0310
,
1000
0002
0000
0000
0000
0000
2003
0000
,
3200
0000
2300
0000
0000
3002
0000
0000
,
0023
0000
0230
0000
0000
0320
0000
0000
,
0032
0000
1003
0010
2000
0000
3100
0020
,
0000
0031
0200
0000
0310
2000
0000
3001
,
0200
0000
0302
0000
0000
2000
0000
0000
,
3003
1001
0110
1001
,
1000
0001
0020
0000
0000
0000
0000
0000
,
0000
0000
0000
0000
,
0000
0000
0000
0000
,
0030
0000
0000
0000
;

//---------------dance-single - ----------------
#NOTES:
     dance-single:
     :
     Hard:
     17:
     :
0000
0000
0000
0000
,
0000
0000
0000
0000
,
0000
0000
0000
0000
,
0000
0000
0000
0000
,
1010
0000
0101
0000
1000
0100
0010
0001
,
0000
0011
0000
0010
0001
1000
0100
0000
,
1100
0000
0011
0000
0100
0010
1000
0001
,
0000
0010
0001
0100
0000
0010
1000
0100
,
0000
1100
0000
0101
0000
0011
0000
0110
,
0000
1001
0000
1010
0000
1100
0000
0011
,
0000
0110
0000
0011
0000
0101
0000
1010
,
0001
0100
1000
0100
0001
0010
1000
0010
,
0001
0101
0000
1100
0000
0010
1000
1001
,
0000
1010
0000
0011
0000
0010
0001
1001
,
0000
0110
0000
1010
0000
1100
0000
0011
,
1000
1000
0100
0100
0010
0010
0001
0001
,
0020
0000
0031
0100
2000
0000
3010
1000
,
0200
0000
0310
1000
0010
0100
0010
0001
,
0200
0000
0310
1000
0002
0000
0013
0100
,
2000
0000
3001
1000
0010
0001
0010
0100
,
0002
0000
0013
0200
0000
0310
0001
2000
,
0000
3010
0100
0010
1000
0100
0010
0001
,
0100
0000
0000
0100
0000
0000
0100
0000
0010
0000
0000
0010
0000
0000
0010
0000
,
1000
0000
0000
1000
0000
0000
1000
0000
0001
0000
0000
0001
0000
0000
0001
0000
,
2000
0000
3010
1000
0200
0000
0310
0001
,
2000
0000
3010
1000
0001
0010
1000
0100
,
2000
0000
3001
1000
0020
0000
0130
0010
,
2000
0000
3001
0010
0001
0010
0001
0100
,
0002
0000
0013
0002
0000
1003
0100
0020
,
0000
0130
0010
0001
0010
1000
0010
0001
,
0100
0000
0000
0100
0000
0000
0100
0000
0010
0000
0000
0010
0000
0000
0010
0000
,
1000
0000
0000
0001
0000
0000
1000
0000
0001
0000
0100
0000
0010
0000
1000
0000
,
1100
0000
0001
0100
0000
0010
1000
0010
,
1000
0100
0010
0100
2000
0000
3002
0000
,
0013
0000
0001
0100
0010
1000
0100
0000
,
0010
0001
0010
0100
0001
0100
1000
0000
,
1000
0010
1000
0100
0000
0100
0010
0001
,
0010
0100
0000
1000
0010
0100
0010
0001
,
0010
1000
0100
0010
0000
0001
0100
0002
,
0000
0023
0000
0230
0000
2300
0000
3002
,
0010
0000
1000
1003
0000
0100
1000
0020
,
0000
0001
0000
0100
0130
0010
2000
0000
,
3200
0000
1300
0002
0000
0013
0200
0000
,
1300
0010
1000
0100
0010
0001
0100
0001
,
1000
0100
0001
1000
0010
0001
1000
0100
,
0001
1000
0010
0001
0100
0010
1000
0001
,
0010
0001
0010
0100
0010
0001
0010
0100
,
0110
0000
1000
0010
0001
0010
1000
0000
,
0100
0100
0000
0010
0001
0000
1001
0001
,
0010
0000
0001
0100
1000
0100
0001
0000
,
0010
0010
0000
0001
1000
0000
1100
0001
,
0100
0000
0010
1000
0010
0100
0010
0000
,
0001
1000
0000
0100
0100
0000
0011
1000
,
0001
0000
0100
0010
0100
0010
1000
0000
,
0001
0001
0000
1000
1000
0000
0100
0001
,
0010
1000
0100
0001
0100
0010
0001
0000
,
1000
1000
0000
0100
0100
0000
0110
0001
,
0100
0010
1000
0100
0001
0100
1000
0000
,
0010
0010
0000
0100
0100
0000
0101
0010
,
1000
0001
0010
0100
0001
0100
1000
0000
,
0001
0001
0000
0100
0100
0000
1010
1000
,
0100
0010
0001
0010
0100
0010
0100
0000
,
1000
1000
0000
0010
0010
0000
1000
0100
,
0010
0001
2200
0000
0300
0000
0010
0000
,
0010
0000
0010
0000
0010
0000
3010
1000
,
0100
0011
0000
0010
0001
0101
0000
1000
,
0001
1010
0000
0100
0010
1001
0000
0010
,
0001
0100
1001
0000
0010
1000
0100
0010
,
0001
0000
0100
0010
0100
1000
0100
0001
,
0010
0000
0001
0100
1000
0010
1000
0001
,
0100
0000
0110
0001
1000
0000
0020
0000
,
0230
0000
0301
0010
0001
1000
0010
1000
,
0100
0000
1000
0001
0010
0001
1000
0100
,
0001
0000
0010
0001
0010
0100
1000
0010
,
1000
0000
0100
1000
0010
0100
1000
0100
,
0001
0010
1000
0100
0001
0010
0001
0100
,
1000
0000
0010
0001
0010
0100
0010
1000
,
0010
0000
1000
0001
1000
0100
0001
0100
,
0010
0000
0001
0100
1000
0000
1100
0000
,
0101
0000
0010
0001
0010
1000
0010
0001
,
0010
1000
0010
0100
0010
1000
0010
0100
,
0010
1000
0010
0001
0100
0010
0001
0010
,
1000
0001
0100
0010
0100
0010
1000
0001
,
1000
0001
0010
0001
0100
0010
0000
1000
,
1000
0000
0100
0010
0001
0010
0000
0001
,
0001
0000
0100
0001
1000
0100
0000
0010
,
0010
0000
0001
0100
0010
1000
0002
0000
,
0023
0000
1030
0010
0001
0100
0001
1000
,
1000
0000
0010
0100
0010
1000
0000
0001
,
0001
0100
0001
0010
0001
0100
0010
1000
,
0001
1000
0100
0010
0001
0100
0010
0010
,
0010
0010
1000
1000
0001
0001
1000
1000
,
0001
0001
0010
0010
0100
0100
0010
0010
,
0100
0100
1000
1000
0010
0010
0100
0100
,
0001
0001
0010
0001
0100
0001
1000
0100
,
0001
0000
1000
1000
1000
1000
1000
1000
,
1000
0000
0001
0001
0001
0001
0001
0001
,
0001
0000
0100
0100
0100
0100
0100
0100
,
0100
0000
0010
0010
0010
0010
0010
0010
,
0010
0000
1000
0100
0010
1000
0001
1000
,
0001
0100
1000
0001
0100
0010
1000
0100
,
0001
1000
0010
0100
0010
0001
0010
1000
,
0001
0000
0100
0000
0002
0000
0000
0023
0000
0000
0230
0000
0000
2300
0000
0000
,
3020
0230
0301
0010
1000
0010
0001
0010
,
1000
0010
0001
0101
0000
1010
0000
1000
,
0100
0010
0001
0100
1000
0100
0001
0100
,
1000
0100
0001
0110
0000
0001
1000
0100
,
1000
0001
0100
0010
1000
0001
1000
0100
,
0010
0001
0010
0011
0000
0100
1000
0101
,
0000
0010
1000
0001
0010
0100
1000
0010
,
0100
0002
0000
0023
0000
0032
0000
1003
,
0100
0000
1002
0010
0000
1000
1003
0001
,
1000
0200
0000
0010
0000
0000
0301
0100
,
1000
0000
0020
0000
1030
0002
0000
1003
,
0200
0000
0320
0000
0130
2000
0000
3001
,
2000
0000
3001
0010
1000
0001
0100
1000
,
0001
0010
1000
0001
0100
1000
0010
0100
,
0001
1000
0200
0000
0000
0320
0000
0000
,
0031
0100
0010
0001
0010
1000
0100
0010
,
0001
0100
0020
0000
0000
0000
0000
0000
,
0000
0000
0000
0000
,
0000
0000
0000
0000
,
0030
0000
0000
0000
;

//---------------dance-single - ----------------
#NOTES:
     dance-single:
     :
     Challenge:
     20:
     :
0000
0000
0000
0000
,
0000
0000
0000
0000
,
0000
0000
0000
0000
,
0000
0000
0000
0000
,
1010
1000
0001
0000
0011
0001
0100
0010
,
0001
0000
0010
0000
0100
0000
0010
0000
1000
0100
1000
0100
1000
0000
0001
0000
,
0010
0000
0001
0000
0100
0000
0010
1000
0010
0000
0100
0000
0001
0000
1000
0000
,
0100
0010
0100
1000
0010
1000
0001
0100
,
0010
0001
1000
1000
0001
0100
0010
0100
,
0001
0001
0010
1000
0100
1000
0100
0010
,
0010
1000
0001
0001
1000
0100
0010
0100
,
0010
0001
1000
0010
0100
1000
0100
0001
,
0010
0000
0001
0000
0100
0000
0010
0000
1000
0000
0001
0000
1000
0100
1000
0100
,
1000
0000
0010
0000
0100
0000
0001
0000
1000
0000
0010
0000
0100
0001
0100
0001
,
0100
0000
0001
0000
0010
0000
0001
1000
0001
0000
0100
0000
0010
0000
1000
0100
,
1000
1100
1010
1001
0000
0011
0101
1001
,
0010
1000
0001
0100
0001
0100
1000
0010
,
1000
0010
0001
0100
0100
0001
0010
1000
,
0001
0100
0010
0001
0100
1000
1000
0010
,
0100
1000
0001
0001
0100
1000
0010
0010
,
1000
0000
0100
0000
0010
0000
0001
1000
0001
0000
0010
0000
0100
0000
1000
0010
,
1000
0100
0001
0010
0001
0100
0001
1000
,
1100
0000
0000
1100
0000
0000
1100
0000
0011
0000
0000
0011
0000
0000
0011
0000
,
1010
0000
0000
1010
0000
0000
1010
0000
0101
0000
0000
0101
0000
0000
0101
0000
,
1000
0001
0010
0001
0010
0100
0100
1000
,
0001
1000
1000
0100
0100
0010
0001
0010
,
0001
0010
0001
1000
0100
1000
0100
0010
,
0010
1000
0100
0001
0001
1000
0010
0100
,
0001
0000
0010
0000
0100
0000
1000
0010
1000
0000
0001
0000
0100
0000
0010
1000
,
0010
0100
0001
1000
0100
1000
0001
0010
,
1100
0000
0000
1100
0000
0000
1100
0000
0011
0000
0000
0011
0000
0000
0011
0000
,
1010
0000
0000
0101
0000
0000
1010
0000
0101
0000
0000
0000
1000
0001
1000
0001
,
1000
0010
0001
0100
0010
0100
0001
1000
,
0010
0001
1000
0001
0100
0010
1000
0100
,
0001
1000
0010
0100
1000
0010
0001
0100
,
0010
1000
0100
0001
0010
0001
1000
0100
,
0010
0001
0100
1000
0001
0010
1000
0100
,
0010
0100
0001
0010
0100
1000
0001
1000
,
0010
0100
1000
0010
0001
0200
0302
2003
,
3010
2000
3001
0200
0310
0200
0301
2000
,
3010
0000
1000
0000
0100
0000
0010
0000
0001
0000
0100
0000
0001
1000
0002
0000
,
0013
0001
0100
0010
2000
3100
2000
3001
,
0020
0001
0130
2000
0001
3010
0200
1000
,
0302
0010
1003
0020
0100
1030
0002
0100
,
1003
0001
0010
0100
0001
0100
0010
1000
,
0010
0001
0100
0001
0010
1000
0100
1000
,
0001
0010
0001
0010
0100
1000
0100
1000
0001
0100
0001
0100
0010
1000
0010
1000
,
0100
0000
1001
0010
1000
0100
0001
0010
,
0001
0000
0000
0100
0000
0000
0010
0000
0000
1000
0000
0000
0100
0000
0000
0010
0000
0000
0001
0000
0100
0000
0001
0000
,
1000
0000
0100
0000
1000
0000
0001
0000
0000
0010
0000
0000
0001
0000
0000
0100
0000
0000
0010
0000
0000
1000
0000
0000
,
0100
0000
0000
0001
0000
0000
0010
0000
0000
0001
0000
0000
0100
0000
0000
1000
0000
0000
0010
0000
1000
0000
0100
0000
,
0010
0000
0001
0000
0100
0000
0010
0000
0000
1000
0000
0000
0001
0000
0000
1000
0000
0000
0100
0000
0000
0001
0000
0000
,
0010
0000
0000
0001
0000
0000
0100
0000
0000
0010
0000
0000
1000
0000
0000
0100
0000
0000
0001
0000
0010
0000
1000
0000
,
0001
0000
0100
0000
1000
0000
0010
0000
0000
1000
0000
0000
0001
0000
0000
1000
0000
0000
0100
0000
0000
0010
0000
0000
,
0100
0000
1000
0000
0010
0000
0100
0000
0001
0000
0000
0000
1000
0100
0010
0001
,
1000
0100
0010
0001
0100
0000
0110
0000
0010
0000
1000
0000
1100
0000
0100
0000
,
0010
0000
0000
0011
0000
0000
0001
0000
0000
0100
0000
0000
0110
0000
0000
0010
0000
0000
1000
0000
0100
0000
0001
0000
,
0010
0000
0100
0000
1000
0000
0001
0000
0000
0011
0000
0000
0100
0000
0000
0010
0000
0000
1001
0000
0000
1000
0000
0000
,
0100
0000
0000
0011
0000
0000
0100
0000
0000
0010
0000
0000
1010
0000
0000
0100
0000
0000
1000
0000
0001
0000
0010
0000
,
0001
0000
0100
0000
0010
0000
1000
0000
0000
1100
0000
0000
0010
0000
0000
1000
0000
0000
0101
0000
0000
0010
0000
0000
,
0001
0000
0000
1001
0000
0000
0100
0000
0000
0010
0000
0000
0110
0000
0000
0001
0000
0000
1000
0000
0010
0000
1000
0000
,
0010
0000
1000
0000
0010
0000
1000
0000
0000
1010
0000
0000
0100
0000
0000
0010
0000
0000
1100
0000
0000
0001
0000
0000
,
0100
0000
0110
0000
0001
0000
0010
0000
0101
0000
1000
0000
0001
0010
0100
1000
,
0001
0000
0000
0010
0000
0000
0100
0000
0000
1000
0000
0000
0020
0000
0000
0000
0000
0000
0000
0000
0000
0000
0000
0000
0000
0000
0000
0000
0000
0000
0000
0000
0000
0000
0000
0000
1030
0000
0000
0000
0100
0000
0000
0000
1000
0000
0000
0000
,
0001
0100
0001
1000
0100
1000
0001
0100
0001
1000
0100
1000
,
0001
0101
0000
0011
0110
1100
0000
1010
,
1001
0000
0101
0000
0000
0000
0110
0000
1001
0000
0110
0000
0000
0000
0001
0010
,
0100
0010
0001
0000
1001
0000
0010
0000
1000
0000
0001
0000
1000
0000
0100
0000
,
0001
0010
0001
0100
0010
0100
0001
0010
,
1000
0001
1000
0100
1000
0010
1000
0001
,
0100
0010
2000
0100
0010
3100
1000
0001
,
0010
0001
0100
0010
0100
0001
0010
0100
,
1000
0001
0010
0001
0010
1000
0100
0010
,
1000
0001
0010
0001
0100
0010
1000
0100
,
1000
0010
0001
0100
0002
0010
0013
0001
,
2000
0100
3100
1000
0010
1000
0100
1000
,
0001
0010
0001
0100
0001
0010
1000
0010
,
0100
0010
1000
0100
0001
1000
0010
1000
,
0001
0010
0001
0100
0010
0100
0010
1000
,
0001
0100
0101
0010
1000
0100
0010
0001
,
1000
0001
1010
0001
1000
0100
1000
0010
,
0100
0001
0110
0001
0010
0001
0100
0010
,
1000
0001
1100
0010
1000
0001
0011
0010
,
0100
0000
1000
0000
1001
0000
0010
0000
1000
0000
0100
0010
0001
0000
0100
0010
,
1000
0000
0001
1000
0100
0000
0010
0001
0100
0000
0001
0010
0001
0000
1000
0100
,
1000
0000
0010
0100
0001
0000
0010
0100
1000
0000
0001
1000
0100
0000
1000
0010
,
0100
0000
0001
0010
0001
0000
1000
0100
0010
0001
0010
0100
1000
0000
0001
0010
,
0001
0000
1000
0010
1000
0000
0100
0010
0100
1000
0001
0000
0010
0000
0001
0100
,
0010
0000
1000
0001
1000
0000
0010
1000
0100
0010
0001
0000
1000
0000
0010
1000
,
0100
0000
0010
0001
1000
0000
0010
0100
0010
0000
1000
0100
0010
0000
0001
0100
,
0001
0000
1000
0010
1000
0000
0100
0000
0100
0000
0100
0000
0100
0000
0100
0000
,
0100
0100
1100
0100
0110
0010
0011
0001
,
0101
0100
0110
0010
0110
0100
0101
0001
,
1001
1000
1010
1000
1100
0100
0110
0010
,
0011
0001
0101
0100
0010
1000
1001
0001
,
1001
0000
0000
0000
0000
0000
1000
0000
0000
0000
0000
0000
0010
0000
0000
0100
0000
0000
0010
0000
0000
0100
0000
0000
0010
0000
0000
0100
0000
0000
0010
0000
0000
0100
0000
0000
0010
0000
0000
0000
1000
0000
0000
0000
0001
0000
0000
0000
,
0010
0000
0000
0000
0001
0000
0000
0000
1000
0000
0000
0000
0010
0000
0000
0100
0000
0000
0010
0000
0000
0100
0000
0000
0010
0000
0000
0100
0000
0000
0010
0000
0000
0100
0000
0000
0001
0000
0000
0000
0010
0000
0000
0000
0001
0000
0000
0000
,
1000
0000
0000
0000
0010
0000
0000
0000
1000
0000
0000
0000
0001
0000
0000
0100
0000
0000
0001
0000
0000
0100
0000
0000
0001
0000
0000
0100
0000
0000
0001
0000
0000
0100
0000
0000
0010
0000
0000
0000
1000
0000
0000
0000
0100
0000
0000
0000
,
0010
0000
0000
0000
0001
0000
0000
0000
0100
0000
0000
0000
0001
0000
0000
1000
0000
0000
0001
0000
0000
1000
0000
0000
0001
0000
0000
1000
0000
0000
0001
0000
0000
1000
0000
0000
0001
0000
0000
0000
0010
0000
0000
0000
1000
0000
0000
0000
,
0001
0100
1000
0010
1000
0100
0010
0001
0100
0010
1000
0100
,
0010
0001
0100
0001
0010
1000
0001
0100
1000
0001
0010
1000
,
0001
0000
0000
0000
0100
0000
0000
0000
1000
0000
0000
0000
0010
0000
0000
0100
0000
0000
1000
0000
0000
0100
0000
0000
0001
0000
0000
0100
0000
0000
1000
0000
0000
0001
0000
0000
0010
0000
0000
1000
0000
0000
0010
0000
0000
0001
0000
0000
,
0100
1000
0001
0010
2000
0000
0000
3020
0000
0000
0230
0000
0000
0302
0000
0000
,
0023
0230
1300
0100
0001
0001
0100
1000
,
0010
0010
0010
0010
1000
0001
1000
0100
,
0100
0001
1000
1000
0001
0001
0100
0100
,
0010
0010
0100
0010
0010
1000
0001
1000
,
0100
0001
1000
0001
1000
0100
0100
0010
,
0010
0001
0010
0100
1000
1000
0001
0001
,
0100
0010
0001
1000
0001
0100
0010
2000
,
3200
0320
0031
2000
3001
0020
0130
0200
,
2300
3010
0102
1000
0000
0100
0103
0020
,
2030
3002
0013
0001
0100
0000
0002
0023
,
0230
2300
3020
0000
1030
0200
0000
0010
,
0302
0100
2003
0001
3100
0002
0010
1003
,
0020
0000
1030
0100
0001
1000
0010
0001
,
1000
0100
0001
1000
0010
0001
0100
0010
,
1000
0001
0200
0000
0000
0320
0000
0000
,
1030
0000
0000
0001
0000
0000
1000
0000
0000
0001
0000
0000
1000
0000
0000
0000
0100
0000
0000
0000
0010
0000
0000
0000
0001
0000
0000
0000
0010
0000
0000
0000
0001
0000
0000
0000
1000
0000
0000
0000
0010
0000
0000
0000
1000
0000
0000
0000
,
0100
0001
0100
0020
0000
0000
0000
0000
0000
0000
0000
0000
,
0000
0000
0000
0000
,
0000
0000
0000
0000
,
0030
0000
0000
0000
;
