#TITLE:Real Wild Child;
#SUBTITLE:(Wild One);
#ARTIST:Iggy Pop;
#BANNER:Real Wild Child (Wild One)-bn.png;
#BACKGROUND:Real Wild Child (Wild One)-bg.png;
#JACKET:Real Wild Child (Wild One)-jacket.png;
#MUSIC:Real Wild Child (Wild One).ogg;
#SAMPLESTART:19.285;
#SAMPLELENGTH:20;
#DISPLAYBPM:146;
#BPMS:0=146.222;
#BGCHANGES:;

//---------------dance-single - ----------------
#NOTES:
     dance-single:
     :
     Beginner:
     3:
     :
0000
0000
0000
0000
,
0000
0000
0000
0000
,
0000
0000
0000
0000
,
0000
0000
0000
0000
,
0000
0000
0000
0000
,
0000
0000
0000
0000
,
0000
0000
0000
0000
,
0000
0000
0000
0000
,
0001
0000
1000
0000
,
0001
0000
1000
0000
,
0010
0000
0100
0000
,
0010
0000
0100
0000
,
0001
0000
1001
0000
,
1000
0000
1001
0000
,
0010
0000
1001
0000
,
0100
0100
0100
0000
,
0001
0001
0000
0000
,
0000
1000
1000
0000
,
0010
0010
0000
0000
,
0000
0000
0000
0000
,
1001
0000
0100
0000
,
0001
0001
0001
0000
,
1000
0000
0100
0000
,
1000
1000
1000
0000
,
0001
0000
0010
0000
,
0001
0000
0100
0000
,
1000
0000
0010
0000
,
1000
0000
0100
0000
,
1000
0000
0010
0000
,
0100
0000
0001
0000
,
0001
0000
0010
0000
,
0100
0000
1000
0000
,
0010
0000
0010
0000
,
0100
0000
0100
0000
,
1000
0000
0001
0000
,
1000
0000
0001
0000
,
0100
0000
0110
0000
,
0010
0000
0110
0000
,
0001
0001
0001
0000
,
1000
0000
0110
0000
,
0010
0010
0000
0000
,
0000
0100
0100
0000
,
0001
0001
0000
0000
,
0000
0000
0000
0000
,
0110
0000
0010
0000
,
1000
1000
1000
0000
,
0100
0000
0010
0000
,
0001
0001
0000
0000
,
0100
0000
1001
0000
,
0010
0000
1000
0000
,
0001
0000
1001
0000
,
0100
0000
0010
0000
,
1000
0000
0110
0000
,
0001
0000
0100
0000
,
0010
0000
0110
0000
,
0010
0000
1000
0000
,
0100
0000
1001
0000
,
0001
0000
0010
0000
,
0001
0000
0110
0000
,
1000
0000
0010
0000
,
0100
0100
0000
0000
,
0000
0000
0000
0000
,
0001
0001
0000
0000
,
0000
0000
0000
0000
,
1000
1000
0000
0000
,
0000
0010
0010
0000
,
1000
0000
0001
0000
,
0000
0000
0000
0000
,
0110
0000
0001
0000
,
0010
0010
0010
0000
,
0001
0000
0100
0000
,
1000
1000
0000
0000
,
1001
0000
0000
0000
;

//---------------dance-single - ----------------
#NOTES:
     dance-single:
     :
     Easy:
     7:
     :
0000
0000
0000
0000
,
0000
0000
0000
0000
,
0000
0000
0000
0000
,
0000
0000
0000
0000
,
0000
0000
0000
0000
,
0000
0000
0000
0000
,
0000
0000
0000
0000
,
0000
0000
0000
0000
,
0001
0100
1000
0000
,
0010
1000
0100
0000
,
0010
0001
0100
0000
,
0010
1000
0010
1000
,
0001
0100
0020
1030
,
0100
0010
0002
1003
,
0010
1000
0200
0310
,
0001
0001
1000
0010
,
1001
0110
0000
0000
,
0000
2000
3002
0103
,
1001
0110
0000
0000
,
0010
1000
0100
0001
,
0010
0100
2000
3001
,
0100
0100
0100
0010
,
1000
0100
0001
0100
,
1001
0110
2002
3003
,
1000
0100
0010
0001
,
0100
0010
1000
1000
,
0001
0010
0001
0100
,
0010
1000
0100
0100
,
1000
0010
0100
0001
,
1000
0100
0010
0010
,
0100
1000
0010
0100
,
0010
1000
0001
0001
,
1000
0001
0010
0100
,
1000
0010
0100
0100
,
0001
0010
0001
0100
,
1000
0010
1000
0010
,
0100
0001
0020
0130
,
1000
0010
2000
3001
,
0010
0001
0200
0310
,
1000
0001
0200
0310
,
1001
0110
0000
0000
,
0000
2000
3002
0103
,
1001
0110
0000
0000
,
0001
0010
1000
0100
,
0010
0001
0200
0310
,
1000
1000
1000
0001
,
0010
0001
0100
1000
,
0110
1001
0220
0330
,
0002
0003
1000
0100
,
1000
0010
0200
0300
,
0020
0030
1000
0010
,
1000
0100
0002
0003
,
2000
3000
0001
0100
,
0010
1000
0200
0300
,
2000
3000
0010
1000
,
0100
0010
0002
0003
,
0200
0300
0010
1000
,
0100
1000
0002
0003
,
0020
0030
0001
0100
,
1000
0010
1000
0010
,
1001
0110
0010
1000
,
0100
0010
0001
0100
,
1001
0110
0001
0010
,
0001
0100
0010
1000
,
1001
0110
1000
0100
,
0010
0002
2003
3100
,
1001
0110
0010
1000
,
0100
0010
0001
0100
,
0001
1000
0020
1030
,
0100
0010
0100
0010
,
0001
0100
0010
1000
,
0010
0220
0000
0330
,
1001
0000
0000
0000
;

//---------------dance-single - ----------------
#NOTES:
     dance-single:
     :
     Medium:
     10:
     :
0000
0000
0000
0000
,
0000
0000
0000
0000
,
0000
0000
0000
0000
,
0000
0000
0000
0000
,
0000
0000
0000
0000
,
0000
0000
0000
0000
,
0000
0000
0000
0000
,
0000
0000
0000
0000
,
0001
0100
0010
0000
1000
0001
0000
0100
,
0000
0020
0000
0000
1030
0100
0000
0001
,
0000
1000
0001
0000
0100
0010
0000
1000
,
0000
0001
1000
0001
1000
0001
1000
0000
,
1001
0000
0010
0100
1000
0000
1100
0000
,
0101
0000
0001
1000
0100
0000
0011
0000
,
1010
0000
0010
0100
0001
0000
0110
0000
,
1000
0001
0100
0010
1000
0000
1001
0000
,
0010
0100
0001
0000
1000
0100
0000
1000
,
0000
0000
1100
0000
0011
0000
0001
0100
,
0010
1000
0001
0000
0100
0010
0000
1000
,
0000
0001
1000
0000
0010
0100
0001
0000
,
0011
0000
1000
0002
0000
0000
0013
0100
,
1000
0000
0001
0100
0010
0000
1001
0000
,
1000
0100
0010
0000
0001
0100
0010
0000
,
1100
0110
0022
0033
,
1000
0020
0000
0130
0002
0000
0013
0200
,
0000
1300
0002
0000
1003
0001
0100
0000
,
0010
2000
0000
3100
0020
0000
0031
2000
,
0000
3001
0200
0000
0310
1000
0001
0000
,
0010
0200
0000
0310
0002
0000
0103
0020
,
0000
1030
0002
0000
1003
0100
0010
0000
,
0001
2000
0000
3001
0200
0000
0310
2000
,
0000
3100
0020
0000
0031
0100
0010
0000
,
1000
0002
0000
0013
0200
0000
1300
0020
,
0000
0130
0002
0000
1003
0001
0010
0000
,
0001
0200
0000
0310
2000
0000
3001
0010
,
0000
0001
1000
0001
1000
0001
1000
0000
,
1010
0000
0010
0100
0001
0000
0011
0000
,
0001
1000
0100
1000
0001
0000
0101
0000
,
1001
0000
0110
0000
1001
0000
0100
0010
,
1000
0000
0001
0100
0000
0100
0010
1000
,
0100
1000
0001
0000
0100
0010
0000
1000
,
0000
0000
1010
0000
0101
0000
0010
0001
,
1000
0001
0100
0000
0010
1000
0000
0001
,
0000
0010
0100
0000
1000
0001
0100
0000
,
0011
0000
1000
0002
0000
0000
0103
0010
,
1000
0001
0100
0000
0001
0010
0100
0000
,
1000
0010
1000
0000
0100
0010
0001
0000
,
1100
0000
0101
0000
0000
2020
3030
0000
,
0001
1000
0000
0010
2000
0000
3002
0000
,
0013
0200
0000
2300
0000
3001
0100
0000
,
0010
1000
0000
0001
0020
0000
0230
0000
,
1300
0002
0000
0203
0000
0310
1000
0000
,
0100
0010
0000
0001
2000
0000
3020
0000
,
1030
0200
0000
0320
0000
0031
0100
0000
,
0010
1000
0000
0100
2000
0000
3002
0000
,
0013
0002
0000
0203
0000
0310
1000
0000
,
0100
1000
0000
0010
0002
0000
0203
0000
,
0301
0020
0000
0032
0000
1003
0100
0000
,
1000
0010
0000
0100
0002
0000
0023
0000
,
0031
1000
0001
1000
0001
1000
0001
1000
,
0010
0100
0001
0000
0011
0000
1100
0000
,
1000
0010
0000
0100
0001
0000
1001
0000
,
0010
1000
0100
0000
1010
0000
0101
0000
,
0010
0001
0000
1000
0100
0000
0110
0000
,
0001
0100
1000
0000
0101
0000
1100
0000
,
0010
0000
1010
0000
1000
0001
1000
0000
,
0100
0010
0000
1001
0000
0000
0110
0000
,
0010
0001
0000
0100
0001
0000
0101
0000
,
1010
0000
0001
2000
0000
0000
3010
1000
,
0100
0010
0001
0000
1100
0000
0110
0000
,
0001
0100
0010
0000
1000
0100
0001
0000
,
0011
1100
0101
1010
,
1001
0000
0000
0000
;

//---------------dance-single - ----------------
#NOTES:
     dance-single:
     :
     Hard:
     12:
     :
0000
0000
0000
0000
,
0000
0000
0000
0000
,
0000
0000
0000
0000
,
0000
0000
0000
0000
,
0000
0000
0000
0000
,
0000
0000
0000
0000
,
0000
0000
0000
0000
,
0000
0000
0000
0000
,
0001
0100
0100
0000
0010
0010
1000
0001
,
0000
1000
1000
0010
0100
0001
1000
0100
,
0000
0010
0010
0000
0001
1000
0100
0100
,
0000
1000
1000
0001
0001
1000
0100
0010
,
1002
0000
0103
0010
2010
0000
3001
1000
,
0010
0001
0010
1000
1200
0000
0301
0100
,
0120
0000
0031
1000
0102
0000
0013
0001
,
1000
0010
1000
0010
1000
0100
0010
0001
,
0100
0010
1001
0000
1000
1000
0010
0100
,
0000
0001
0011
0000
2100
0000
3010
0100
,
0001
1000
0110
0000
0010
0010
1000
0100
,
0000
1000
1000
0000
0001
0001
1000
0010
,
0200
0000
0301
1020
0000
1030
0100
0010
,
0001
0100
1000
0100
0001
0010
1000
0010
,
0001
1000
0100
0010
1000
0010
0001
0100
,
0010
1000
0100
0010
0001
0100
1000
0000
,
1001
0100
0001
0010
2000
0000
3100
0010
,
0001
0100
2010
0000
3010
1000
0001
0000
,
0001
0010
0100
1000
0201
0000
0310
0001
,
0100
0010
0210
0000
0301
0100
1000
0000
,
1010
0001
1000
0100
0020
0000
1030
0010
,
0001
0100
0012
0000
1003
0100
0010
0000
,
0001
1000
0010
0100
2100
0000
3100
0001
,
0010
0100
1002
0000
0013
0001
0100
0000
,
0001
0100
0010
1000
0102
0000
0013
0100
,
1000
0001
0120
0000
1030
0100
0001
0000
,
0010
0001
0100
0010
2000
0000
3100
0100
,
0000
0010
0010
0001
0001
1000
0001
0100
,
0010
1000
0010
0100
2001
0000
3001
1000
,
0100
0010
0001
0100
2010
0000
3010
1000
,
0100
0010
0001
0000
1200
0000
0301
0100
,
2000
0000
3010
0102
0000
0103
0001
0010
,
0001
1000
0110
0000
1000
1000
0100
0010
,
0000
0001
0101
0000
2100
0000
3100
1000
,
0010
0100
1010
0000
0001
0001
1000
0100
,
0000
0010
0010
0000
0001
0001
0100
0010
,
1200
0000
0310
0021
0000
0031
1000
0010
,
0100
1000
0100
0010
0100
0001
0010
0100
,
1000
0010
0100
1000
0100
0001
0010
0100
,
1000
0010
0100
0001
0000
2000
3001
0000
,
1000
2010
0000
0001
3002
0000
1003
0000
,
0010
1000
0100
0010
0001
0100
1000
0000
,
0010
0210
0000
0001
0302
0000
1003
0000
,
0100
0010
0001
0100
1000
0010
0001
0000
,
1000
1200
0000
0010
0320
0000
0031
0000
,
0010
1000
0010
0100
0010
0001
0100
0000
,
0001
1002
0000
0100
0203
0000
0310
0000
,
1000
0001
0010
1000
0100
0010
0001
0000
,
0100
0201
0000
0301
2000
0100
3100
0000
,
0010
0001
1000
0001
0010
0100
1000
0000
,
0010
0210
0000
0301
2000
0100
3100
0000
,
1000
0010
1000
0100
0001
0010
0001
0100
,
0010
1000
0102
0000
0013
0001
2100
0000
,
3001
0100
0010
0000
1000
0100
1000
0001
,
0010
0100
0012
0000
0103
0010
1020
0000
,
1030
0001
0100
0000
0010
1000
0100
0001
,
0100
1000
0120
0000
0031
0100
1002
0000
,
0013
0001
0011
0000
1010
0001
1000
0100
,
1000
0010
1000
1100
0000
0001
0001
0000
,
0100
0010
0000
0100
0001
1000
0001
0010
,
0012
0000
0103
0120
0000
1030
0001
1000
,
0010
0100
0010
0001
0010
1000
0100
0001
,
0100
0010
0001
0100
0010
1000
0100
0010
,
0001
0100
0010
0001
0010
1000
0100
0000
,
1001
0000
0000
0000
;
