#TITLE:Rather Be;
#ARTIST:Clean Bandit ft. Jess Glynne;
#BANNER:Rather Be-bn.png;
#BACKGROUND:Rather Be-bg.png;
#JACKET:Rather Be-jacket.png;
#MUSIC:Rather Be.ogg;
#OFFSET:1.488;
#SAMPLESTART:47.127;
#SAMPLELENGTH:20;
#LASTBEATHINT:0.968;
#DISPLAYBPM:121;
#BPMS:0=121;
#BGCHANGES:;

//---------------dance-single - ----------------
#NOTES:
     dance-single:
     :
     Beginner:
     3:
     :
0000
0000
0000
0000
,
0000
0000
0000
0000
,
0000
0000
0000
0000
,
0000
0000
0000
0000
,
0000
0000
0000
0000
,
0001
0000
1000
0000
,
0010
0000
0000
0000
,
1000
0000
0001
0000
,
0100
0000
0000
0000
,
0010
0000
1000
0000
,
0100
0000
0000
0000
,
0010
0000
0001
0000
,
0100
0000
0000
0000
,
0001
0000
0001
0000
,
0001
0000
0000
0000
,
1000
0000
1000
0000
,
1000
0000
0000
0000
,
0000
0000
0010
0010
,
0000
0000
0100
0100
,
0000
0001
0000
1000
,
0000
0000
0000
0000
,
0000
1000
1000
0000
,
0000
0000
0001
0001
,
0000
0010
0000
0100
,
0000
0000
1001
0000
,
1000
0000
0010
0000
,
0100
0000
0001
0000
,
1000
0000
0100
0000
,
0010
0000
0001
0000
,
0100
0000
0010
0000
,
1000
0000
0001
0000
,
0100
0000
0100
0000
,
0010
0000
0010
0000
,
1000
0000
1001
0000
,
0001
0000
0100
0000
,
0010
0000
0110
0000
,
1000
0000
0001
0000
,
0100
0000
0110
0000
,
0010
0000
1000
0000
,
0001
0000
0000
0000
,
1000
0000
0000
0000
,
0010
0000
0010
0000
,
1000
0000
1000
0000
,
0001
0000
0001
0000
,
0100
0000
0100
0000
,
0010
0000
0100
0000
,
0001
0000
1000
0000
,
0010
0000
0010
0000
,
1000
1000
1000
0000
,
0001
0000
0100
0000
,
0001
0000
1000
0000
,
0010
0000
1000
0000
,
0100
0000
0010
0000
,
0100
0000
1000
0000
,
0001
0000
0010
0000
,
0001
0000
0001
0000
,
1000
0000
1000
0000
,
0010
0000
0110
0000
,
0100
0000
0110
0000
,
0001
0000
1001
0000
,
0100
0000
1001
0000
,
0010
0000
1001
0000
,
0100
0000
0110
0000
,
0001
0000
0000
0000
,
1000
0000
0000
0000
,
0010
0000
0000
0000
;

//---------------dance-single - ----------------
#NOTES:
     dance-single:
     :
     Easy:
     7:
     :
0000
0000
0000
0000
,
0000
0000
0000
0000
,
0000
0000
0000
0000
,
0000
0000
0000
0000
,
0000
0000
0000
0000
,
0010
1000
0010
0100
,
0001
0010
0100
0100
,
1000
0010
1000
0001
,
0100
0100
0010
1000
,
0001
0010
0001
0010
,
0100
0010
0001
0100
,
0010
1000
0001
0010
,
0001
1000
0100
1000
,
0010
1000
0010
1000
,
0100
0010
0100
1000
,
0001
0010
0001
0100
,
0010
1000
0100
0010
,
0001
2001
0010
3100
,
1000
1002
0010
0103
,
0001
0001
1000
1000
,
0010
1000
0100
0001
,
1000
1002
0100
0013
,
0001
1002
0100
0013
,
1000
0010
0100
0001
,
0010
0100
1001
1001
,
0010
1000
0100
0001
,
1000
0100
0110
0110
,
0001
0010
0001
0100
,
0010
1000
1100
1100
,
0010
1000
0100
0001
,
1000
0010
0101
0101
,
0010
0010
0100
0100
,
1000
0001
1000
0001
,
1000
0010
0101
0000
,
0010
0001
0100
0100
,
0010
1000
1010
0000
,
1000
0100
0010
0010
,
0001
1000
1001
0010
,
0100
0001
1000
1000
,
0020
0030
2000
3000
,
0002
0003
0100
0010
,
1000
0100
1000
0000
,
0001
0100
0001
0001
,
0100
0010
0100
0000
,
0001
1000
0001
0001
,
0010
0100
1000
0110
,
0001
0100
0001
1001
,
0020
0000
0200
0330
,
0010
0100
0110
0110
,
0001
0010
1000
0100
,
1000
0010
1001
1001
,
0010
0001
0010
0100
,
1000
0001
0011
0011
,
0100
0001
0010
0100
,
1000
0010
1010
1010
,
0010
0010
0100
0100
,
1000
0001
1000
0001
,
0010
0001
0101
0000
,
0001
0010
1000
1000
,
0010
0100
0110
0000
,
0001
0010
0100
0100
,
1000
0001
1010
0100
,
0001
0010
0100
0100
,
2000
3000
0020
0030
,
0200
0300
0001
1000
,
0010
0000
0000
0000
;

//---------------dance-single - ----------------
#NOTES:
     dance-single:
     :
     Medium:
     10:
     :
0000
0000
0000
0000
,
0000
0000
0000
0000
,
0000
0000
0000
0000
,
0000
0000
0000
0000
,
0000
0000
0000
0000
,
0010
0000
0000
1000
0000
0000
0001
0000
0001
0000
0000
0000
0100
0000
0000
0000
,
0001
0000
0000
0010
0000
0000
0100
0000
0100
0000
0000
0000
1000
0000
0000
0000
,
0010
0000
0000
0100
0000
0000
0001
0000
1000
0000
0000
0000
0000
0000
0000
0000
,
0001
0010
0001
0010
0100
1000
0100
1000
,
0010
0000
1000
0000
0001
0000
1000
0100
,
0010
0100
1000
0001
0001
0000
0100
0010
,
1000
0000
0100
0000
0010
0000
0100
1000
,
0001
0000
0000
1000
0000
0000
0100
0000
0100
0000
0000
0000
0010
0000
0001
0000
,
0100
0000
0001
0000
0010
0000
0001
1000
,
0010
0000
0000
0100
0000
0000
0001
0000
0001
0000
0000
0000
1000
0000
0000
0000
,
0010
0000
0000
0010
0000
0000
0010
0000
1000
0000
0000
0001
0000
0000
1000
0000
,
0010
0100
0010
0100
0001
1000
0001
1000
,
0000
0001
0100
1000
0001
0010
1000
0000
,
0000
0010
1000
0100
1100
0000
0101
0000
,
0010
0000
0000
0001
0000
0000
1000
0000
0010
0000
0000
1000
0000
0000
0001
0000
,
0000
0000
0010
0000
0100
0000
1000
0000
0000
0000
1010
0000
0000
0011
0000
0000
,
0000
1000
0001
0100
0020
0000
0230
0000
,
0300
1000
0010
0000
1100
0000
0011
0000
,
0001
0000
0000
0010
0000
0000
0001
0000
1000
0000
0000
0010
0000
0000
1000
0000
,
0000
0100
0010
0000
1001
0000
1001
0000
,
0010
0000
0000
1000
0000
0000
0002
0000
0000
0000
0013
0000
0100
0000
1000
0000
,
0000
0101
0000
1000
0002
0000
0203
0000
,
0301
0000
0000
1000
0000
0000
0020
0000
0000
0000
1030
0000
0100
0000
0010
0000
,
0000
0110
0000
0001
2000
0000
3002
0000
,
1003
0000
0000
0001
0000
0000
2000
0000
0000
0000
3010
0000
0100
0000
0001
0000
,
0000
0000
0011
0000
0000
0101
0000
0000
2000
0000
0000
0000
3020
0000
0000
0000
,
0130
0000
0000
0100
0000
0000
0100
0000
0010
0000
0000
0010
0000
0000
0010
0000
,
1000
0000
0000
1000
0000
0000
1000
0000
0001
0000
0000
0001
0000
0000
0001
0000
,
1000
0010
0001
0100
0000
1001
0000
0000
,
1000
0001
0200
0000
0320
0000
2030
0000
,
3001
1000
0100
0010
0000
0011
0000
0000
,
0100
0001
2000
0000
3002
0000
0023
0000
,
0031
0100
0010
1000
0000
1100
0000
0000
,
0010
1000
0200
0000
0320
0000
0032
0000
,
1003
1000
0001
0001
,
0100
0000
0010
0000
0100
0010
1000
0000
,
1000
0000
0000
0001
0000
0000
0100
0000
0100
0000
0000
0000
0000
0000
0000
0000
,
0001
0000
0000
0010
0000
0000
1000
0000
1000
0000
0000
0000
0100
0000
0000
0000
,
0010
0000
0000
0001
0000
0000
0100
0000
0100
0000
0000
0000
0000
0000
0010
0000
,
1000
0000
0000
0001
0000
0000
0010
0000
0010
0000
0000
0000
0100
0000
0000
0000
,
1000
0000
0000
0010
0000
0000
0100
0000
0100
0000
0000
0000
0001
0000
0000
0000
,
0010
0000
0000
0001
0000
0000
1000
0000
1000
0000
0000
0000
0100
0000
0000
0000
,
2000
0000
3010
0100
0002
0000
0013
0100
,
2000
0000
3002
0000
0103
0010
1001
0000
,
0001
0000
0000
0010
0000
0000
0200
0000
0000
0000
0310
0000
0001
0000
1000
0000
,
0000
1010
0000
1000
0200
0000
0320
0000
,
0031
0000
0000
0100
0000
0000
0002
0000
0000
0000
0013
0000
0100
0000
1000
0000
,
0000
0011
0000
0100
0020
0000
2030
0000
,
3001
0000
0000
1000
0000
0000
0020
0000
0000
0000
0130
0000
0010
0000
1000
0000
,
0000
0000
1100
0000
0000
0101
0000
0000
2000
0000
0000
0000
3002
0000
0000
0000
,
0013
0000
0000
0010
0000
0000
0010
0000
0100
0000
0000
0100
0000
0000
0100
0000
,
1000
0000
0000
1000
0000
0000
1000
0000
0001
0000
0000
0001
0000
0000
0001
0000
,
1000
0001
0010
0100
0000
0110
0000
0000
,
0010
0001
0101
0000
1010
0000
1100
0000
,
0001
1000
0100
0010
0000
0011
0000
0000
,
0100
0001
0011
0000
0110
0000
1100
0000
,
0001
0010
0100
1000
0000
1001
0000
0000
,
0010
0100
0101
0000
1100
0000
0011
0000
,
1000
1000
0001
0001
,
0100
0000
0010
0000
0100
0010
0100
0000
,
0020
0000
0000
0030
;

//---------------dance-single - ----------------
#NOTES:
     dance-single:
     :
     Hard:
     12:
     :
0000
0000
0000
0000
,
0000
0000
0000
0000
,
0000
0000
0000
0000
,
0000
0000
0000
0000
,
0000
0000
0000
0000
,
0010
1000
0010
1000
0000
0000
0001
0000
0001
0000
0000
0000
0100
0000
0000
0000
,
0001
0010
0001
0010
0000
0000
0100
0000
0100
0000
0000
0000
1000
0000
0000
0000
,
0001
0000
0000
0010
0000
0000
0001
0000
1000
0000
0010
0000
1000
0000
0100
0000
,
1000
0000
0010
0000
0100
0001
0000
0010
0000
0001
0000
1000
0000
0000
0100
0000
,
0010
0001
0100
0001
0010
0001
0100
0001
,
1000
0100
1000
0100
0000
0000
0010
0000
0010
0000
0000
0000
0001
0000
0100
0000
,
0010
1000
0100
1000
0010
1000
0100
1000
,
0001
0100
0001
0100
0000
0000
0010
0000
0010
0000
0000
0000
1000
0000
0001
0000
,
1000
0100
0001
0100
0010
0100
0001
0100
,
1000
0001
1000
0001
0000
0000
0100
0000
0100
0000
0000
0000
0010
0000
0000
0000
,
1000
0000
0000
0100
0000
0000
1000
0000
0001
0000
0000
0100
0000
0010
1000
0000
,
0001
0000
0010
0000
0100
1000
0000
0010
0000
0100
0000
0001
0000
0000
1000
0000
,
0001
0100
0100
0010
0010
1000
1000
0000
,
0100
0000
0010
0000
0010
0000
0001
0000
0001
0000
0000
1000
0100
0000
0000
0000
,
1000
0000
0000
0010
0100
0000
0001
0000
0010
0000
0000
0100
1000
0000
0001
0000
,
0100
0010
0100
0010
0000
0000
1000
0000
0001
0000
0100
0000
0000
0010
0000
0000
,
0100
0000
0001
0000
0001
0000
1000
0000
1000
0000
0000
0010
0100
0000
0000
0000
,
0001
0000
1000
0000
1000
0000
0000
0010
0100
0000
0000
0001
1000
0000
0000
0000
,
0001
0000
0000
0010
0000
0000
0100
0000
1000
0000
0000
0001
0000
0000
1000
0000
,
0001
0100
0001
0100
0000
0000
0010
0000
1001
0000
0000
0000
1001
0000
0000
0000
,
1000
0100
1000
0100
0000
0000
0010
0000
0010
0000
0001
0000
1000
0000
0001
0000
,
0100
1000
0100
0001
0200
0010
0320
0000
,
1030
0010
1000
0010
0000
0000
0100
0000
0100
0000
1000
0000
0100
0000
0001
0000
,
0010
1000
0010
0001
2000
0100
3200
0000
,
0310
0001
0010
0001
0000
0000
1000
0000
1000
0000
0100
0000
0001
0000
0100
0000
,
1000
0001
1000
0001
0000
0010
0100
0000
0020
0000
0001
0000
0032
0000
0000
0000
,
0103
0000
0000
0010
1000
0000
0001
0000
0010
0000
0000
0100
1000
0000
0001
0000
,
1000
0000
0000
0010
0100
0000
0001
0000
0001
0000
0000
1000
0010
0000
0100
0000
,
0001
0000
0010
0100
0010
0000
0011
0000
0000
0000
1100
0000
0001
0000
0000
0000
,
1000
0000
0010
0000
0100
0000
0000
0001
1000
0000
0000
0001
0100
0000
0000
0000
,
0010
0000
1000
0001
1000
0000
1010
0000
0000
0000
0101
0000
0010
0000
0000
0000
,
1000
0000
0100
0000
0001
0000
0000
0010
0001
0000
0000
0100
0010
0000
0000
0000
,
1000
0000
0010
0100
0010
0000
1010
0000
0000
0000
0011
0000
0100
0000
0000
0000
,
1000
0000
0010
0000
0100
0000
0000
0001
1000
0000
0000
0001
0100
0000
0000
0000
,
0010
0000
0000
1000
0000
0000
0100
0000
0010
0000
0000
0001
0000
0000
0100
0000
,
0001
0000
0000
1000
0000
0000
0010
0000
1000
0000
0100
0000
0002
0000
0000
0000
,
0013
0100
0010
0100
0000
0000
1000
0000
1000
0000
0000
0000
0000
0000
0000
0000
,
0010
0100
0010
0100
0000
0000
0001
0000
0001
0000
0000
0000
1000
0000
0000
0000
,
0001
0010
0001
0010
0000
0000
0100
0000
0100
0000
0000
0000
0000
0000
0000
0000
,
1000
0010
1000
0010
0000
0000
0100
0000
0100
0000
0000
0000
0010
0000
0000
0000
,
1000
0000
0000
0100
0000
0000
1000
0000
0000
0001
0000
0000
0100
0000
0000
0010
,
0000
0000
1000
0000
0000
0001
0000
0000
0100
0010
0100
0000
0001
0000
0000
0000
,
0020
0001
0031
0100
0020
1000
1030
0100
,
0010
1000
0100
0001
0100
1000
0002
0010
,
0013
0001
0010
0001
0000
0000
1000
0000
1000
0000
0100
0000
1000
0000
0001
0000
,
0100
1000
0100
0001
0100
0010
1000
0000
,
0010
1000
0010
1000
0000
0000
0001
0000
0001
0000
0100
0000
0010
0000
0100
0000
,
1000
0100
0001
0100
1000
0100
0010
0000
,
1000
0001
1000
0001
0000
0000
0010
0000
0010
0000
1000
0000
0010
0000
0100
0000
,
0010
0001
1000
0001
1000
0100
0100
0000
,
1000
0000
0000
0100
0010
0000
0001
0000
0100
0000
0000
0010
1000
0000
0001
0000
,
0010
0000
0000
0001
1000
0000
0100
0000
1000
0000
0000
0010
0100
0000
0001
0000
,
0010
0000
0001
1000
0001
0000
0101
0000
0000
0000
1100
0000
0010
0000
0000
0000
,
1000
0000
0001
0000
0100
0000
0000
0100
0010
0000
0000
1000
0001
0000
0000
0000
,
0100
0000
0010
1000
0010
0000
0110
0000
0000
0000
1001
0000
0100
0000
0000
0000
,
0001
0000
0010
0000
1000
0000
0000
0001
1000
0000
0000
0010
0100
0000
0000
0000
,
0001
0000
1000
0100
1000
0000
1001
0000
0000
0000
0110
0000
0001
0000
0000
0000
,
0010
0000
0001
0000
0100
0000
0000
0010
1000
0000
0000
0001
1000
0000
0000
0000
,
0010
0000
0000
1000
0000
0000
0100
0000
0010
0000
0000
0001
0000
0000
0100
0000
,
0001
0000
0000
1000
0000
0000
0010
0000
1000
0000
0100
0000
0002
0000
0000
0000
,
0020
0000
0000
0033
;

//---------------dance-single - ----------------
#NOTES:
     dance-single:
     :
     Challenge:
     16:
     :
0000
0000
0000
0000
,
0000
0000
0000
0000
,
0000
0000
0000
0000
,
0000
0000
0000
0000
,
0000
0000
0000
0000
,
0010
1000
0010
1000
0100
0000
0001
0000
0001
0000
0000
0000
0100
0000
0010
0000
,
1000
0100
1000
0100
0000
0000
0010
0000
0010
0000
0000
0000
0001
0000
1000
0000
,
0001
0010
0001
0010
0000
0100
1000
0100
1000
0000
0010
0000
0100
0000
0001
0000
,
1000
0100
0010
0100
0010
0001
0000
1000
0000
0001
0000
1000
0000
0000
0100
0000
,
1000
0010
1000
0010
0100
0000
0001
0000
0001
0000
0010
0000
0001
0000
0100
0000
,
0010
1000
0010
1000
0001
0000
0100
0000
0100
0000
0010
0000
0100
0000
0001
0000
,
0010
0100
0010
0100
1000
0000
0001
0000
1000
0000
0100
0000
0010
0001
0010
0001
,
1000
0001
1000
0001
0010
0000
0100
0000
1000
0000
0010
0000
0100
0000
0001
0000
,
0100
0010
0100
0010
1000
0000
0001
0000
0010
0000
0001
0000
1000
0000
0100
0000
,
0010
0001
0010
0001
1000
0000
0001
0000
0100
0000
0010
0000
0100
0000
1000
0000
,
0100
0001
0100
0001
0010
0100
0010
0001
1000
0000
0001
1000
0000
1000
0010
0000
,
1000
0100
0010
0100
0010
0001
0000
1000
0000
0001
0000
1000
0010
0000
0100
0000
,
0001
0000
0000
0000
0000
0000
0000
0000
0000
0000
0000
0000
0000
0000
0000
0000
0000
0000
0000
0000
0000
0000
0000
0000
1000
0000
0000
0000
0000
0000
0000
0000
0010
0000
0000
0000
0000
0000
0000
0000
1000
0000
0000
0000
0000
0000
0000
0000
0010
0000
0000
0000
0000
0000
0000
0000
0000
0000
0000
0000
0000
0000
0000
0000
0000
0000
0000
0000
0000
0000
0000
0000
0100
0000
0000
0000
0000
0000
0000
0000
0000
0000
0000
0000
0000
0000
0000
0000
0000
0000
0000
0000
0000
0000
0000
0000
0001
0000
0000
0000
0000
0000
0000
0000
0000
0000
0000
0000
0000
0000
0000
0000
0000
0000
0000
0000
0000
0000
0000
0000
1000
0000
0000
0000
0000
0000
0000
0000
0000
0000
0000
0000
0010
0000
0000
0000
0000
0000
0100
0000
0000
0000
0000
0000
0010
0000
0000
0000
0000
0000
0000
0000
0000
0000
0000
0000
0000
0000
0000
0000
0000
0000
0000
0000
0000
0000
0000
0000
0000
0000
0000
0000
0000
0000
0000
0000
0000
0000
0000
0000
0000
0000
0000
0000
0000
0000
0000
0000
0000
0000
0000
0000
,
1000
0000
0000
0000
0000
0000
0000
0000
0000
0000
0000
0000
0000
0000
0000
0000
0000
0000
0000
0000
0000
0000
0000
0000
0100
0000
0000
0000
0000
0000
0000
0000
0010
0000
0000
0000
0000
0000
0000
0000
0100
0000
0000
0000
0000
0000
0000
0000
0010
0000
0000
0000
0000
0000
0000
0000
0000
0000
0000
0000
0000
0000
0000
0000
0000
0000
0000
0000
0000
0000
0000
0000
0001
0000
0000
0000
0000
0000
0000
0000
0000
0000
0000
0000
0000
0000
0000
0000
0000
0000
0000
0000
0000
0000
0000
0000
1000
0000
0000
0000
0000
0000
0000
0000
0000
0000
0000
0000
0000
0000
0000
0000
0000
0000
0000
0000
0000
0000
0000
0000
0001
0000
0000
0000
0000
0000
0000
0000
0000
0000
0000
0000
0100
0000
0000
0000
0000
0000
0010
0000
0000
0000
0000
0000
0100
0000
0000
0000
0000
0000
0000
0000
0000
0000
0000
0000
0000
0000
0000
0000
0000
0000
0000
0000
0000
0000
0000
0000
0000
0000
0000
0000
0000
0000
0000
0000
0000
0000
0000
0000
0000
0000
0000
0000
0000
0000
0000
0000
0000
0000
0000
0000
,
0001
0000
0000
0010
0000
0100
1000
0000
0000
0010
0000
1000
0001
0000
0000
0100
0010
0100
0010
0000
0000
1000
0000
0000
,
0001
0000
0000
1000
0000
0000
0010
0000
0100
0000
0010
0000
0100
0000
0000
0000
0000
0000
0001
0000
0000
1000
0000
0000
0001
0000
0000
0000
0000
0000
0011
0000
0000
0000
0000
0000
0000
0000
0000
1100
0000
0000
0000
0000
0000
0000
0000
0000
,
0001
0000
0000
0000
0000
0000
0000
0000
0000
0000
0000
0000
0000
0000
0000
0000
0000
0000
0000
0000
0000
0000
0000
0000
0100
0000
0000
0000
0000
0000
0000
0000
0001
0000
0000
0000
0000
0000
0000
0000
0100
0000
0000
0000
0000
0000
0000
0000
0001
0000
0000
0000
0000
0000
0000
0000
0000
0000
0000
0000
0000
0000
0000
0000
0000
0000
0000
0000
0000
0000
0000
0000
0010
0000
0000
0000
0000
0000
0000
0000
0000
0000
0000
0000
0100
0000
0000
0000
0000
0000
0000
0000
0000
0000
0000
0000
1000
0000
0000
0000
0000
0000
0000
0000
0000
0000
0000
0000
0000
0000
0000
0000
0000
0000
0000
0000
0000
0000
0000
0000
0000
0000
0000
0000
0000
0000
0000
0000
0000
0000
0000
0000
0001
0000
0000
0000
0000
0000
0100
0000
0000
0000
0000
0000
0001
0000
0000
0000
0000
0000
0000
0000
0000
0000
0000
0000
1000
0000
0000
0000
0000
0000
0000
0000
0000
0000
0000
0000
0010
0000
0000
0000
0000
0000
0000
0000
0000
0000
0000
0000
1000
0000
0000
0000
0000
0000
0000
0000
0000
0000
0000
0000
,
0100
0000
0000
0010
0000
0000
0001
0000
0000
0010
0000
0000
0100
0000
0000
0000
0000
0000
0000
0000
0000
1000
0000
0000
0001
0000
0000
0000
0000
0000
0100
0000
0000
0000
0010
0000
0100
0000
0000
0000
0000
0000
0001
0000
0000
0000
0000
0000
,
1000
0000
0000
0000
0000
0000
0010
0100
0010
0000
0000
0000
1000
0000
0000
0000
0001
0000
0000
0000
0010
0000
0001
0000
0100
0000
0000
0000
0001
0000
0000
0000
,
1000
0000
0000
0010
0000
0000
0100
0000
0001
0000
0100
0000
0001
0000
0000
0000
0000
0000
1000
0000
0000
0000
0000
0000
1001
0000
0000
0000
0000
0000
0000
0000
0000
0000
0000
0000
1001
0000
0000
0000
0000
0000
0000
0000
0000
0000
0000
0000
,
0010
1000
0010
1000
0000
0000
0001
0000
0001
0000
0100
0000
0010
0000
0100
0000
,
0001
0010
0001
0010
0100
0000
1000
0000
1000
0000
0001
0000
1000
0000
0000
0000
,
1000
0001
1000
0001
0100
0000
0010
0000
0010
0000
1000
0000
0100
0010
0100
0010
,
0001
0100
0001
0100
0010
0000
1000
0000
0100
0000
0010
0000
0001
0000
0000
0000
,
0100
0001
0100
0001
1000
0000
0010
0000
0010
0000
0100
0000
0001
0000
1000
0010
,
1000
0100
1000
0100
0010
0000
0001
0000
0100
0001
0010
0000
0001
1000
0010
0000
,
0100
0001
0100
0001
0000
1000
0010
1000
0010
0000
0000
0100
0010
1000
0010
0100
,
0001
0010
0100
0010
0100
1000
0001
1000
0010
0100
0001
0100
0010
0000
1000
0000
,
0001
0010
0100
0010
0001
0000
1100
0000
1000
0000
0101
0000
0010
0000
0000
0000
,
1000
0100
0010
0100
1000
0000
0001
0100
0001
0000
0000
0010
0001
1000
0010
0000
,
0100
0001
0010
0001
0100
0000
1010
0000
0001
0000
1100
0000
1000
0010
1000
0010
,
0100
0001
0010
0001
0100
0000
0010
1000
0001
0000
1000
0100
0010
0000
0001
0000
,
0010
0100
0010
0001
1000
0000
0110
0000
0001
0000
1100
0000
1000
0000
0100
0000
,
1000
0010
0100
0001
0010
0000
0001
1000
0001
0000
0100
0010
1000
0000
0000
0000
,
0001
0000
0000
1000
0000
0000
0100
0000
1000
0000
0000
0001
0000
0000
0100
0000
,
0001
0000
0000
0000
0000
0000
0010
0000
0000
0000
0000
0000
0100
0000
0000
0000
1000
0000
0000
0000
0010
0000
0000
0000
1000
0000
0000
0000
0000
0000
0001
0100
,
0001
1000
0001
1000
0000
0000
0010
0000
0010
0000
1000
0000
0100
0000
0000
0000
,
1000
0010
1000
0010
0000
0000
0100
0000
0100
0000
0000
0000
0001
0000
0000
0000
,
0010
0001
0010
0001
0000
0000
1000
0000
1000
0000
0010
0000
0000
0100
0001
0100
,
0001
0010
0001
0010
0000
0000
0100
0000
0100
0000
0000
0000
1000
0000
0000
0000
,
0010
0100
0001
1000
0000
1000
0100
1000
0001
0100
0001
0000
0011
0000
0000
0000
,
0100
0001
1000
0100
0000
1000
0010
1000
0001
0010
0001
0000
1100
0000
0000
0000
,
1001
0010
1000
0001
0110
0001
1000
0100
,
0011
0000
1010
0000
1100
0000
0101
0000
1000
0100
0010
0001
0010
0100
1000
0000
,
0001
0100
0010
0100
0001
0000
1000
0000
1000
0000
0010
0000
0100
0000
0001
0000
,
0010
0100
0010
0100
1000
0000
0001
0000
1000
0100
1000
0000
0001
0010
0001
0000
,
1000
0001
1000
0001
0010
0000
0100
0000
0100
0000
0010
0000
0001
0100
0010
1000
,
0100
0010
0100
0010
0001
0000
1000
0000
0001
0100
0010
0000
1000
0100
1000
0000
,
0001
1000
0001
1000
0100
0000
0010
0000
0001
0100
0001
0000
1000
0010
1000
0000
,
0100
0010
0100
0010
0001
0100
0010
1000
0001
0100
0010
0000
1000
0000
0000
0000
,
0001
0100
0001
0100
0000
0010
1000
0010
1000
0000
0000
0001
1000
0010
0100
0000
,
0001
1000
0001
0010
0001
0100
0001
0010
0100
1000
0000
0010
1000
0001
1000
0000
,
0010
1000
0010
0100
0001
0000
0011
0000
0100
0000
1010
0000
0001
0000
0000
0000
,
1000
0010
1000
0100
0010
0000
0001
0100
0001
0000
0010
0001
1000
0000
0100
0000
,
0010
1000
0010
0001
0100
0000
0101
0000
1000
0000
1100
0000
0001
0100
0010
0100
,
0001
0010
0100
0010
0001
0000
1000
0100
1000
0000
0010
0100
0001
0000
1000
0000
,
0100
1000
0001
0010
0100
0000
1001
0000
0010
0000
0110
0000
0001
0000
1000
0000
,
0100
0010
0001
0100
0010
0000
1000
0001
1000
0000
0010
0100
0010
1000
0001
0000
,
1000
0010
0100
0001
0000
1000
0100
0010
0001
0000
0000
1000
0000
0000
0001
0000
,
0100
0000
0000
0000
0000
0000
0010
0000
0000
0000
0000
0000
1000
0000
0000
0000
0001
0000
0000
0000
0100
0000
0000
0000
0001
0000
0000
0000
0000
0000
0010
0200
,
0020
0000
0000
0330
;
