#TITLE:Radio Ga Ga;
#ARTIST:Queen;
#BANNER:Radio Ga Ga-bn.png;
#BACKGROUND:Radio Ga Ga-bg.png;
#JACKET:Radio Ga Ga-jacket.png;
#MUSIC:Radio Ga Ga.ogg;
#SAMPLESTART:74.456;
#SAMPLELENGTH:20;
#DISPLAYBPM:111:114;
#BPMS:0=112.2,32=114,36=112,44=113,56=112.34,64=112.6,68=111,72=113.4,80=112.456,84=112.018,92=112.5,104=112.12,108=111.5,112=112.25,116=112.9,120=111.111,124=113.05,132=112.47,136=111.89,140=113,144=112,148=112.3,156=111.7,172=112.13,196=112.34,204=112.65,212=112.2;
#BGCHANGES:;

//---------------dance-single - ----------------
#NOTES:
     dance-single:
     :
     Beginner:
     2:
     :
0000
0000
0000
0000
,
0000
0000
0000
0000
,
0000
0000
0000
0000
,
0000
0000
0000
0000
,
0000
0000
0000
0000
,
0000
0000
0000
0000
,
0000
0000
0000
0000
,
0001
0000
1000
0000
,
0010
0000
0100
0000
,
0001
0000
0000
0000
,
0010
0000
0000
0000
,
0100
0000
0000
0000
,
1000
0000
0000
0000
,
0010
0000
0000
0000
,
1000
0000
0000
0000
,
0001
0000
0000
0000
,
0100
0000
0010
0000
,
0000
0000
0000
0000
,
1000
0000
0000
0000
,
0100
0000
0000
0000
,
0010
0000
0000
0000
,
0001
0000
0000
0000
,
1000
0000
0000
0000
,
0001
0000
0000
0000
,
0010
0000
0000
0000
,
0001
0000
1000
0000
,
0010
0000
0100
0000
,
0001
0000
0001
0000
,
0100
0000
0100
0000
,
0010
0000
0010
0000
,
1000
0000
1000
0000
,
0100
0000
0100
0000
,
0010
0000
0010
0000
,
0001
0000
0001
0000
,
1000
0000
1000
0000
,
0001
0000
0010
0000
,
0001
0000
1000
0000
,
0010
0000
0100
0000
,
0010
0000
1000
0000
,
0001
0000
1000
0000
,
0010
0000
0100
0000
,
0110
0000
0000
0001
,
0000
0000
0000
1000
,
0000
0000
0000
0100
,
0000
0000
0000
0010
,
0000
0000
0000
0001
,
0000
0000
0000
1000
,
0000
0000
0000
0010
,
0010
0000
0000
0000
,
1000
0000
0001
0000
,
0200
0000
0300
0000
,
0010
0000
1000
0000
,
0001
0000
0100
0000
,
2002
0000
0000
0000
,
0000
0000
3003
0000
;

//---------------dance-single - ----------------
#NOTES:
     dance-single:
     :
     Easy:
     6:
     :
0000
0000
0000
0000
,
0000
0000
0000
0000
,
0000
0000
0000
0000
,
0000
0000
0000
0000
,
0000
0000
0000
0000
,
0000
0000
0000
0000
,
0000
0000
0000
0000
,
2020
3030
0202
0303
,
0022
0033
2200
3300
,
0010
1000
0100
0000
,
0010
0001
0100
0000
,
0001
0010
1000
0000
,
0100
0010
0001
0000
,
1001
0100
1000
0000
,
0110
0001
0100
0000
,
0010
1000
0001
0100
,
0001
0010
1000
0000
,
0010
0000
0100
0000
,
0001
0010
0001
0000
,
0100
0010
1000
0000
,
0100
0010
0001
0000
,
1000
0001
0100
0000
,
0110
0010
1000
0000
,
1001
0100
0001
0000
,
0010
0001
0100
1000
,
0010
1000
0001
0000
,
0022
0033
2200
3300
,
0101
0100
0010
0000
,
1010
1000
0001
0000
,
1001
0010
0100
0000
,
0110
0001
1000
0000
,
1100
0001
0010
0000
,
0101
0010
1000
0000
,
1010
0100
0010
0000
,
0011
1000
0001
0000
,
0020
0001
0130
0000
,
2000
0001
3010
0000
,
0002
0100
1003
0000
,
0200
0010
1300
0000
,
2020
3030
0202
0303
,
2200
3300
0022
0033
,
0020
0000
0000
0000
0030
0000
0001
0001
,
1000
0000
0000
0010
0000
0000
0100
0100
,
0001
0000
0000
1000
0000
0000
0010
0010
,
0100
0000
0000
0010
0000
0000
1000
1000
,
0200
0000
0000
0000
0300
0000
0010
0010
,
0001
0000
0000
0100
0000
0000
0001
0001
,
0010
0000
0000
0100
0000
0000
1000
1000
,
0001
0100
0010
1000
,
2020
3030
0202
0303
,
1000
0001
0100
0000
,
0202
0303
2200
3300
,
2020
3030
0022
0033
,
2002
0000
0000
0000
3000
0000
1000
1000
,
1003
0000
0110
0000
;

//---------------dance-single - ----------------
#NOTES:
     dance-single:
     :
     Medium:
     8:
     :
0000
0000
0000
0000
,
0000
0000
0000
0000
,
0000
0000
0000
0000
,
0000
0000
0000
0000
,
0000
0000
0000
0000
,
0000
0000
0000
0000
,
0000
0000
0000
0000
,
0002
0000
0000
1000
2000
0000
3003
0000
,
0020
0000
0000
0100
0200
0000
0330
0001
,
1000
0000
0000
0100
0000
0000
0010
0000
0000
0000
0000
0000
0000
0000
0001
0000
,
0100
0000
0000
0010
0000
0000
1000
0000
0000
0000
0000
0000
0000
0000
0001
0000
,
0010
0000
0000
0001
0000
0000
0100
0000
0000
0000
0000
0000
0000
0000
1000
0000
,
0010
0100
0000
0110
0000
0000
0000
0001
,
0020
0000
0031
1000
0000
0000
0000
0100
,
2000
0000
3001
0100
0000
0000
0000
0010
,
0200
0000
0301
1000
0000
0001
0100
0000
,
1001
0000
1000
0001
0200
0000
0300
0000
,
0010
0000
1000
0000
0100
0000
0001
1000
,
0010
0000
0000
1000
0000
0000
0001
0000
0000
0000
0000
0000
0000
0000
0100
0000
,
0001
0000
0000
1000
0000
0000
0100
0000
0000
0000
0000
0000
0000
0000
0010
0000
,
0001
0000
0100
0010
0000
0000
0000
1000
,
0100
0000
1000
0001
0000
0000
0000
0010
,
0002
0000
1003
0100
0000
0000
0000
0010
,
0200
0000
0310
0001
0000
0000
0000
1000
,
0010
1000
0000
1100
0000
0000
0000
0001
,
0020
0000
0031
1000
0200
0000
0300
0000
,
0011
0000
0000
2000
0002
0000
3003
0100
,
0010
0000
0000
0010
0000
0000
0010
0000
0000
0000
0000
0000
0000
0000
1000
0000
,
0001
0000
0000
0001
0000
0000
0001
0000
0000
0000
0000
0000
0000
0000
0010
0000
,
0100
0000
0000
0100
0000
0000
0100
0000
0000
0000
0000
0000
0000
0000
1000
0002
,
0000
0000
0103
0010
2000
0000
3000
0100
,
1000
0000
0000
1000
0000
0000
1000
0000
0000
0000
0000
0000
0000
0000
0001
0000
,
0100
0000
0000
0100
0000
0000
0100
0000
0000
0000
0000
0000
0000
0000
0001
0000
,
0010
0000
0000
0010
0000
0000
0010
0000
0000
0000
0000
0000
0000
0000
0100
0000
,
1000
0000
0000
0001
0000
0000
1000
0000
0000
0000
0000
0000
0000
0000
0010
0000
,
2000
0000
3001
0002
0000
0000
0003
0010
,
0002
0000
0103
0200
0000
0000
0300
0010
,
2000
0000
3010
0020
0000
0000
0030
0100
,
0020
0000
0130
0200
0000
0000
0300
0000
,
0002
0000
0000
1000
2000
0000
3003
0000
,
0020
0000
0000
0100
0200
0000
0330
0000
,
0110
0000
1000
0001
0000
0100
0000
0000
,
0001
0010
0100
1000
0001
0000
0000
0000
,
0100
0010
1000
0001
0100
0000
0000
0000
,
0010
1000
0100
0010
0001
0000
0000
0000
,
1001
0000
1000
0010
0000
0100
0000
0000
,
0001
1000
0100
0010
0001
0000
0000
0000
,
0100
0000
0010
0000
1000
0000
0001
0000
0000
0001
0000
0000
0000
0000
0000
0000
,
0020
0000
0031
1000
0000
0001
0000
0100
,
0020
1030
0002
0103
,
2001
0000
3001
0100
0000
0000
0000
0000
,
1020
0130
0102
0013
,
0012
1003
2100
3001
,
2002
0000
3000
0100
0200
0000
0300
0000
,
2000
0000
3000
0100
0103
0000
0000
0000
;

//---------------dance-single - ----------------
#NOTES:
     dance-single:
     :
     Hard:
     11:
     :
0000
0000
0000
0000
,
0000
0000
0000
0000
,
0000
0000
0000
0000
,
0000
0000
0000
0000
,
0000
0000
0000
0000
,
0000
0000
0000
0000
,
0000
0000
0000
0000
,
1010
0000
1000
0001
0002
0000
0103
0000
,
0011
0000
0100
0010
0020
0000
1030
0001
,
0010
0000
0000
0001
0000
0000
1000
0000
0010
0000
0000
0000
0100
0000
0001
0000
,
0010
0000
0000
0001
0000
0000
0100
0000
0010
0000
0000
0000
1000
0000
0001
0000
,
1000
0000
0000
0100
0000
0000
0010
0000
0001
0000
0000
0000
0100
0000
0010
0000
,
1000
0001
0000
0010
0001
0000
0100
0010
,
0110
1000
0001
0010
0000
0001
0100
0010
,
1001
1000
0100
0010
0000
0001
0100
0001
,
0010
0100
1000
0010
0000
1000
0001
0000
,
0101
0000
0001
0010
0020
0000
0130
0000
,
1100
0000
0001
1000
2000
0000
3010
0100
,
0001
0000
0000
1000
0000
0000
0001
0000
0010
0000
0000
0000
0100
0000
1000
0000
,
0010
0000
0000
0100
0000
0000
0001
0000
0010
0000
0000
0000
0100
0000
1000
0000
,
0001
0000
0000
0000
1000
0000
0001
0000
0000
0000
0010
0000
0001
0000
0100
0010
,
0100
0000
0001
1000
0100
0000
1000
0001
,
0011
0001
1000
0010
0000
0100
0001
1000
,
1100
0100
0010
0001
0000
1000
0001
0100
,
0010
1000
0100
0010
0000
0001
1000
0001
,
0101
0000
1000
0001
0002
0000
0103
0000
,
1010
0000
1000
0100
0200
0000
0310
0001
,
1001
0000
0000
0010
0000
0000
0001
0000
0200
0000
0000
0000
0310
0000
1000
0000
,
0110
0000
0000
0001
0000
0000
0010
0000
0200
0000
0000
0000
1300
0000
0010
0000
,
1001
0000
0000
1000
0000
0000
0100
0000
0020
0000
0000
0000
0031
0000
1000
0010
,
0000
0010
0100
0000
0110
0000
0001
0000
2000
0000
0000
0000
3001
0000
0100
0000
,
1010
0000
0000
0001
0000
0000
1000
0000
0200
0000
0000
0000
0310
0000
0001
0000
,
0101
0000
0000
0010
0000
0000
1000
0000
0002
0000
0000
0000
0013
0000
0100
0000
,
1100
0000
0000
0010
0000
0000
1000
0000
0200
0000
0000
0000
1300
0000
0001
0000
,
0011
0000
0000
0100
0000
0000
0001
0000
2000
0000
0000
0000
3100
0000
0010
0000
,
0110
0001
1000
0010
0000
0100
0100
0001
,
0101
1000
0010
0100
0000
0001
0001
1000
,
1100
0100
1000
0001
0000
0010
0010
0100
,
0011
0001
1000
0010
0000
0100
0100
0001
,
1010
0000
0100
0001
0002
0000
1003
0000
,
1001
0000
0010
0100
0200
0000
0301
0000
,
0020
0000
0031
2000
0000
3001
1001
1001
,
0010
1000
0100
0010
0001
0000
1100
1100
,
0001
1000
0010
0100
0001
0000
0011
0011
,
1000
0001
0010
0001
0100
0000
0110
0110
,
0002
0000
0013
0200
0000
1300
1010
1010
,
0100
1000
0001
0100
0010
0000
0101
0101
,
1000
0000
0001
0000
0010
0000
0001
0000
0000
0100
0000
0000
1010
0000
1010
0000
,
0200
0000
0310
0002
0000
1003
1100
1100
,
0020
0000
1030
0000
0100
0000
0011
0011
,
0002
0000
1003
0010
0000
0000
0101
0101
,
2000
0000
3010
0100
0002
0000
1003
0010
,
0200
0000
0301
1000
0020
0000
0130
0001
,
2002
0000
3000
0100
0100
0000
1000
1000
,
1003
0000
0000
0100
0110
0000
0000
0000
;
