#TITLE:Racing with Time (NAOKI's 999 remix);
#ARTIST:jun feat. Godis (Heather Twede);
#BANNER:Racing with Time (NAOKI's 999 remix).png;
#BACKGROUND:Racing with Time (NAOKI's 999 remix)-bg.png;
#JACKET:Racing with Time (NAOKI's 999 remix)-jacket.png;
#MUSIC:Racing with Time (NAOKI's 999 remix).ogg;
#SAMPLESTART:49.272;
#SAMPLELENGTH:20;
#DISPLAYBPM:157;
#BPMS:0=157;
#BGCHANGES:;

//---------------dance-single - ----------------
#NOTES:
     dance-single:
     :
     Beginner:
     2:
     :
0000
0000
0000
0000
,
0000
0000
0000
0000
,
0000
0000
0000
0000
,
0001
0000
1000
0000
,
0000
0001
0000
0000
,
0001
0000
1000
0000
,
0000
0001
0000
0000
,
0000
0000
0010
0000
,
0000
0000
0001
0000
,
0100
0000
0100
0000
,
0001
0000
0001
0000
,
1000
0000
0001
0000
,
0000
0000
0010
0000
,
0000
0000
0100
0000
,
0000
0000
0000
0001
,
1000
0000
0000
0001
,
1000
0000
0000
0000
,
0100
0000
0100
0000
,
0001
0000
0001
0000
,
1000
0000
0001
0000
,
0000
0000
0010
0000
,
0000
0000
0100
0000
,
0000
0000
0000
0001
,
1000
0000
0000
0001
,
1000
0000
0000
0000
,
0000
1000
0001
0000
,
0000
0000
1000
0000
,
0000
0000
0100
0000
,
0010
0010
0010
0000
,
0000
0000
0001
0000
,
0000
0000
0000
0000
,
0100
0000
0010
0000
,
1001
0000
0000
0000
,
0000
0000
1000
0000
,
0000
0000
0001
0000
,
0100
0000
0000
0000
,
1000
0000
0000
0000
,
0000
0000
0001
0000
,
0000
0000
1000
0000
,
0010
0000
0000
0000
,
0001
0000
0000
0000
,
0000
0000
1000
0000
,
0000
0000
0001
0000
,
0100
0000
0000
0000
,
1000
0000
0000
0000
,
0000
0000
1000
0000
,
0000
0000
0001
0000
,
0100
0000
0000
0000
,
1000
0000
0000
0000
,
1000
0000
0001
0000
,
0001
0000
1000
0000
,
0001
0000
0000
0000
,
1000
0000
0100
0000
,
1000
0000
0000
0000
,
0001
0000
0010
0000
,
1001
0000
0000
0000
,
0010
0000
0100
0000
,
0110
0000
1001
0000
;

//---------------dance-single - ----------------
#NOTES:
     dance-single:
     :
     Easy:
     5:
     :
0000
0000
0000
0000
,
0000
0000
0000
0000
,
0000
0000
0000
0000
,
1001
0000
0001
1000
,
0000
1000
0001
0000
,
1001
0000
0001
1000
,
0000
1000
0001
0000
,
0001
0000
0100
0010
,
1000
0001
1000
0000
,
0010
0100
0010
0000
,
1000
0001
1000
0001
,
2000
0000
0000
3000
,
0000
0000
0100
1000
,
0001
0000
0010
0100
,
0100
0000
0010
1000
,
0001
0000
0000
1000
,
0001
0010
0100
0000
,
0100
0010
0100
0000
,
0001
1000
0001
1000
,
0002
0000
0000
0003
,
0000
0000
0010
0001
,
1000
0000
0100
0010
,
0010
0000
0100
0001
,
1000
0000
0000
0001
,
1000
0100
0010
0000
,
0000
0001
1000
0000
,
0100
1000
0001
0000
,
1000
0100
0001
0000
,
1001
0000
1001
0000
,
0000
0010
1000
0001
,
0000
0100
0000
0100
,
0000
0001
1000
0001
,
1000
0001
0100
0000
,
0001
0010
0001
0000
,
1000
0001
1000
0000
,
0010
0000
1000
0000
,
0010
0000
0001
0000
,
0001
0100
0001
0000
,
1000
0010
1000
0000
,
0001
0000
0100
0010
,
1000
0100
0010
0000
,
0002
0000
0003
0000
,
2000
0000
3000
0000
,
0010
0000
1000
0000
,
0010
0000
0001
0000
,
0001
0100
0001
0000
,
1000
0010
1000
0000
,
0001
0000
0100
0010
,
1000
0100
0010
0000
,
1000
0100
0001
0000
,
1000
0010
0001
0000
,
1000
0010
0010
1000
,
0001
0000
0000
0000
,
0001
0100
0100
0001
,
1000
0000
0001
1000
,
1000
0000
0010
0010
,
0000
0000
0100
0100
,
0000
0000
1001
0000
;

//---------------dance-single - ----------------
#NOTES:
     dance-single:
     :
     Medium:
     9:
     :
0000
0000
0000
0000
,
0000
0000
0000
0000
,
0000
0000
0000
0000
,
0101
0000
0010
1000
0100
0000
0001
0000
,
0010
0001
1000
0001
,
1010
0000
0100
0001
0010
0000
1000
0000
,
0100
1000
0001
1000
,
0101
0000
0000
0001
1000
0000
0100
0000
,
0001
0100
1000
0010
1000
0100
0001
0000
,
1000
0001
0100
0010
,
0101
1001
0110
1010
,
0002
0010
1000
0003
,
0101
0000
0000
0000
0100
0001
0010
0000
,
0100
1000
0010
0000
0001
0010
0100
0000
,
0010
1000
0100
0000
0100
1000
0001
0000
,
1000
0000
0100
0000
0010
0001
0100
0000
,
0001
0100
1001
0000
,
0001
1000
0100
0010
,
1100
1001
0110
0011
,
2000
0010
0001
3000
,
1100
0000
0000
0000
0100
1000
0010
0000
,
0100
0001
0010
0000
1000
0010
0100
0000
,
0010
0001
0100
0000
0100
0001
1000
0000
,
0001
0000
0100
0000
0010
1000
0100
0000
,
0011
1100
1010
0101
,
0110
0000
1001
0000
,
0100
0010
0001
0000
0100
1000
0100
0000
,
0010
0001
0010
0000
0101
0000
0000
0000
,
1001
0011
0101
1001
,
0001
0100
0010
0000
0001
0010
1000
0000
,
1000
0010
0100
0000
1000
0010
0001
0000
,
0100
0010
1000
0001
0100
0001
1000
0000
,
0011
1010
0011
1010
,
0100
0001
1001
0000
1000
0000
1100
0000
,
0100
0001
0101
0000
0001
0000
0011
0000
,
1100
0010
1000
0101
,
0010
0100
0010
0000
1001
0000
0000
0000
,
0010
1000
1001
0000
0001
0000
0011
0000
,
0010
1000
1010
0000
1000
0000
1100
0000
,
1000
0100
0010
0000
0001
0010
0100
1000
,
0001
0010
0100
0000
,
0210
0000
1000
0301
,
0120
0000
0001
1030
,
1100
0010
1000
0101
,
0010
0100
0010
0000
1001
0000
0000
0000
,
0100
1000
1010
0000
0001
0000
0011
0000
,
0100
1000
1001
0000
1000
0000
1010
0000
,
0100
0000
0010
0000
0001
0010
0100
1000
,
0001
0010
1000
0001
,
0100
0000
1000
0100
0001
0000
0010
0000
,
0001
0000
0100
0010
1000
0000
0001
0000
,
0001
0010
0100
0000
0100
0010
0001
0000
,
0001
0010
0100
0000
0100
0010
1000
0000
,
1000
0100
0010
0000
0010
0100
1000
0000
,
1000
0100
0010
0000
0010
0100
0001
0000
,
0001
0001
0000
1000
1000
0000
0100
0100
,
0001
0011
0000
0010
0110
0000
0100
0110
,
1001
0000
0220
0000
,
0000
0000
0000
0330
;

//---------------dance-single - ----------------
#NOTES:
     dance-single:
     :
     Hard:
     13:
     :
0000
0000
0000
0000
,
0000
0000
0000
0000
,
0000
0000
0000
0000
,
1010
0000
0000
0000
0100
0000
0001
0100
0000
0000
0010
0000
1000
0000
0000
0000
,
2000
0100
3000
0010
0002
1000
0003
0010
,
0011
0000
0000
0000
0100
0000
1000
0100
0000
0000
0010
0000
0001
0000
0000
0000
,
0002
0100
0003
0010
2000
0001
3000
0010
,
1010
0000
0000
0000
0000
0000
1000
0001
1000
0000
0000
0000
0010
0000
0000
0000
,
0001
0010
0100
1000
0010
0100
0001
1000
0001
0010
0100
1000
0010
0100
0001
1000
,
0001
0000
1000
0100
0010
0100
0010
0001
,
1000
0010
1000
0000
0100
0000
0001
0100
,
2000
0000
0100
0001
0001
0000
3100
0010
,
1000
0100
0010
0001
0010
1000
1000
0000
,
0010
0000
0000
0001
0000
0000
0100
0000
1000
0000
0000
0100
0000
0000
0010
0000
,
0100
0000
0001
0000
0010
0001
1000
0001
,
1001
0100
0010
0000
0001
0000
0100
0010
,
1000
0000
0000
0001
0000
0000
0010
0000
0010
0000
0000
0000
0101
0000
0000
0000
,
1000
0000
0001
0010
0100
0010
0100
1000
,
0001
0100
0001
0000
0010
0000
1000
0010
,
0002
0000
0010
1000
1000
0000
0013
0100
,
0001
0010
0100
1000
0100
0001
0001
0000
,
0100
0000
0000
1000
0000
0000
0010
0000
0001
0000
0000
0010
0000
0000
0100
0000
,
0010
0000
1000
0000
0100
1000
0001
1000
,
0001
0100
0010
0100
0001
0100
0010
0001
,
1010
0011
1100
0101
,
1001
1000
0001
0100
0010
1000
0001
0010
,
0100
1000
0100
0010
0001
0001
0010
0100
,
1000
0001
1000
0010
1000
0100
0010
0001
,
1010
0110
0011
1100
,
0012
0000
0103
0000
0001
0010
1000
0010
,
2010
0000
3100
0000
1000
0010
0001
0010
,
0010
0100
0001
0100
0010
1000
0001
0000
,
1020
0001
0100
0130
,
0010
1000
0100
0000
0001
0010
0100
0000
,
0010
1000
0100
0001
1000
0100
1100
0000
,
0011
0000
0010
0100
0001
0000
1100
0000
,
0110
0100
1000
0001
1001
1000
0010
0000
,
0010
0001
0100
0000
1000
0100
0010
0000
,
0010
0001
0110
0000
0001
1000
0101
0000
,
0001
0100
0010
1000
0001
0100
1000
0100
,
0001
0001
0010
0100
1000
0001
1000
0000
,
2100
0000
0000
0000
3001
0000
1000
0100
,
0002
0000
0000
0000
1003
0000
0001
0010
,
1100
0000
0100
0010
1000
0000
0011
0000
,
0110
0100
0001
1000
1001
0001
0010
0000
,
0100
1000
0010
0000
0001
0010
1000
0000
,
0100
1000
0110
0000
1000
0001
1010
0000
,
0001
1000
0100
0010
0101
0000
1010
0000
,
1000
0001
0220
0330
,
1000
0010
0100
0010
0001
0010
0100
0001
,
1000
0100
0010
0100
0001
0100
0010
0001
,
1000
0100
0010
0001
0010
0100
0010
0001
,
0010
0100
1000
0010
0100
0001
1001
0000
,
0001
0100
0010
1000
1010
0100
0010
1000
,
0101
0100
0001
0010
0110
1000
0001
0100
,
0010
1000
0000
0000
0000
0000
0001
0100
0000
0000
0000
0000
0010
1000
0010
0000
,
0100
0001
0000
0000
0000
0000
1000
0010
0000
0000
0000
0000
0010
0100
0010
0100
,
0010
0000
0000
0000
0000
0000
0001
2000
0002
0000
0000
0000
0000
0000
0000
0000
,
0000
0000
0000
3003
;

//---------------dance-single - ----------------
#NOTES:
     dance-single:
     :
     Challenge:
     17:
     :
0000
0000
0000
0000
,
0000
0000
0000
0000
,
0000
0000
0000
0000
,
0000
0000
0000
0000
,
0000
0000
0000
0000
,
0010
0000
0001
1000
0000
1000
0001
0000
0010
0100
1000
0100
0000
0100
0010
0000
,
0001
0000
0100
0010
0000
0010
0100
0000
0001
1000
0100
1000
0000
1000
0001
0000
,
0010
0000
0001
0000
0100
0000
0001
0010
1000
0000
0100
0000
0010
0000
0001
1000
,
0100
0010
0000
0010
0001
0100
0000
0100
0010
1000
0000
1000
0001
1000
0000
0001
,
0100
0000
0010
1000
0000
0010
1000
0000
0100
0000
0010
0001
0000
0010
0001
0000
,
0100
0000
0001
1000
0001
0000
1000
0001
1000
0000
0010
0100
0000
0010
0100
0000
,
0001
0000
0010
0100
1000
0000
0201
0000
0000
0000
0301
0000
1000
0000
0100
0000
,
0020
0000
0001
0000
0031
0000
1000
0010
1000
0000
0001
0100
0001
0000
0100
0010
,
0100
0000
0001
1000
0000
0001
1000
0000
0010
0000
0100
0001
0000
0100
0001
0000
,
0010
0000
0001
1000
0001
0000
0010
0100
1000
0000
0010
1000
0000
0001
0100
0000
,
0020
0000
1000
0000
1030
0000
2100
0000
0000
0000
0001
0000
3001
0000
0100
0010
,
1000
0000
0000
1100
0000
0000
0110
0000
0011
0000
0100
0001
1000
0000
0010
1000
,
0100
0000
0010
0001
0000
0001
0100
0000
0010
0000
1000
0100
0000
0100
0010
0000
,
0001
0000
0100
0010
1000
0000
0100
1000
0001
0000
0010
0001
0000
0010
0100
0000
,
2000
0000
0001
0000
3001
0000
0010
0100
0002
0000
1000
0000
1003
0000
0100
0000
,
0120
0000
0001
0000
0031
0000
0100
0010
2000
0000
0001
0000
3001
0000
0100
0000
,
0010
1000
0000
1000
0100
0000
0010
0001
0100
0000
0001
1000
0000
0010
0100
0000
,
0001
0000
1000
0001
0010
0000
0100
0010
0001
0000
1000
0100
1000
0000
0010
0100
,
0002
0000
0010
0000
0013
0000
1000
0100
0002
0000
1000
0000
1003
0000
0010
0000
,
1000
0010
0100
0010
1000
0100
0010
0100
1000
0010
0100
0010
1000
0100
0010
0100
,
1000
0000
0001
0000
0010
0001
0010
0100
1000
0000
0010
1000
0000
0001
0100
0000
,
0010
0000
1000
0000
0100
0010
0001
0100
0001
0000
1000
0010
0000
0100
0001
1000
,
0001
0000
0010
0100
1000
0000
1001
0000
1001
0000
1000
0010
0000
0100
0001
0000
,
0010
0000
0001
0100
0001
0000
1000
0100
1000
0000
0010
0100
0010
0000
1000
0001
,
1000
0000
0100
0000
0010
0001
1000
0001
0100
0000
0010
1000
0000
1000
0100
0000
,
0010
0000
0001
0000
1000
0010
1000
0100
0010
0000
0001
1000
0000
1000
0100
0000
,
0010
0000
0001
0000
0001
1000
0000
1000
0100
0000
0100
0010
0000
0010
0001
0000
,
0101
0000
1100
0000
0010
1000
0001
0100
,
0010
0000
0001
0000
0010
0000
1000
0000
0100
0001
0100
1000
0010
0000
0100
0000
,
1000
0000
0100
0000
0001
0000
0010
0000
1000
0010
0100
0010
0001
0000
1000
0000
,
0010
0000
1000
0100
1000
0000
0001
0000
0010
0000
0001
0100
0001
0000
1000
0000
,
0010
0000
1000
0000
0100
0010
0001
0100
0001
0010
0100
1000
0010
0100
0001
0000
,
1000
0000
0100
0000
0001
0000
0100
0000
0010
0100
1000
0010
0001
0010
1000
0001
,
0100
0000
0010
0000
1000
0000
0001
0000
0010
0001
1000
0001
0100
0010
1000
0100
,
1000
0000
0010
0000
0100
0001
0100
0001
1000
0010
1000
0100
0010
0001
0010
0100
,
1000
0000
0010
0100
0000
0010
0100
0000
0001
0010
0001
1000
0001
1000
0100
0000
,
0010
0000
0001
0000
0100
0000
0001
0000
1000
0010
0001
0010
1000
0000
0100
0000
,
0010
0000
1000
0000
0010
0000
0001
0000
0100
1000
0100
0001
0100
0000
0010
0000
,
1000
0000
0001
0000
0010
0100
1000
0000
0010
0100
0001
0000
1000
0001
0100
0000
,
0010
0000
1000
0000
0100
0010
0001
0000
1000
0001
0010
0001
0100
0000
0010
0000
,
1000
0000
0100
0000
0001
0000
0100
1000
0010
0000
0100
0001
0010
0001
1000
0100
,
0010
0000
0001
0000
0100
0001
0010
0000
0100
1000
0010
0000
1000
0001
0010
0100
,
1000
0000
0010
0000
0100
0001
0100
0000
0010
0001
0010
1000
0001
1000
0100
0010
,
0001
0000
1000
0010
2000
0000
0000
0000
3001
0010
0001
0010
0100
1000
0100
1000
,
0010
0000
0100
0000
0010
1000
0001
0000
0010
0000
0100
0000
1000
0000
0001
0000
,
0100
0000
0010
0000
1000
0100
0001
0100
1000
0000
0001
0000
0010
0000
0100
0000
,
1000
0000
0010
0000
0100
0001
1000
0000
0001
0000
0010
0000
0100
0000
1000
0000
,
0010
0000
0100
0000
0001
0010
0001
0010
0100
0000
1000
0000
0001
0000
1000
0000
,
0010
1000
0000
0100
0010
0000
0001
0100
0000
0001
1000
0000
0010
0000
0100
0000
,
0010
1000
0000
0001
0100
0000
0001
0010
0000
0100
1000
0000
0001
0000
1000
0000
,
0010
0100
0000
0100
0001
0000
1000
0001
0000
0001
0100
0000
0010
0000
1000
0000
,
1100
0000
0000
0101
0000
0000
1100
0000
0000
0101
0000
0000
1001
0000
0101
0000
,
0011
0000
0000
0000
0000
0000
1000
0100
2200
0000
0000
0000
0000
0000
0000
0000
,
0000
0000
0000
0000
,
3300
0000
0000
0000
;
