#VERSION:0.83;
#TITLE:ROCK ju;
#SUBTITLE:;
#ARTIST:C-Show;
#TITLETRANSLIT:;
#SUBTITLETRANSLIT:;
#ARTISTTRANSLIT:;
#GENRE:;
#ORIGIN:;
#CREDIT:;
#BANNER:ROCK ju-bn.png;
#BACKGROUND:ROCK ju-bg.png;
#PREVIEWVID:;
#JACKET:ROCK ju-jacket.png;
#CDIMAGE:;
#DISCIMAGE:;
#LYRICSPATH:;
#CDTITLE:;
#MUSIC:ROCK ju.ogg;
#OFFSET:0.600000;
#SAMPLESTART:21.343000;
#SAMPLELENGTH:20.000000;
#SELECTABLE:YES;
#DISPLAYBPM:175.000000;
#BPMS:0.000=175.000;
#STOPS:;
#DELAYS:;
#WARPS:;
#TIMESIGNATURES:0.000=4=4;
#TICKCOUNTS:0.000=4;
#COMBOS:0.000=1;
#SPEEDS:0.000=1.000=0.000=0;
#SCROLLS:0.000=1.000;
#FAKES:;
#LABELS:0.000=Song Start;
#BGCHANGES:;
#KEYSOUNDS:;
#ATTACKS:
;

//---------------dance-single - ----------------
#NOTEDATA:;
#CHARTNAME:;
#STEPSTYPE:dance-single;
#DESCRIPTION:;
#CHARTSTYLE:;
#DIFFICULTY:Hard;
#METER:15;
#RADARVALUES:0.813894,0.920143,0.679490,0.723047,0.444282,654.000000,576.000000,78.000000,83.000000,0.000000,0.000000,0.000000,0.000000,0.000000,0.813894,0.920143,0.679490,0.723047,0.444282,654.000000,576.000000,78.000000,83.000000,0.000000,0.000000,0.000000,0.000000,0.000000;
#CREDIT:;
#DISPLAYBPM:175.000000;
#NOTES:
0000
0000
0000
0000
,
0000
0000
0000
0000
,
0000
0000
0000
0000
,
0000
0000
0000
0000
,
0000
0000
0000
0000
,
0220
0000
0000
0000
0330
0000
2002
0000
0000
0000
3003
0000
0000
0000
1000
0010
,
2000
0000
0001
0000
3001
0000
0022
0000
0000
0000
0033
0000
0000
0000
0001
0100
,
0002
0000
0000
0203
0000
0320
2030
0002
,
0000
0000
0000
3003
,
1000
0100
0010
0100
1000
0100
0010
0100
,
1000
0000
0100
0000
0010
0000
0100
0000
1000
0000
0100
0000
0010
0000
0100
1000
,
0001
0010
0100
0010
0001
0010
0100
0010
,
0001
0010
0100
0010
0001
1000
0100
0000
,
1000
0000
0010
0000
0100
0000
0010
0000
1000
0000
0010
0000
0100
0000
0010
1000
,
0001
0000
0100
0000
0010
0000
0100
0000
0001
0000
0100
0000
0010
0000
0100
0001
,
0010
0010
0001
0001
1000
1000
0100
0100
,
1001
1001
1001
1001
0001
1000
0100
0000
,
2002
0000
3003
0000
0220
0000
0330
0000
1000
0010
0100
0000
0010
0100
0001
0000
,
1000
0100
1000
0000
0001
0100
0001
0000
1000
0010
1000
0000
0001
0010
0001
0000
,
0220
0000
0330
0000
2002
0000
3003
0000
0100
0001
0100
0000
0010
1000
0010
0000
,
1000
0001
0100
0000
0010
1000
0001
0000
0001
0000
1000
0000
0100
0000
0000
0000
,
2200
0000
3300
0000
0202
0000
0303
0000
0010
0001
0100
0000
0001
0100
1000
0000
,
0001
0010
0001
0000
0100
0010
0100
0000
0010
1000
0010
0000
1000
0100
1000
0001
,
0200
0000
0000
0320
0000
2030
3002
2003
,
0010
0000
0010
0000
3010
0000
1000
0100
0010
0100
1000
0000
1001
0000
0000
0000
,
0022
0000
0033
0000
2200
0000
3300
0000
1000
0001
0010
0000
0001
1000
0100
0000
,
0010
0001
0010
0000
0001
0100
0001
0000
0100
1000
0100
0000
1000
0010
1000
0000
,
0022
0000
0033
0000
2200
0000
3300
0000
1000
0100
1000
0000
0010
0100
0010
0000
,
1000
0100
0010
0000
0100
0010
0001
0000
0001
0000
1000
0000
0100
0000
0000
0000
,
1100
0000
0101
0000
2200
0000
3300
0000
0010
0100
0010
0000
0100
0010
0100
0000
,
0001
1000
0100
0000
1000
0001
0100
0000
0010
0100
0010
0000
1000
0001
0010
0001
,
2000
0000
0000
3020
0000
0230
0320
2030
,
0001
0000
0001
0000
3001
0000
1000
0010
0100
0010
1000
0000
1001
0000
0000
0000
,
1001
0000
0000
0000
,
0000
0000
0000
0000
,
0110
0000
0000
0000
,
0000
0000
0000
0000
,
0010
0000
1000
0000
0010
0000
1000
0000
0001
0000
0000
0001
0000
0000
0001
0000
,
0000
0100
0000
0000
0100
0000
0000
0100
0000
0000
0001
0000
1000
0000
0010
0000
,
1000
0000
0100
0000
1000
0000
0100
0000
0010
0000
0000
0010
0000
0000
0010
0000
,
1001
0000
1001
0000
1001
0011
1010
0000
,
0010
0000
0100
0000
0001
0000
1000
0000
1100
0000
0000
0101
0000
0000
1010
0000
,
0000
0011
0000
0000
1001
0000
0000
0110
0000
0000
0100
0000
0010
0000
0001
0000
,
1000
0000
0010
0000
0100
0000
0001
0000
0011
0000
0000
0101
0000
0000
1001
0000
,
0000
1010
0000
0000
1100
0000
0000
0110
0000
0000
0001
0000
0100
0000
1000
0000
,
0010
0000
1000
0000
0001
0000
0100
0000
0110
0000
0000
1010
0000
0000
0101
0000
,
0000
0011
0000
0000
1100
0000
0000
1001
0000
0000
0100
0000
1000
0000
0001
0000
,
0010
0000
0100
0000
0001
0000
1000
0000
1100
0000
0000
1001
0000
0000
0101
0000
,
1000
0100
0010
0001
1001
0110
1001
0000
,
0100
0000
0001
0000
0100
0000
1000
0000
0100
0000
0001
0000
0100
0000
1000
0100
,
0001
0000
0100
0000
1000
0000
0100
0000
0001
0000
0100
0000
1000
0000
0100
0001
,
0010
0000
0001
0000
0010
0000
1000
0000
0010
0000
0001
0000
0010
0000
1000
0010
,
0001
0010
1000
0010
0001
1000
0100
0000
,
1000
0000
0100
0000
0001
0000
0100
0000
1000
0000
0100
0000
0001
0000
0100
1000
,
0100
0000
0001
0000
0100
0000
1000
0000
0100
0000
0001
0000
0100
0000
1000
0100
,
0010
0010
0001
0001
1000
1000
0100
0100
,
1001
1001
1001
1001
0001
1000
0100
0000
,
2001
3020
0230
0302
,
1003
0100
0010
0001
1000
0100
0010
0001
1000
0000
1100
0000
0101
0000
0000
0000
,
2020
0000
3030
0000
0220
0000
0330
0000
1000
0100
1000
0000
0001
0100
0001
0000
,
0010
0001
0100
0000
0010
1000
0100
0000
0001
0000
1000
0000
0100
0000
0000
0000
,
2002
0000
3003
0000
2200
0000
3300
0000
0010
0001
0010
0000
0001
0010
0001
0000
,
0100
0001
0100
0000
0001
0100
0001
0000
1000
0001
1000
0000
0001
0010
0100
1000
,
0200
0000
0000
2300
0000
3020
0230
0302
,
0100
0000
0100
0000
0103
0000
0001
0010
0001
1000
0010
0000
0110
0000
0000
0000
,
2020
0000
3030
0000
2200
0000
3300
0000
0001
1000
0100
0000
1000
0001
0100
0000
,
0010
0100
0001
0000
0100
0010
1000
0000
0001
0010
1000
0000
0100
1000
0100
0000
,
2002
0000
3003
0000
0220
0000
0330
0000
1000
0100
0010
0000
0100
0010
0001
0000
,
0010
0001
1000
0000
0001
1000
0100
0000
0001
0000
1000
0000
0100
0000
0000
0000
,
1100
0000
0101
0000
2200
0000
3300
0000
0010
1000
0100
0000
1000
0100
1000
0000
,
0001
0010
0100
0000
0010
0100
1000
0000
0100
0010
0001
0000
0100
0001
0100
0010
,
2000
0000
0000
3002
0000
0023
0032
0203
,
1000
0000
1000
0000
1300
0000
0100
0001
0010
0100
0010
0000
1001
0000
0000
0000
,
0001
0000
0100
0000
1000
0000
0001
0000
0010
0000
1000
0000
0001
0000
0100
1000
,
0010
0000
0100
0000
0001
0000
0010
0000
0100
0000
1000
0000
0010
0000
0100
0001
,
1000
0100
0010
0001
0100
0010
1000
0002
,
0100
0100
0100
0010
1000
0100
0103
0000
,
0001
0000
1000
0000
0100
0000
0010
0000
0100
0000
1000
0000
0001
0000
0010
0100
,
1000
0000
0001
0000
0100
0000
0010
0000
1000
0000
0100
0000
0010
0000
0001
0100
,
0020
0000
0000
0230
0000
0302
2003
3010
,
1001
1001
1001
1001
0001
1000
0100
0000
,
2002
3003
0000
0000
;

//---------------dance-single - ----------------
#NOTEDATA:;
#CHARTNAME:;
#STEPSTYPE:dance-single;
#DESCRIPTION:;
#CHARTSTYLE:;
#DIFFICULTY:Challenge;
#METER:17;
#RADARVALUES:1.006790,1.097093,0.705624,0.853718,0.884208,809.000000,728.000000,81.000000,98.000000,0.000000,0.000000,0.000000,0.000000,0.000000,1.006790,1.097093,0.705624,0.853718,0.884208,809.000000,728.000000,81.000000,98.000000,0.000000,0.000000,0.000000,0.000000,0.000000;
#CREDIT:;
#DISPLAYBPM:175.000000;
#NOTES:
0000
0000
0000
0000
,
0000
0000
0000
0000
,
0000
0000
0000
0000
,
0000
0000
0000
0000
,
0000
0000
0000
0000
,
0220
0000
0000
0000
0330
0000
2002
0000
0003
0000
0100
0000
3100
0000
1000
0010
,
0200
0000
0301
0000
0101
0000
2200
0000
0300
0000
0001
0000
3001
0000
1000
0010
,
0200
0000
0020
0000
0000
0330
0220
0000
0000
0330
1010
0000
1001
0000
0012
0000
,
0100
0000
0100
0000
0103
0010
1001
0000
,
1000
0000
0100
0000
0001
0000
1000
0000
0010
0000
0001
0000
1000
0000
0100
0001
,
1000
0000
0010
0000
0001
0000
1000
0000
0100
0000
0001
0000
1000
0000
0010
0001
,
0100
0000
0010
0000
1000
0000
0100
0000
0010
0000
0001
0000
0100
0000
0010
1000
,
0001
0000
0101
0000
1000
0000
1100
0000
0100
1000
0001
0000
1001
0000
0000
0000
,
1000
0000
1000
0000
0100
0000
0100
0000
0010
0000
0010
0000
0001
0000
0001
0100
,
0010
0000
0010
0000
0100
0000
0100
0000
0001
0000
0001
0000
1000
0000
1000
0010
,
0100
0010
0100
0000
0010
0100
0010
0000
1000
0001
1000
0000
0001
1000
0001
0000
,
1100
0000
0101
0000
1100
0000
0101
0000
1000
0100
0001
0100
1000
0000
0000
0000
,
2200
0000
3300
0000
0022
0000
0033
0000
1000
0100
1000
0100
0001
0100
0001
0100
,
1000
0100
1000
0100
0010
0100
0010
0100
0001
0100
0001
0100
0010
0100
0010
0100
,
2000
0000
0000
0000
3010
0100
0001
0000
1000
0100
1000
0100
0001
0100
0001
0100
,
1000
0100
0010
0001
0100
0010
1000
0001
0020
0000
0130
0000
2000
0000
0000
0000
,
3002
0000
0103
0000
0022
0000
0033
0000
0001
0010
0001
0010
1000
0010
1000
0010
,
0001
0010
0001
0010
0100
0010
0100
0010
1000
0010
1000
0010
0100
0010
0100
0010
,
0002
0000
2000
0000
0000
3003
2200
0000
0000
3300
1001
0000
0101
0000
0120
0000
,
1000
0000
0100
0000
1030
0000
0010
0100
0001
0010
0100
1000
0002
0000
0003
0000
,
0022
0000
0033
0000
2200
0000
3300
0000
0010
0100
0010
0100
0001
1000
0001
1000
,
0001
0010
0001
0010
0100
0010
0100
0010
0100
1000
0100
1000
0001
1000
0001
1000
,
0020
0000
0000
0000
0130
0001
1000
0000
0001
0010
0001
0010
0100
0010
0100
0010
,
0100
1000
0100
1000
0001
1000
0001
1000
0020
0000
1000
0000
0200
0000
0330
0000
,
0110
0000
1001
0000
0022
0000
0033
0000
1000
0010
1000
0010
0100
0001
0100
0001
,
1000
0100
1000
0100
0010
0100
0010
0100
0010
0001
0010
0001
1000
0001
1000
0001
,
2000
0000
0200
0000
0000
3300
1002
0000
0013
0000
0011
0000
0101
0000
1020
0000
,
0001
0000
1000
0000
0130
0000
0010
1000
0001
0010
0100
1000
0020
0000
0030
0000
,
1001
0000
0100
0000
0010
0000
0100
0000
0001
0000
0000
0001
0000
0000
1000
0000
,
0000
1000
0000
0000
0010
0000
0000
0010
0000
0000
1000
0000
0001
0000
0100
0000
,
0110
0000
0010
0000
1000
0000
0010
0000
0100
0000
0000
0100
0000
0000
0001
0000
,
0000
0001
0000
0000
1000
0000
0000
1000
0000
0000
0001
0000
0100
0000
0010
0000
,
1000
0000
0100
0000
0010
0000
0001
0000
0011
0000
0000
1010
0000
0000
0110
0000
,
0000
1100
0000
0000
0101
0000
0000
1001
0000
0000
0010
0000
0100
0000
1000
0000
,
0001
0000
0100
0000
0010
0000
1000
0000
1100
0000
0000
1001
0000
0000
0101
0000
,
0110
0000
1001
0000
0110
1010
1001
0000
,
1000
0000
0010
0000
0100
0000
0001
0000
1000
0100
0000
0100
0001
0000
1000
0010
,
0000
0010
0001
0000
0100
0010
0000
0010
1000
0000
0001
0000
1000
0000
0100
0000
,
0010
0000
0100
0000
1000
0000
0001
0000
0010
0001
0000
0001
0100
0000
0010
1000
,
0000
1000
0100
0000
0010
0001
0000
0001
1000
0000
0100
0000
0010
0000
0100
0000
,
1000
0000
0010
0000
0100
0000
0001
0000
0010
0001
0000
1000
0100
0000
0001
0010
,
0000
0100
1000
0000
0010
0100
0000
0001
1000
0000
0100
0000
0010
0000
0001
0000
,
0100
0000
0001
0000
0010
0000
1000
0000
0010
0001
0000
0100
0010
0000
1000
0100
,
1000
0000
1000
0000
0001
0000
0001
0000
0100
0001
0010
0100
1000
0000
0000
0000
,
0001
0000
0100
0000
0010
0000
0001
0000
0100
0000
0010
0000
0001
0000
0100
0010
,
1000
0000
0010
0000
0100
0000
1000
0000
0010
0000
0100
0000
1000
0000
0010
0100
,
0001
0000
1000
0000
0100
0000
0001
0000
1000
0000
0100
0000
0001
0000
1000
0100
,
0010
0000
0011
0000
0010
0000
1010
0000
0001
1000
0001
0000
0110
0000
0000
0000
,
0010
0000
0010
0000
1000
0000
1000
0000
0100
0000
0100
0000
0001
0000
0001
0100
,
1000
0000
1000
0000
0100
0000
0100
0000
0001
0000
0001
0000
0010
0000
0010
0100
,
1000
0100
1000
0000
0001
0100
0001
0000
1000
0100
1000
0000
0001
0100
0001
0000
,
1100
0000
0101
0000
1100
0000
0101
0000
1000
0100
0001
0100
1000
0000
0000
0000
,
2002
3003
0220
0330
1000
0100
0010
0001
,
1000
0100
0001
1000
0010
0001
1000
0100
0001
1000
0100
0010
0002
0000
0003
0000
,
0002
0000
0000
0000
0013
0100
1000
0000
0010
0100
0010
0100
0001
1000
0001
1000
,
0100
1000
0100
1000
0001
0010
0001
0010
0002
0000
0100
0000
2000
0000
3003
0000
,
2020
0000
3030
0000
0202
0000
0303
0000
0010
0001
1000
0001
0010
0100
1000
0100
,
0010
0001
0010
0001
0100
0001
0100
0001
1000
0100
1000
0100
1000
0010
1000
0010
,
0200
0000
0020
0000
0000
0330
2020
0000
0000
3030
1100
0000
1001
0000
0120
0000
,
0100
0000
0001
0000
1030
0000
0010
1000
0100
0010
0100
1000
0002
0000
0003
0000
,
0202
0000
0303
0000
2002
0000
3003
0000
1000
0100
0010
0001
1000
0100
0010
0001
,
0100
0010
0100
0010
1000
0001
1000
0001
0100
0001
0100
0001
1000
0010
1000
0010
,
2000
0000
0000
0000
3100
0010
0001
0000
1000
0010
0001
0010
1000
0100
0001
0100
,
1000
0001
0100
0010
0100
0010
1000
0001
0020
0000
1000
0000
0002
0000
0033
0000
,
1100
0000
0011
0000
0220
0000
0330
0000
1000
0010
1000
0010
0100
0001
0100
0001
,
1000
0100
0010
0001
0100
0010
1000
0001
0010
0100
1000
0001
0100
0010
1000
0001
,
0020
0000
0002
0000
0000
0033
2020
0000
0000
3030
0011
0000
0110
0000
1002
0000
,
0100
0000
0010
0000
1003
0000
0001
1000
0100
1000
0010
0100
0002
0000
0000
0000
,
2003
0000
0001
0000
3010
0000
2000
0000
0100
0000
0010
0000
3001
0000
0100
0010
,
2000
0000
3020
0000
0230
0000
0302
0000
0010
0000
0100
0000
0013
0000
0001
1000
,
0020
1000
0031
0200
1000
0302
2003
3020
,
0100
1000
0100
0001
0100
0100
0130
0000
,
0020
0000
0100
0000
1030
0000
0002
0000
1000
0000
0100
0000
0013
0000
0001
0100
,
0020
0000
2030
0000
3002
0000
0203
0000
1000
0000
0010
0000
0301
0000
0100
0010
,
2000
0000
0200
0000
0000
3300
0022
0000
0000
0033
0101
0000
0110
0000
1010
0000
,
1100
0000
0101
0000
1100
0000
0101
0000
1000
0100
0001
0100
1000
0000
0000
0000
,
2002
3003
0000
0000
;

//---------------dance-single - ----------------
#NOTEDATA:;
#CHARTNAME:;
#STEPSTYPE:dance-single;
#DESCRIPTION:;
#CHARTSTYLE:;
#DIFFICULTY:Medium;
#METER:12;
#RADARVALUES:0.589887,0.601632,0.365879,0.470416,0.000000,474.000000,432.000000,42.000000,54.000000,0.000000,0.000000,0.000000,0.000000,0.000000,0.589887,0.601632,0.365879,0.470416,0.000000,474.000000,432.000000,42.000000,54.000000,0.000000,0.000000,0.000000,0.000000,0.000000;
#CREDIT:;
#DISPLAYBPM:175.000000;
#NOTES:
0000
0000
0000
0000
,
0000
0000
0000
0000
,
0000
0000
0000
0000
,
0000
0000
0000
0000
,
0000
0000
0000
0000
,
0110
0000
0000
2002
0000
0000
3003
0000
,
0010
0100
1000
0200
0000
0000
0300
0000
,
0002
0000
0000
2003
0000
3010
2000
0002
,
0000
0000
0000
3003
,
1000
0100
1000
0000
0001
0100
0001
0000
,
1000
0010
1000
0000
0001
0010
0001
0000
,
1000
0001
1000
0000
0010
0100
0010
0000
,
1000
0100
0010
0001
0200
0000
0320
0000
,
1030
0100
1000
0100
0010
0001
0010
0001
,
0100
0001
0100
0001
1000
0100
1000
0100
,
1000
0001
0100
0010
1000
0100
0010
0001
,
0100
0100
0100
0100
0200
0000
0320
0000
,
1030
0000
1100
0000
0001
0100
0010
0000
,
1000
0100
0010
0001
0100
0010
1000
0001
,
0010
0000
0101
0000
1000
0001
0100
0000
,
0001
1000
0010
1000
0200
0000
0320
0000
,
0031
0000
1010
0000
0100
1000
0010
0000
,
0100
0001
0010
0100
1000
0001
1000
0010
,
2000
0000
0000
3020
0000
0130
0010
2000
,
0001
0001
3002
0000
0103
0001
0101
0000
,
1001
0000
1100
0000
0001
0100
1000
0000
,
0001
1000
0001
0010
0100
1000
0100
0010
,
0011
0000
0101
0000
0100
0001
0010
0000
,
0100
1000
0001
1000
0200
0000
0320
0000
,
0130
0100
0110
0000
0010
0001
1000
0000
,
0100
1000
0100
1000
0001
0010
0001
0010
,
0002
0000
0000
0203
0000
0310
0100
0002
,
1000
1000
2003
0000
3010
1000
1010
0000
,
1001
0000
0000
0000
,
0000
0000
0000
0000
,
0110
0000
0000
0000
,
0000
0000
0000
0000
,
0010
1000
0010
0000
0100
0001
0100
0000
,
1000
0100
1000
0000
0001
0010
0001
0000
,
0100
0010
0100
0000
0001
1000
0001
0000
,
0101
0000
1100
0000
0100
1000
0001
0000
,
0010
1000
0001
0100
2000
0000
3002
0000
,
0013
0001
0011
0000
0010
1000
1010
0000
,
0100
0010
1000
0001
0020
0000
0230
0000
,
1300
0100
1100
0000
0001
0100
0101
0000
,
0001
0010
0100
1000
0020
0000
2030
0000
,
3100
1000
1010
0000
0100
0001
0011
0000
,
0100
0001
1000
0010
0200
0000
0302
0000
,
0013
0010
0010
0000
1001
0000
0110
0000
,
1000
0001
0100
0000
0001
1000
0100
0000
,
1000
0001
0010
0000
0001
1000
0010
0000
,
0100
0010
1000
0000
0100
0010
0001
0000
,
1000
0001
1000
0001
0200
0000
0320
0000
,
0130
0010
0100
0010
1000
0001
1000
0001
,
0010
0001
0010
0001
1000
0100
1000
0100
,
1000
0010
0100
0001
1000
0100
0010
0001
,
0100
0100
0100
0100
0200
0000
0320
0000
,
2030
3001
0101
1100
,
1000
0010
0100
0010
1000
0001
0001
0000
,
0110
0000
1001
0000
0010
1000
0100
0000
,
1000
0010
1000
0001
0200
0000
0320
0000
,
1030
0000
1010
0000
0001
0100
0010
0000
,
1000
0001
0010
0100
1000
0001
0100
0010
,
0200
0000
0000
0320
0000
1030
0010
0200
,
0001
0001
0302
0000
0013
0001
0011
0000
,
0110
0000
0011
0000
0010
0001
0100
0000
,
1000
0010
0001
1000
0100
0001
0100
0010
,
1010
0000
1100
0000
1000
0010
0100
0000
,
0001
0010
0001
1000
0200
0000
0320
0000
,
0031
0001
0101
0000
0010
0100
1000
0000
,
0001
0010
0100
1000
0010
1000
0001
0100
,
0002
0000
0000
0023
0000
0130
1000
0020
,
0100
0100
0230
0000
0310
0100
1001
0000
,
0011
0000
1000
0100
0001
0100
1000
0000
,
0010
0100
0010
1000
0100
0010
0001
0000
,
1100
0000
0000
0101
0000
1000
0001
0200
,
0010
0010
0010
0000
0010
0010
0310
0000
,
1010
0000
0100
0001
0010
0001
0100
0000
,
0001
1000
0001
0100
0010
1000
0001
0000
,
0200
0000
0000
0302
0000
1003
0001
0020
,
0100
0100
0100
0100
0130
0000
0110
0000
,
2002
3003
0000
0000
;

//---------------dance-single - ----------------
#NOTEDATA:;
#CHARTNAME:;
#STEPSTYPE:dance-single;
#DESCRIPTION:;
#CHARTSTYLE:;
#DIFFICULTY:Easy;
#METER:8;
#RADARVALUES:0.451749,0.530851,0.513973,0.069691,0.000000,363.000000,304.000000,59.000000,8.000000,0.000000,0.000000,0.000000,0.000000,0.000000,0.451749,0.530851,0.513973,0.069691,0.000000,363.000000,304.000000,59.000000,8.000000,0.000000,0.000000,0.000000,0.000000,0.000000;
#CREDIT:;
#DISPLAYBPM:175.000000;
#NOTES:
0000
0000
0000
0000
,
0000
0000
0000
0000
,
0000
0000
0000
0000
,
0000
0000
0000
0000
,
0000
0000
0000
0000
,
0110
0000
0000
1001
0000
0000
0000
0000
,
1000
0000
0001
0100
0000
0000
0000
0000
,
0010
0000
0000
0010
0000
0100
0002
2000
,
0000
0000
0000
3003
,
1000
0010
1000
0010
,
0100
0001
0100
0001
,
1000
0100
1000
0100
,
0010
0001
1001
1001
,
1000
0010
0100
0001
,
0010
0100
1000
0001
,
0100
0010
1000
0001
,
0010
0100
0010
0000
1001
0000
1001
0000
,
0010
1001
0100
0001
,
1100
0000
0101
0000
1000
0001
0100
0000
,
0010
0110
1000
0001
,
0100
0010
1001
1001
,
0100
0110
0001
0010
,
0011
1010
0001
1000
,
0100
0000
0000
0100
0000
1000
0001
0010
,
0001
0101
1000
1100
,
0010
1001
0100
0010
,
0001
0010
0001
0000
1000
0010
1000
0000
,
0100
1010
0100
0001
,
1000
0001
1001
1001
,
0010
1000
0010
0000
0101
0000
1010
0000
,
1000
0100
1000
0000
0001
0100
0001
0000
,
0010
0000
0000
0010
0000
0001
1000
0100
,
1000
1010
0001
0011
,
0010
0000
0000
0000
,
0000
0000
0000
0000
,
0100
0000
0000
0000
,
0000
0000
0000
0000
,
0001
1000
0001
1000
,
0010
0100
0010
0100
,
0001
0010
0100
1000
,
0010
0000
0010
0000
0010
1000
0001
0000
,
1000
0100
0010
0001
,
0100
0010
1000
0001
,
0010
0100
0001
1000
,
0001
0010
0100
1000
,
0010
1000
0100
0001
,
1000
0010
0001
0100
,
0001
1000
0100
0010
,
0100
1000
0010
0001
,
0100
0010
0100
0010
,
1000
0001
1000
0001
,
0010
0001
0010
0001
,
1000
0100
1001
1001
,
0010
1000
0100
0001
,
0010
0001
1000
0100
,
0010
0100
1000
0001
,
0010
0100
0010
0000
1001
0000
1001
0000
,
0010
0000
0010
0000
,
1100
0101
1100
0101
,
1000
0101
0010
0100
,
1000
0010
1001
1001
,
0010
1010
1000
0001
,
0110
0000
1001
0000
1000
0100
0010
0000
,
0001
0000
0000
0001
0000
1000
0010
0100
,
0010
1010
0001
0011
,
0100
0110
1000
0100
,
0010
0001
0010
0000
0100
1000
0001
0000
,
0100
0011
1000
0100
,
0010
0001
1001
1001
,
0010
1000
0010
0000
1100
0000
0011
0000
,
0100
0010
0100
0000
0001
1000
0001
0000
,
0100
0000
0000
0100
0000
0010
1000
0001
,
0100
0110
0010
0110
,
1002
0100
0010
1003
,
2001
0010
0100
3001
,
1100
1000
0101
0001
,
1000
0100
0010
1001
,
0120
0100
0001
1030
,
0210
0010
1000
0301
,
1000
0000
0000
1000
0000
0010
0100
0001
,
0010
0100
0010
0000
1001
0000
1001
0000
,
2002
3003
0000
0000
;

//---------------dance-single - ----------------
#NOTEDATA:;
#CHARTNAME:;
#STEPSTYPE:dance-single;
#DESCRIPTION:;
#CHARTSTYLE:;
#DIFFICULTY:Beginner;
#METER:3;
#RADARVALUES:0.186673,0.246968,0.087114,0.000000,0.000000,150.000000,140.000000,10.000000,0.000000,0.000000,0.000000,0.000000,0.000000,0.000000,0.186673,0.246968,0.087114,0.000000,0.000000,150.000000,140.000000,10.000000,0.000000,0.000000,0.000000,0.000000,0.000000,0.000000;
#CREDIT:;
#DISPLAYBPM:175.000000;
#NOTES:
// measure 0
0000
0000
0000
0000
,  // measure 1
0000
0000
0000
0000
,  // measure 2
0000
0000
0000
0000
,  // measure 3
0000
0000
0000
0000
,  // measure 4
0000
0000
0000
0000
,  // measure 5
0110
0000
0000
0000
,  // measure 6
1001
0000
0000
0000
,  // measure 7
1000
0000
0001
0000
,  // measure 8
1001
0000
0000
0000
,  // measure 9
0010
0000
0010
0000
,  // measure 10
0100
0000
0100
0000
,  // measure 11
0001
0000
0001
0000
,  // measure 12
1000
0000
1000
0000
,  // measure 13
0001
0000
1000
0000
,  // measure 14
0010
0000
0100
0000
,  // measure 15
0001
0000
1000
0000
,  // measure 16
0100
0100
0100
0100
,  // measure 17
0000
0000
0010
0000
,  // measure 18
1000
1000
1000
1000
,  // measure 19
0000
0000
0001
0000
,  // measure 20
0010
0010
0010
0010
,  // measure 21
0000
0000
1000
0000
,  // measure 22
0001
0001
0001
0000
,  // measure 23
0100
0000
0010
0000
,  // measure 24
0110
0000
0000
0000
,  // measure 25
0000
0000
1000
0000
,  // measure 26
0100
0100
0100
0100
,  // measure 27
0000
0000
1000
0000
,  // measure 28
0010
0010
0010
0010
,  // measure 29
0000
0000
0001
0000
,  // measure 30
0010
0010
0010
0000
,  // measure 31
0001
0000
1000
0000
,  // measure 32
0110
0000
0000
0000
,  // measure 33
0010
0000
0000
0000
,  // measure 34
0000
0000
0000
0000
,  // measure 35
0100
0000
0000
0000
,  // measure 36
0000
0000
0000
0000
,  // measure 37
0001
0000
0000
0000
,  // measure 38
1000
0000
0000
0000
,  // measure 39
0001
0000
0100
0000
,  // measure 40
1001
0000
0000
0000
,  // measure 41
0010
0000
0010
0000
,  // measure 42
0100
0000
0100
0000
,  // measure 43
0001
0000
0001
0000
,  // measure 44
1000
0000
1000
0000
,  // measure 45
0001
0000
0010
0000
,  // measure 46
0001
0000
0100
0000
,  // measure 47
0010
0000
1000
0000
,  // measure 48
0100
0000
1000
0000
,  // measure 49
0001
0000
0001
0000
,  // measure 50
0100
0000
0100
0000
,  // measure 51
0010
0000
0010
0000
,  // measure 52
1000
0000
1000
0000
,  // measure 53
0100
0000
1000
0000
,  // measure 54
0001
0000
0010
0000
,  // measure 55
0001
0000
1000
0000
,  // measure 56
0100
0100
0100
0100
,  // measure 57
0000
0000
0000
0000
,  // measure 58
0000
0000
0000
0000
,  // measure 59
0000
0000
1000
0000
,  // measure 60
0001
0001
0001
0001
,  // measure 61
0000
0000
0010
0000
,  // measure 62
0100
0100
0100
0000
,  // measure 63
0001
0000
0100
0000
,  // measure 64
1001
0000
0000
0000
,  // measure 65
0000
0000
1000
0000
,  // measure 66
0010
0010
0010
0010
,  // measure 67
0000
0000
0010
0000
,  // measure 68
0100
0100
0100
0100
,  // measure 69
0000
0000
0001
0000
,  // measure 70
1000
1000
1000
0000
,  // measure 71
0010
0000
0100
0000
,  // measure 72
0110
0000
0000
0000
,  // measure 73
1000
0000
0000
0000
,  // measure 74
0001
0000
0000
0000
,  // measure 75
0100
0000
0100
0000
,  // measure 76
0110
0000
0000
0000
,  // measure 77
1000
0000
0000
0000
,  // measure 78
0001
0000
0000
0000
,  // measure 79
0010
0000
0010
0000
,  // measure 80
0100
0100
0100
0000
,  // measure 81
1001
0000
0000
0000
;
