#VERSION:0.83;
#TITLE:REACH THE SKY (Orbit1 remix);
#SUBTITLE:;
#ARTIST:TAYA;
#TITLETRANSLIT:;
#SUBTITLETRANSLIT:;
#ARTISTTRANSLIT:;
#GENRE:;
#ORIGIN:;
#CREDIT:;
#BANNER:REACH THE SKY (Orbit1 remix).png;
#BACKGROUND:REACH THE SKY (Orbit1 remix)-bg.png;
#PREVIEWVID:;
#JACKET:REACH THE SKY (Orbit1 remix)-jacket.png;
#CDIMAGE:;
#DISCIMAGE:;
#LYRICSPATH:;
#CDTITLE:;
#MUSIC:REACH THE SKY (Orbit1 remix).ogg;
#OFFSET:0.000000;
#SAMPLESTART:69.165001;
#SAMPLELENGTH:20.000000;
#SELECTABLE:YES;
#BPMS:0.000=170.000;
#STOPS:;
#DELAYS:;
#WARPS:;
#TIMESIGNATURES:0.000=4=4;
#TICKCOUNTS:0.000=4;
#COMBOS:0.000=1;
#SPEEDS:0.000=1.000=0.000=0;
#SCROLLS:0.000=1.000;
#FAKES:;
#LABELS:0.000=Song Start;
#BGCHANGES:;
#KEYSOUNDS:;
#ATTACKS:
;

//---------------dance-single - ----------------
#NOTEDATA:;
#CHARTNAME:;
#STEPSTYPE:dance-single;
#DESCRIPTION:;
#CHARTSTYLE:;
#DIFFICULTY:Beginner;
#METER:4;
#RADARVALUES:0.150646,0.253867,0.097641,0.029292,0.000000,108.000000,98.000000,10.000000,3.000000,0.000000,0.000000,0.000000,0.000000,0.000000,0.150646,0.253867,0.097641,0.029292,0.000000,108.000000,98.000000,10.000000,3.000000,0.000000,0.000000,0.000000,0.000000,0.000000;
#CREDIT:;
#NOTES:
0000
0000
0000
0000
,
0000
0000
0000
0000
,
0000
0000
0000
0000
,
0000
0000
0000
0000
,
0000
0000
0000
0000
,
0001
0000
0000
0000
,
0000
0000
0000
0000
,
0000
0000
0000
0000
,
1001
0000
0000
0000
,
0001
0000
0001
0000
,
1000
0000
1000
0000
,
0100
0000
0100
0000
,
1000
0000
1001
0000
,
1000
0000
1000
0000
,
0001
0000
0001
0000
,
1000
0000
0000
0000
,
0001
0000
0000
0000
,
0001
0000
0100
0000
,
1000
0000
0100
0000
,
0001
0000
0100
0000
,
1000
0000
0100
0000
,
0100
0000
1000
0000
,
0100
0000
0001
0000
,
2000
0000
0000
3000
,
0002
0000
0000
0003
,
1000
1000
0000
0000
,
1000
1000
0000
0000
,
0001
0001
0000
0000
,
0001
0001
0000
0000
,
1000
1000
0000
0000
,
0100
0100
0000
0000
,
1000
0000
0001
0000
,
1001
0000
0000
0000
,
0000
0001
0000
0001
,
0000
1000
0000
1000
,
0000
0010
0000
0010
,
0000
0100
0000
0100
,
0000
0010
0000
0010
,
0000
0001
0000
0001
,
0000
0100
0000
0100
,
0000
0000
0000
0000
,
0000
0000
0000
1001
,
0000
0000
0000
1001
,
0000
0000
0000
1001
,
0000
0000
0000
1001
,
0000
0001
0000
1001
,
0000
1000
0000
1001
,
0000
0000
0000
0000
,
0100
0100
0100
0000
,
0000
0000
1000
1000
,
0000
0000
0001
0001
,
0000
0000
0010
0010
,
0000
0000
0000
0000
,
0000
0000
1000
1000
,
0000
0000
0001
0001
,
2000
0000
0000
0000
,
0000
0000
0000
3000
,
0000
0000
1000
1000
,
0000
0000
0001
0001
,
0000
0000
0100
0100
,
0000
0000
0010
0010
,
0000
0000
0000
0000
,
0000
0010
0000
0010
,
0000
0010
0000
0010
,
0010
0010
0010
0010
,
1001
0000
0000
0000
;

//---------------dance-single - ----------------
#NOTEDATA:;
#CHARTNAME:;
#STEPSTYPE:dance-single;
#DESCRIPTION:;
#CHARTSTYLE:;
#DIFFICULTY:Easy;
#METER:5;
#RADARVALUES:0.210626,0.285600,0.107405,0.058585,0.000000,151.000000,140.000000,11.000000,6.000000,0.000000,0.000000,0.000000,0.000000,0.000000,0.210626,0.285600,0.107405,0.058585,0.000000,151.000000,140.000000,11.000000,6.000000,0.000000,0.000000,0.000000,0.000000,0.000000;
#CREDIT:;
#NOTES:
0000
0000
0000
0000
,
0000
0000
0000
0000
,
0000
0000
0000
0000
,
0000
0000
0000
0000
,
0000
0000
0000
0000
,
0001
0000
0001
0000
,
1000
0000
1000
0000
,
0100
0000
0100
0000
,
1001
0000
0000
0000
,
0001
0010
0001
0000
,
1000
0010
1000
0000
,
0001
1000
0001
0000
,
1000
0000
0110
0000
,
0001
0001
1000
0000
,
1000
1000
0001
0000
,
2000
0000
0000
3002
,
0000
0000
0000
0003
,
1000
0010
1000
0000
,
0001
0010
0001
0000
,
1000
0001
1000
0000
,
1000
1000
0001
0001
,
0100
1000
1000
0000
,
0010
0001
0001
0000
,
2000
0000
0000
3000
,
0002
0000
0000
0003
,
1000
0000
1000
0001
,
1000
0100
1000
0000
,
0010
0000
0010
0001
,
0010
0100
0010
0000
,
0001
0000
0001
0100
,
0001
1000
0001
0000
,
1000
1000
0001
0001
,
1001
0000
0000
0000
,
0000
0001
0000
1000
,
0000
1000
0000
0001
,
0000
0010
0000
0100
,
0000
0100
0000
0010
,
0000
0010
0000
0001
,
0000
0001
0000
0100
,
0000
0100
0000
0010
,
0000
0000
0000
0000
,
0000
0100
0000
1001
,
0000
0100
0000
1001
,
0000
0100
0000
1001
,
0000
0100
0000
1001
,
0000
0010
0000
1001
,
0000
0010
0000
1001
,
1000
1000
1000
1000
,
0100
0000
0100
0000
,
0000
0000
1000
0100
,
0100
0000
0001
0100
,
0100
0000
0010
0100
,
0000
0000
0001
0100
,
0100
0000
1000
0100
,
0100
0000
0010
0100
,
0002
0000
0000
0203
,
0000
0000
0000
0300
,
0000
0000
1000
0010
,
0010
0000
0001
0010
,
0010
0000
0100
0010
,
0000
0000
0001
0010
,
1001
0000
0000
0000
,
0000
0010
0000
0010
,
0001
0000
1000
0000
,
0001
0001
1000
1000
,
1001
0000
0000
0000
;

//---------------dance-single - ----------------
#NOTEDATA:;
#CHARTNAME:;
#STEPSTYPE:dance-single;
#DESCRIPTION:;
#CHARTSTYLE:;
#DIFFICULTY:Medium;
#METER:9;
#RADARVALUES:0.386379,0.444266,0.136697,0.117169,0.000000,277.000000,263.000000,14.000000,12.000000,0.000000,0.000000,0.000000,0.000000,0.000000,0.386379,0.444266,0.136697,0.117169,0.000000,277.000000,263.000000,14.000000,12.000000,0.000000,0.000000,0.000000,0.000000,0.000000;
#CREDIT:;
#NOTES:
0000
0000
0000
0000
,
0000
0000
0000
0000
,
0000
0000
0000
0000
,
0000
0000
0000
0000
,
0000
0000
0000
0000
,
1000
0000
1000
0000
,
0001
0000
0001
0000
,
0100
0100
0100
0100
,
1001
0000
0001
1000
0001
0000
1000
0000
,
0100
0000
0001
0000
1000
0100
1000
0000
,
0010
0000
1000
0000
0001
0100
0001
0000
,
1000
0000
0010
0000
0001
0010
0001
0000
,
1000
0001
1000
0000
0110
0000
1001
0000
,
0010
0100
0010
0000
0010
0100
0010
0000
,
1000
0001
1000
0000
1000
0001
1000
0000
,
0200
0000
0300
0002
0000
0000
0203
0000
,
0000
0000
0000
0300
,
0010
0000
1000
0000
0001
0010
0001
0000
,
0100
0000
0001
0000
1000
0010
1000
0000
,
0001
0000
0100
0000
1000
0100
1000
0000
,
0001
1000
0001
0000
0001
1000
0001
0000
,
0100
0000
1000
0010
1000
0100
1000
0000
,
0010
0000
0001
0100
0001
0010
0001
0000
,
2000
0000
0000
3000
,
0002
0000
0000
0003
,
0001
0000
1000
0000
0001
0100
1000
0000
,
0001
0000
0010
0100
0000
1000
0100
0000
,
1000
0100
1000
0000
0001
0010
0001
0000
,
1000
0100
1000
0000
0001
0010
0001
0000
,
1000
0000
0001
0000
1000
0010
0001
1000
,
0000
1000
0100
0000
0010
0100
0000
0100
,
0001
0010
0001
0000
1000
0100
1000
0000
,
0001
0010
0001
0000
1000
0100
1000
0000
,
0010
0000
0001
0000
0000
1000
1000
0000
,
0100
0000
1000
0000
0000
0001
0001
0000
,
0010
0000
1000
0000
0000
0001
0001
0000
,
0100
0000
0001
0000
0000
1000
1000
0000
,
0010
0000
0001
0000
0000
1000
1000
0000
,
0100
0000
1000
0000
0000
0001
0001
0000
,
1000
0000
0001
0000
0000
0100
0100
0000
,
1001
0010
0100
0010
,
1000
1100
0010
0110
,
0100
0101
0001
1001
,
1000
1100
0001
0101
,
0010
0110
0001
1001
,
2000
0000
0200
3000
,
0020
0300
0002
0030
,
1000
1003
1000
1000
,
0100
0000
0100
0000
0100
0100
0100
0000
,
0001
0000
1000
0000
0001
0010
1000
0000
,
0001
0000
0100
0010
0000
1000
0010
0000
,
1000
0010
1000
0000
0001
0100
0001
0000
,
1000
0010
1000
0000
0001
0100
0001
0000
,
1000
0000
0001
0000
1000
0100
0001
1000
,
0000
1000
0010
0000
0100
0010
0000
0010
,
0002
0000
0000
2000
0000
3003
0200
0000
,
0000
0000
0000
0300
,
1000
0000
0001
0000
1000
0010
0001
0000
,
1000
0000
0100
0010
0000
0001
0010
0000
,
0001
0010
0001
0000
1000
0100
1000
0000
,
0001
0010
0001
0000
1000
0100
1000
0000
,
1001
0000
0000
0000
,
0000
0010
0100
0010
,
0001
0100
0010
1000
,
0001
0010
0001
1000
0100
1000
0001
0000
,
1001
0000
0000
0000
;

//---------------dance-single - ----------------
#NOTEDATA:;
#CHARTNAME:;
#STEPSTYPE:dance-single;
#DESCRIPTION:;
#CHARTSTYLE:;
#DIFFICULTY:Hard;
#METER:12;
#RADARVALUES:0.492390,0.602933,0.185518,0.126933,0.043938,353.000000,334.000000,19.000000,13.000000,0.000000,0.000000,0.000000,0.000000,0.000000,0.492390,0.602933,0.185518,0.126933,0.043938,353.000000,334.000000,19.000000,13.000000,0.000000,0.000000,0.000000,0.000000,0.000000;
#CREDIT:;
#NOTES:
0000
0000
0000
0000
,
0000
0000
0000
0000
,
0000
0000
0000
0000
,
0000
0000
0000
0000
,
0000
0000
0000
0000
,
1000
1000
1000
0100
,
0010
0001
0001
0001
,
0010
0100
0100
0100
,
1001
0000
0000
0000
0001
1000
0001
0000
1000
0000
0000
0000
0001
0000
0000
0000
,
0100
0001
0100
1000
0010
0001
0010
1000
,
0100
0001
0100
1000
0010
0001
0010
1000
,
0100
1000
0001
0010
0001
1000
0100
1000
,
0001
0010
0001
1000
1001
0000
1001
0000
,
0010
1000
0010
0001
0010
0100
0010
0001
,
0100
1000
0100
0001
0100
0010
0100
1000
,
0200
0000
0300
0002
0000
0000
0103
0100
,
0100
0000
0000
0000
,
0100
0001
0100
1000
0010
0001
0010
1000
,
0100
0001
0100
1000
0010
0001
0010
1000
,
0100
1000
0001
0010
0001
1000
0100
1000
,
0001
0000
0010
0000
0001
0000
1000
0000
0001
0000
1000
0000
0010
0100
0010
0000
,
1000
0100
1000
0010
1000
0001
1000
0100
,
0001
0010
0001
0100
0001
1000
0001
0100
,
0002
0000
0000
0003
,
2000
0000
0001
3001
,
1000
0000
0001
0000
1000
0100
0001
0000
,
0001
0000
0010
0100
1000
0000
1000
0000
,
1000
0100
1000
0001
0010
0001
1000
0000
,
1000
0100
1000
0001
0010
0001
1000
1000
,
0001
1000
0001
1000
0100
1000
0100
0000
,
0001
0000
0010
1000
0100
0000
0100
0000
,
0001
0000
0001
0010
0100
1000
0100
0000
,
1001
0000
0000
0000
,
0010
0000
0001
0100
0000
1000
0100
0000
,
0100
0000
1000
0100
0000
0001
0100
0000
,
0010
0000
0001
0100
0000
1000
0100
0000
,
0100
0000
1000
0100
0000
0001
0100
0000
,
0010
0000
0001
0010
0000
1000
0010
0000
,
0100
0000
1000
0010
0000
0001
0010
0000
,
0010
0000
0001
0010
0000
1000
0010
0000
,
1001
0110
0011
1100
,
1000
0000
1100
0000
0010
0010
1001
0000
,
0001
0000
0101
0000
0100
0100
1001
0000
,
1000
0000
1100
0000
0010
0010
1001
0000
,
0001
0000
0101
0000
0100
0100
1001
0000
,
0020
0000
0200
0030
,
2000
0300
0002
3000
,
1000
1003
1000
1000
,
0100
0010
0100
0010
0100
0100
0100
0000
,
1000
0000
1000
0000
0100
0000
0010
0000
0010
0000
0001
0000
1000
0100
1000
0000
,
0010
0000
1000
0100
0000
0001
0100
0000
,
0001
0000
0001
0000
0010
0000
0100
0000
0100
0000
1000
0000
0001
0010
0001
0000
,
0100
1000
0100
0010
0010
0001
0000
0001
,
1000
0000
1000
0000
0100
0000
0010
0000
0010
0000
0001
0000
1000
0100
1000
0000
,
0010
0000
1000
0100
0000
1000
0100
0000
,
2000
0000
0000
0002
0000
3003
0200
0000
,
0000
0000
0000
0300
,
1000
0000
0100
0000
0100
0000
0010
0000
0001
0000
0001
0000
0100
0001
0100
0000
,
0001
0000
0010
0000
0010
0000
0100
0000
1000
0000
1000
0000
0001
0010
0001
0000
,
2000
0000
0000
0002
0000
3003
1001
0000
,
0000
0000
0000
0000
0100
0000
0100
0000
1000
0001
1000
0000
0000
0000
0000
0000
,
1001
0000
0000
0000
,
0100
0000
0100
0000
1000
0001
1000
0000
0001
0000
0100
0000
1000
0000
0000
0000
,
1000
0010
0100
0001
,
1000
0100
1000
0001
0010
0001
1000
0000
,
1001
0000
0000
0000
;

//---------------dance-single - ----------------
#NOTEDATA:;
#CHARTNAME:;
#STEPSTYPE:dance-single;
#DESCRIPTION:;
#CHARTSTYLE:;
#DIFFICULTY:Challenge;
#METER:13;
#RADARVALUES:0.650010,0.621485,0.117169,0.175754,0.190400,466.000000,454.000000,12.000000,18.000000,0.000000,0.000000,0.000000,0.000000,0.000000,0.650010,0.621485,0.117169,0.175754,0.190400,466.000000,454.000000,12.000000,18.000000,0.000000,0.000000,0.000000,0.000000,0.000000;
#CREDIT:;
#NOTES:
// measure 0
0000
0000
0000
0000
,  // measure 1
0000
0000
0000
0000
,  // measure 2
0000
0000
0000
0000
,  // measure 3
0000
0000
0000
0000
,  // measure 4
0000
0000
0000
0000
,  // measure 5
0020
0000
0000
2030
0000
0000
3002
0000
0023
0000
0000
0230
0000
0000
2300
0000
,  // measure 6
3001
0101
1100
0011
,  // measure 7
2010
0001
0100
3001
,  // measure 8
1001
0000
0000
0000
0001
0100
0001
0100
0002
0000
0000
0000
1003
0000
0000
0000
,  // measure 9
0010
0001
0100
1000
1000
0001
0100
0010
,  // measure 10
1000
0100
0010
1000
0001
0001
0010
0100
,  // measure 11
1000
0100
0010
0001
0010
1000
0100
0001
,  // measure 12
0010
0000
0100
0000
1000
0000
0001
0100
0001
0000
0000
0000
0110
0000
0000
0000
,  // measure 13
1000
0100
0001
0001
0010
0100
1000
0010
,  // measure 14
0001
0100
0010
0001
1000
0100
0010
1000
,  // measure 15
0100
0000
0010
0000
0001
0000
0100
0000
0010
0000
1000
0000
0001
1000
0001
1000
,  // measure 16
0002
0103
0020
1030
,  // measure 17
0100
1000
0001
0010
0001
1000
0100
0010
,  // measure 18
0100
1000
0010
0001
0100
1000
0001
0010
,  // measure 19
0100
1000
0001
0001
0010
1000
0100
0010
,  // measure 20
0001
0000
0010
0000
0001
0000
0100
0000
0010
0000
1000
0000
0100
1000
0100
0000
,  // measure 21
0010
0001
1000
0010
0001
0001
1000
0010
,  // measure 22
0100
1000
0100
0010
0100
0001
0100
0100
,  // measure 23
1000
0010
1000
0100
0001
1000
0010
0001
,  // measure 24
1100
0000
0000
0000
0010
0100
0010
0100
0010
0000
1000
0000
0001
0000
1000
0000
,  // measure 25
0010
1000
0100
0010
1000
0001
0100
0001
,  // measure 26
0010
0100
1000
1000
0010
1000
0100
0001
,  // measure 27
0010
0010
0001
0010
0100
0001
0010
1000
,  // measure 28
0010
0000
0001
0000
0100
0000
0010
0000
1000
0000
0001
0000
0100
0010
0100
0000
,  // measure 29
0001
0010
1000
0100
1000
0010
0100
1000
,  // measure 30
0010
0100
1000
0001
0010
1000
0100
0001
,  // measure 31
1000
0010
0100
0001
0010
0001
0100
0001
,  // measure 32
0012
2003
3002
0203
,  // measure 33
0310
0000
1000
0100
1000
0000
0010
0000
0100
0000
0000
0001
0000
0000
1000
0000
,  // measure 34
0000
0000
0010
0100
0010
0000
1000
0000
0001
0000
0000
0010
0000
0000
0100
0000
,  // measure 35
0000
0000
1000
0010
1000
0000
0100
0000
0010
0000
0000
0001
0000
0000
1000
0000
,  // measure 36
0000
0000
0001
0010
0001
0000
0100
0000
0001
0000
0000
1000
0000
0000
0100
0000
,  // measure 37
0000
0000
1000
0010
0000
0010
0100
0000
0001
0000
0000
1000
0000
0000
0001
0000
,  // measure 38
0000
0000
0010
0001
0000
0001
0100
0000
0010
0000
0000
1000
0000
0000
0100
0000
,  // measure 39
0000
0000
1000
0001
0000
0001
0010
0000
0001
0000
0000
0100
0000
0000
1000
0000
,  // measure 40
0010
0100
0101
1100
,  // measure 41
0001
0000
0010
0000
0100
0000
1000
0000
0010
0000
0000
1000
0000
0000
0001
0000
,  // measure 42
0100
0000
0010
0000
1000
0000
0001
0000
1000
0000
0000
0100
0000
0000
0001
0000
,  // measure 43
1000
0000
0001
0000
0010
0000
0100
0000
0010
0000
0000
0001
0000
0000
0100
0000
,  // measure 44
0001
0000
1000
0000
0100
0000
0010
0000
0001
0000
0000
1000
0000
0000
0010
0000
,  // measure 45
1000
1000
0100
0100
0010
0010
0001
0001
,  // measure 46
0100
0100
0010
0010
1000
1000
0001
0001
,  // measure 47
0010
0100
0010
0001
0100
0010
1000
0001
,  // measure 48
0010
0000
0010
0000
0001
1000
0001
1000
0001
0000
0100
0000
0100
0000
0000
0000
,  // measure 49
1000
0010
0001
0100
0001
0010
0100
1000
,  // measure 50
0100
0001
1000
0010
0001
1000
0100
0010
,  // measure 51
1000
0100
0001
1000
0010
0100
0010
0001
,  // measure 52
1000
0100
0001
0010
0100
0010
1000
0001
,  // measure 53
0010
0100
0001
1000
0100
0001
1000
0010
,  // measure 54
0100
1000
0010
0001
0100
0010
0001
1000
,  // measure 55
0010
0001
1000
0100
0001
0100
0010
1000
,  // measure 56
0100
0000
0010
0000
0001
0000
0100
0000
0010
0000
1000
0000
0100
0010
0001
0000
,  // measure 57
1000
0001
0010
0010
0100
0001
1000
0010
,  // measure 58
0100
1000
0010
0001
1000
0001
0100
0010
,  // measure 59
1000
0100
0001
0010
0100
0001
1000
0100
,  // measure 60
0010
0000
1000
0000
0100
0000
0001
0000
1000
0000
0001
0000
0100
0000
0010
0001
,  // measure 61
0100
0010
1000
0100
0001
0010
1000
0001
,  // measure 62
0010
0000
0001
0000
0100
0000
0010
1000
0001
0000
1000
0000
0100
0000
0010
0000
,  // measure 63
0012
0000
0103
0010
2000
0000
3001
0000
,  // measure 64
0100
0000
0100
0000
0010
1000
0001
1000
0010
0000
0100
0000
0100
0000
0000
0000
,  // measure 65
0220
0000
0000
0000
,  // measure 66
0000
0000
0000
0000
,  // measure 67
0330
0000
0000
0000
;
