#TITLE:R3;
#SUBTITLE:(CLUB ANOTHER VER.);
#ARTIST:tiger YAMATO;
#BANNER:R3 (CLUB ANOTHER VER.)-bn.png;
#BACKGROUND:R3 (CLUB ANOTHER VER.)-bg.png;
#JACKET:R3 (CLUB ANOTHER VER.)-jacket.png;
#MUSIC:R3 (CLUB ANOTHER VER.).ogg;
#SAMPLESTART:52.823;
#SAMPLELENGTH:20;
#DISPLAYBPM:157;
#BPMS:0=157;
#BGCHANGES:;

//---------------dance-single - ----------------
#NOTES:
     dance-single:
     :
     Beginner:
     4:
     :
0000
0000
0000
0000
,
0000
0000
0000
0000
,
0000
0000
0000
0000
,
0000
0000
0000
0000
,
0000
0000
0000
0000
,
0001
0001
0001
0001
,
0001
0000
0000
0000
,
1000
0000
0000
0010
,
0010
0000
0000
0000
,
0100
0000
0000
0001
,
0001
0000
0000
1000
,
1000
0000
0000
0100
,
0100
0000
0000
0010
,
0010
0000
0000
0001
,
0000
1001
0000
0110
,
0110
0000
0001
0000
,
0001
0000
0001
0000
,
1000
0000
1000
0000
,
1000
0000
1000
0000
,
0010
0000
0010
0000
,
1000
0000
1000
0000
,
0001
0000
0001
0000
,
0100
0000
0100
0000
,
0000
0001
0000
0001
,
0000
0001
0000
1001
,
0000
1000
0000
1000
,
1000
1000
1000
1000
,
1000
0000
0001
0000
,
0100
0100
0100
0100
,
0000
0010
0000
0001
,
0001
0001
0001
0001
,
0001
0000
1000
0000
,
0001
0000
1000
0000
,
0110
0000
0000
0000
,
0001
0001
0001
0001
,
0001
0000
1000
0000
,
0010
0010
0010
0000
,
1000
0000
0100
0000
,
0010
0010
0010
0000
,
0001
0000
0100
0000
,
0001
0001
0001
0000
,
1000
0000
0100
0000
,
1000
1000
1000
0000
,
0000
0010
0000
0010
,
0000
0010
0000
1000
,
1000
0000
0001
0000
,
1000
0000
0000
0000
,
1001
0000
0100
0000
,
1000
0000
0001
0001
,
0001
0000
0000
0000
,
0100
0100
0100
0100
,
0000
1001
0000
0110
;

//---------------dance-single - ----------------
#NOTES:
     dance-single:
     :
     Easy:
     6:
     :
0000
0000
0000
0000
,
0000
0000
0000
0000
,
0000
0000
0000
0000
,
0000
0000
0000
0000
,
0000
0000
0000
0000
,
0010
0010
0010
0010
,
1001
0100
1000
0100
,
0001
1000
0001
0100
,
1000
1000
1000
0100
,
0001
0001
0001
0100
,
0100
1000
0001
0100
,
0010
0001
1000
0100
,
1000
0001
0010
0100
,
0001
1000
0010
0100
,
0000
1000
0000
0000
0000
0001
0000
0000
,
0000
1000
0000
1000
,
0000
0001
0000
0001
,
0000
0010
0000
0100
,
0000
1000
0000
0100
,
0000
0001
0000
0100
,
0010
0001
1000
1000
,
0010
1000
0001
0001
,
0010
0001
0100
1000
,
0001
0001
0001
0001
,
0001
0001
0001
1000
,
0010
0010
0010
0010
,
0010
0010
1000
0001
,
1000
1000
0001
0001
,
0100
0100
1000
0100
,
0001
0001
1000
0100
,
1001
1001
0001
0100
,
1000
0100
0001
0100
,
0000
0100
0000
0100
,
0000
0000
0000
0000
,
0000
0000
0000
0000
,
1001
0100
0001
0100
,
1001
0100
1000
0100
,
1001
0001
0001
0100
,
1001
1000
1000
0100
,
0001
1000
0100
0010
,
0001
1000
0100
0010
,
0001
0100
0010
1000
,
0001
0100
0010
1000
,
1000
0100
0001
0100
,
0001
0100
1000
0100
,
0001
0100
1000
0100
,
1000
0100
0001
0100
,
1000
0000
0100
0100
,
0001
0000
0000
0100
,
0100
1000
0100
0001
,
0100
1010
1100
1001
,
0000
1000
0000
0000
0000
0001
0000
0000
;

//---------------dance-single - ----------------
#NOTES:
     dance-single:
     :
     Medium:
     7:
     :
0000
0000
0000
0000
,
0000
0000
0000
0000
,
0000
0000
0000
0000
,
0000
0000
0000
0000
,
0000
0000
0000
0000
,
0010
1000
0001
0100
,
1001
0100
1000
0100
,
0001
1000
0001
0100
,
1000
1000
1000
0100
,
0001
0000
0001
0000
0001
0000
0100
1000
,
0100
1000
0001
0100
,
0010
0001
1000
0100
,
1000
0001
0010
0100
,
0001
1000
0010
0100
,
0000
1000
0100
0000
0000
0001
0100
0000
,
1000
0100
0001
0100
,
1000
0100
1000
0100
,
0001
0100
1000
0100
,
0001
0100
0001
0100
,
0010
1000
0001
0100
,
0010
1000
0010
1000
,
0010
1000
0001
0001
,
1010
0101
1001
0100
,
0000
0001
0000
0001
0000
0001
0000
0001
,
0000
0001
0000
0001
0000
0100
1000
0000
,
0000
0010
0000
0010
0000
0010
0000
0010
,
0000
0010
0000
0010
0000
1000
0001
0000
,
1000
1000
0001
0001
,
0100
0000
0100
0000
1000
0100
0100
0000
,
0001
0001
1000
0100
,
1001
0000
1001
0000
0001
0100
0100
0000
,
1000
0100
0001
0100
,
0000
0100
0000
0100
,
0000
0000
0000
0000
,
0000
0000
0000
0000
,
1001
0100
0001
0100
,
1001
0100
1000
0100
,
1001
0001
0001
0100
,
1001
1000
1000
0100
,
1001
0100
0101
0010
,
1010
0001
0101
1000
,
1001
0010
0110
0001
,
0011
1000
1100
0001
,
1000
0100
0001
0100
,
0001
0000
0100
0000
1000
1000
0100
0000
,
0001
0100
1000
0100
,
1000
0000
0100
0000
0001
0001
0100
0000
,
1000
0000
0100
0100
,
0001
0000
0000
0100
,
0100
1000
0100
0001
,
0100
1010
1100
1001
,
0000
1000
1000
0000
0000
0001
0100
0000
;

//---------------dance-single - ----------------
#NOTES:
     dance-single:
     :
     Hard:
     10:
     :
0000
0000
0000
0000
,
0000
0000
0000
0000
,
0000
0000
0000
0000
,
0000
0000
0000
0000
,
0000
0000
0000
0000
,
0010
0010
1000
1001
,
0001
0000
0000
0001
0000
0000
0001
0000
0000
0000
1000
0000
1000
0000
1000
0000
,
1000
0000
0000
0100
0000
0000
0010
0000
0000
0000
0001
0000
0001
0000
0001
0000
,
0001
0000
0000
0100
0000
0000
0010
0000
0000
0000
1000
0000
1000
0000
1000
0000
,
1000
0000
0000
0100
0000
0000
0010
0000
0000
0000
0001
0000
0001
0000
1000
0000
,
0100
0000
0000
0100
0000
0000
0100
0000
0000
0000
0100
0000
0100
0000
1000
0000
,
0100
0000
0000
0100
0000
0000
0100
0000
0000
0000
0100
0000
0100
0000
0001
0000
,
0100
0000
0000
0100
0000
0000
0100
0000
0000
0000
0100
0000
0001
0000
0100
0000
,
0001
0000
0000
0001
0000
0000
0001
0000
0000
0000
0001
0000
0001
0000
1000
0000
,
0000
0001
1000
0000
0000
0001
1000
0000
,
0001
0100
1000
0000
0010
0000
0010
0000
,
0001
0100
1000
0000
0010
0000
0010
0000
,
0001
0100
1000
0000
0010
0000
0010
0000
,
0001
0100
1000
0000
0010
0000
0010
0000
,
0010
1000
0100
0010
0001
0100
1000
0000
,
0010
1000
0100
0010
0001
0100
1000
0000
,
0010
1000
0100
0010
0001
0100
1000
0000
,
0010
1000
0100
0010
0001
0100
1000
0000
,
0010
0010
1000
1000
0100
0100
0010
0010
,
0001
0001
0100
0100
0001
0100
1000
0000
,
0010
0010
1000
1000
0100
0100
0010
0010
,
0001
0001
0100
0100
0001
0100
1000
0000
,
0001
0010
0100
1000
0001
0010
0100
1000
,
0001
0010
0100
1000
0001
0100
1000
0000
,
0010
1000
0001
0100
0010
1000
0001
0100
,
0010
1000
0001
0100
0010
1000
0100
0000
,
0001
0001
0100
0100
,
1000
1000
0100
0100
,
0000
0000
0000
0000
,
0000
0000
0000
0000
,
1001
1000
0001
1000
,
0001
1000
0001
1000
,
0010
0100
0010
0100
,
0010
0100
0010
0100
,
0001
1000
0001
1000
,
0001
1000
0001
1000
,
0100
0010
0100
0010
,
0100
0010
0100
0010
,
0001
0001
1000
1000
0100
0100
0010
0010
,
0001
0001
0100
0100
0010
1000
0100
0000
,
1000
1000
0001
0001
0100
0100
0010
0010
,
1000
1000
0100
0100
0010
0001
0100
0000
,
0001
0001
1000
1000
0001
0001
1000
1000
,
0001
0001
1000
1000
0010
0001
0100
0000
,
1000
1000
0010
0010
0001
0001
0010
0010
,
1000
1000
0100
0100
0001
0001
0100
0100
,
0000
1000
0001
0010
0000
0100
0010
1000
;

//---------------dance-single - ----------------
#NOTES:
     dance-single:
     :
     Challenge:
     13:
     :
0000
0000
0000
0000
,
0000
0000
0000
0000
,
0000
0000
0000
0000
,
0000
0000
0000
0000
,
0000
0000
0000
0000
,
0110
1001
0110
1001
,
0010
0000
0000
1000
0000
0000
0001
0000
0000
1000
0010
0000
0100
0000
0001
0000
,
0010
0000
0000
0100
0000
0000
1000
0000
0000
0010
1000
0000
0001
0000
0100
0000
,
0001
0000
0000
1000
0000
0000
0010
0000
0000
1000
0100
0000
0010
0000
0001
0000
,
0100
0000
0000
0010
0000
0000
1000
0000
0000
0001
0010
0001
0010
0000
0100
0000
,
1000
0000
0000
0010
0000
0000
0100
0000
0000
0010
0100
0000
0001
0000
1000
0000
,
0100
0000
0000
1000
0000
0000
0010
0000
0000
0100
0001
0000
0010
0000
0001
0000
,
1000
0000
0000
0010
0000
0000
1000
0000
0000
0100
0010
0000
0001
0000
0100
0000
,
0010
0000
0000
0100
0000
0000
0001
0000
0000
1000
0001
1000
0000
0100
1000
0100
,
1000
1100
1100
0000
0001
0101
0101
0000
,
0010
0100
1000
0100
0001
0010
1000
0010
,
0001
0100
1010
0000
1000
0101
0000
0000
,
0010
1000
0010
0001
0100
0010
0001
0010
,
1000
0100
0011
0000
0001
1100
0000
0000
,
0001
0100
0010
0001
0010
0100
0010
1000
,
0100
0010
1100
0000
0001
1010
0000
0000
,
0100
0001
0100
0010
0001
1000
0100
0001
,
0100
1000
0011
0000
0010
0101
0000
0000
,
1000
0010
0001
0010
0100
0010
0001
0010
,
1000
0010
0001
0010
0100
0010
0110
0000
,
0001
0010
1000
0010
0100
0010
1000
0010
,
0011
0000
1100
0000
0001
0001
0001
0001
,
0100
1000
0100
0001
0100
0010
0100
1000
,
0100
0010
0100
1000
0100
0001
1001
0000
,
0010
0001
0010
1000
0010
0100
0010
1000
,
1100
0000
0101
0000
1000
1000
1000
1000
,
0010
0100
1000
0100
0010
0100
0001
0100
,
1000
0000
0100
0000
0001
0000
0100
0000
1000
0000
0100
0000
0010
0000
0100
0002
,
2000
0000
0000
3003
,
0001
0000
1000
0100
0000
1000
0100
0000
0010
0000
0001
1000
0001
0000
0001
0000
,
0010
0000
0001
0000
0100
0000
0001
0000
0010
0000
0001
0000
1000
0100
1000
0000
,
0100
0000
1000
0001
0000
1000
0001
0000
0100
0000
0010
0000
1000
0100
1000
0000
,
0010
0000
1000
0000
0100
0000
1000
0000
0010
0000
1000
0000
0001
0100
0001
0000
,
0010
0000
0001
1000
0000
0001
1000
0000
0010
0000
0100
0000
0001
0010
0001
0000
,
0100
0000
0010
0000
1000
0000
0010
0000
0100
0000
0001
0000
1000
0100
1000
0000
,
0010
0000
0100
0001
0000
0100
0001
0000
1000
0000
0100
0000
1000
0010
1000
0000
,
0001
0000
1000
0000
0100
0000
1000
0000
0010
0000
0100
0000
0001
0010
0001
0000
,
0100
0000
0001
0010
0000
0001
0010
0000
0100
0000
1000
0000
0001
1000
0001
0000
,
0010
1000
0010
0100
0010
1000
0010
0001
,
0010
1000
0010
0001
0010
0100
1100
0000
,
1001
0001
0100
1000
0100
0010
0100
1000
,
0100
0010
0100
0001
0100
1000
0100
0010
,
0110
1000
0001
0010
0001
0100
0001
0010
,
0001
1000
0001
0100
0001
1000
1010
0000
,
0101
0010
1000
0100
1000
0001
1000
0010
,
0110
0000
1001
0000
1000
1000
1000
1000
,
0001
0011
0011
1001
0000
1100
1100
1001
;

//---------------dance-double - ----------------
#NOTES:
     dance-double:
     :
     Easy:
     8:
     :
00000000
00000000
00000000
00000000
,
00000000
00000000
00000000
00000000
,
00000000
00000000
00000000
00000000
,
00000000
00000000
00000000
00000000
,
00000000
00000000
00000000
00000000
,
00010000
00010000
00010000
00010000
,
00011000
01000000
01000000
01000000
,
00011000
00000100
00000100
00000100
,
00000001
00000100
00000100
00000100
,
00001000
00000000
00010000
00000000
01000000
00000000
10000000
10000000
,
01000000
01000000
01000000
01000000
,
00010000
00001000
00000100
00000001
,
00000100
00000100
00010000
00010000
,
10000000
10000000
01000000
01000000
,
00000000
00010000
00001000
00000000
00000000
00000001
00000100
00000000
,
00000000
00000100
00000000
00000100
,
00000000
00010000
00000000
00010000
,
00000000
01000000
00000000
01000000
,
00000000
00001000
00000000
00001000
,
00000000
00000100
00000000
00000100
,
00001000
00010000
01000000
01000000
,
00010000
00001000
00000100
00000100
,
00011000
01100000
10010000
01000000
,
00011000
00001000
00001000
00001000
,
00010000
00000000
00010000
00000000
00000001
00000100
00001000
00000000
,
00010000
00010000
00010000
00010000
,
00001000
00000000
00001000
00000000
10000000
01000000
00010000
00000000
,
00001000
00001000
00000010
00000010
,
00000001
00000000
00000001
00000000
00001000
00000100
00000100
00000000
,
00010000
01000000
10000000
01000000
,
01010000
00000000
01010000
00000000
10000000
01000000
01000000
00000000
,
00010000
00001000
00000100
00000001
,
00000000
00000100
00000000
00000100
,
00000000
00000000
00000000
00000000
,
00000000
00000000
00000000
00000000
,
00000101
00001000
00010000
01000000
,
11000000
00010000
00001000
00000100
,
00000101
00001000
00010000
01000000
,
11000000
00010000
00001000
00000100
,
00011000
00100000
00011000
00100000
,
00011000
00000010
00011000
00000010
,
00011000
00100000
10000000
01000000
,
00001000
00000010
00000001
00000100
,
00001000
00010000
01000000
10000000
,
00010000
00000000
00001000
00000000
00000001
00000100
00000100
00000000
,
00001000
00010000
01000000
10000000
,
00010000
00000000
00001000
00000000
00000001
00000100
00000100
00000000
,
00010000
00000000
00001000
00001000
,
10000000
00000000
00000000
01000000
,
01000000
00100000
00001000
00010000
,
00000100
00000101
00001000
00011000
,
00000000
10000000
10000000
00000000
00000000
00010000
01000000
00000000
;

//---------------dance-double - ----------------
#NOTES:
     dance-double:
     :
     Medium:
     10:
     :
00000000
00000000
00000000
00000000
,
00000000
00000000
00000000
00000000
,
00000000
00000000
00000000
00000000
,
00000000
00000000
00000000
00000000
,
00000000
00000000
00000000
00000000
,
10000000
00010000
00001000
00000001
,
00000001
00000000
00000000
00000001
00000000
00000000
00000001
00000000
00000000
00000000
00000001
00000000
00000001
00000000
00000001
00000000
,
00001000
00000000
00000000
00001000
00000000
00000000
00001000
00000000
00000000
00000000
00001000
00000000
00001000
00000000
00001000
00000000
,
00010000
00000000
00000000
00010000
00000000
00000000
00010000
00000000
00000000
00000000
00010000
00000000
00010000
00000000
00010000
00000000
,
10000000
00000000
00000000
10000000
00000000
00000000
10000000
00000000
00000000
00000000
10000000
00000000
10000000
00000000
10000000
00000000
,
10000000
00000000
00000000
10000000
00000000
00000000
10000000
00000000
00000000
00000000
00100000
00000000
10000000
00000000
01000000
00000000
,
00001000
00000000
00000000
00001000
00000000
00000000
00001000
00000000
00000000
00000000
00000010
00000000
00000001
00000000
00000100
00000000
,
00000001
00000000
00000000
00000001
00000000
00000000
00000001
00000000
00000000
00000000
00000010
00000000
00001000
00000000
00000100
00000000
,
00010000
00000000
00000000
00010000
00000000
00000000
00010000
00000000
00000000
00000000
00100000
00000000
10000000
00000000
01000000
00000000
,
00000000
10000000
01000000
00000000
00000000
00010000
01000000
00000000
,
10000000
01000000
10000000
00000000
00010000
00000000
00010000
00000000
,
01000000
00010000
01000000
00000000
00001000
00000000
00001000
00000000
,
00010000
00001000
00010000
00000000
00000100
00000000
00000100
00000000
,
00001000
00000100
00001000
00000000
00000001
00000000
00000001
00000000
,
00000010
00000001
00000100
00001000
00000100
00000001
00000101
00000000
,
00000010
00001000
00010000
00100000
01000000
10000000
11000000
00000000
,
00100000
00010000
00001000
00000010
00000100
00000001
00000101
00000000
,
00000010
00001000
00010000
00100000
01100000
00000000
10010000
00000000
,
10000000
10000000
00010000
00010000
01000000
01000000
00001000
00001000
,
00010000
00010000
00000100
00000100
00000010
00000001
00000100
00000000
,
00000001
00000001
00001000
00001000
00000100
00000100
00010000
00010000
,
00001000
00001000
01000000
01000000
00100000
10000000
01000000
00000000
,
00100000
10000000
01000000
00000000
10000000
01000000
00010000
00000000
,
00000010
00001000
00000100
00000000
00000110
00000000
00001001
00000000
,
00000010
00000001
00000100
00000000
00000001
00000100
00001000
00000000
,
00010000
00100000
10000000
01000000
00010000
01000000
10000000
00000000
,
00010000
00001000
00000010
00000101
,
00001000
00010000
00100000
11000000
,
00000000
00000000
00000000
00000000
,
00000000
00000000
00000000
00000000
,
00011000
00000000
00010000
00000000
00100000
00000000
10000000
01000000
,
00010000
00000000
00001000
00000000
00000010
00000000
00000001
00000100
,
00001000
00000000
00010000
00000000
00100000
00000000
10000000
01000000
,
00010000
00000000
00001000
00000000
00000010
00000000
00000001
00000100
,
00001000
00000000
00010000
00000000
00100000
00000000
10000000
10000000
,
01000000
00000000
00010000
00000000
00001000
00000000
00000001
00000001
,
00000100
00000000
00001000
00000000
00010000
00000000
10000000
10000000
,
01000000
00000000
00010000
00000000
00001000
00000000
00000001
00000001
,
00000001
00000001
00001000
00001000
00000100
00000100
00010000
00010000
,
00001000
00001000
01000000
01000000
00100000
10000000
01000000
00000000
,
10000000
10000000
00010000
00010000
01000000
01000000
00001000
00001000
,
00010000
00010000
00000100
00000100
00000010
00000001
00000100
00000000
,
00000001
00000100
00000010
00001000
00010000
01000000
00100000
10000000
,
00010000
01000000
00100000
10000000
00100000
10000000
01000000
00000000
,
10000000
01000000
00100000
00010000
00001000
00000100
00000010
00000001
,
00001000
00000100
00000010
00000001
00000010
00000001
00000100
00000000
,
00000000
00000010
00001000
00000100
00000000
00010000
01000000
00100000
;

//---------------dance-double - ----------------
#NOTES:
     dance-double:
     :
     Hard:
     12:
     :
00000000
00000000
00000000
00000000
,
00000000
00000000
00000000
00000000
,
00000000
00000000
00000000
00000000
,
00000000
00000000
00000000
00000000
,
00000000
00000000
00000000
00000000
,
11000000
00110000
00001100
00000011
,
00001001
00000000
00000000
00000010
00000000
00000000
00001000
00000000
00000000
00000001
00000000
00000000
00001000
00000000
00000100
00000000
,
00010000
00000000
00000000
01000000
00000000
00000000
10000000
00000000
00000000
00100000
00000000
00000000
01000000
00000000
00010000
00000000
,
10000000
00000000
00000000
00100000
00000000
00000000
00010000
00000000
00000000
00000100
00000000
00000000
00000001
00000000
00000010
00000000
,
00000100
00000000
00000000
00000010
00000000
00000000
00000001
00000000
00000000
00001000
00000010
00001000
00000010
00000000
00000100
00000000
,
00010000
00000000
00000000
01000000
00000000
00000000
00100000
00000000
00000000
10000000
00000000
00000000
01000000
00000000
00100000
00000000
,
00001000
00000000
00000000
00010000
00000000
00000000
01000000
00000000
00000000
10000000
00000000
00000000
00100000
00000000
01000000
00000000
,
01100000
00000000
00000000
00001000
00000000
00000000
00000010
00000000
00000000
00000001
00000000
00001000
00000001
00000000
00000100
00000000
,
00000010
00000000
00000000
00001000
00000000
00000000
00000001
00000000
00000000
00001000
00000100
00001000
00000100
00001000
00000100
00001000
,
00000000
00001001
00001001
00000000
00000000
00011000
00011000
00000000
,
00100000
00120000
00000000
01030000
02010000
00000000
03100000
10000000
,
00010000
01000000
10020000
00000000
10030000
02000000
00010000
00000000
,
13000000
10200000
00000000
00310000
00012000
00000000
00003010
00000001
,
00001000
00000010
00000102
00000000
00000013
00000200
00010000
00000000
,
00000301
00000210
00000000
00001300
00201000
00000000
01300000
00010000
,
00100000
01000000
21000000
00000000
30010000
02000000
00100000
00000000
,
13000000
01020000
00000000
00130000
00210000
00000000
01300000
10000000
,
00010000
01000000
01002000
00000000
00013000
00000200
00000001
00000000
,
00001300
00000100
00000010
00000001
00001000
00000010
00000100
00000001
,
00000010
00001000
00000010
00000100
00000010
00000001
00000101
00000000
,
00000010
00000100
00001000
00000100
00000001
00000010
00001000
00010000
,
01100000
00000000
10010000
00000000
01000000
01000000
01000000
01000000
,
00010000
00100000
10000000
00100000
01000000
00010000
01000000
00100000
,
00001000
01000000
00010000
01000000
10000000
01000000
01010000
00000000
,
00100000
10000000
00100000
00001000
00010000
00000100
00000010
00001000
,
00001100
00000000
00000011
00000000
00000100
00000100
00000100
00000100
,
00000001
00000010
00000001
00001000
00000000
00000100
00001000
00000001
,
00000000
00000000
00000100
00000000
00000010
00000000
00001000
00000000
00010000
00000000
00000100
00000000
00000010
00000000
00010000
00002000
,
00020000
00000000
00000000
00033000
,
00010000
00000000
00000000
00001000
00000000
00000000
00010000
00000000
01000000
00000000
10000000
00100000
10000000
00000000
00010000
00000000
,
00100000
00000000
00000000
00010000
00100000
00000000
01000000
00000000
10000000
00000000
00100000
00000000
10000000
00000000
00010000
00000000
,
01000000
00000000
00000000
00100000
01000000
00000000
10000000
00000000
01000000
00000000
00010000
00000000
00100000
00000000
00001000
00000000
,
00010000
00000000
00000000
00000010
00010000
00000000
00000100
00000000
00000001
00000000
00000100
00000000
00001000
00000000
00000010
00000000
,
00000100
00000000
00000000
00000001
00000100
00000000
00000010
00000000
00001000
00000000
00000100
00000000
00000001
00000000
00000100
00000000
,
00010000
00000000
00000000
00001000
00010000
00000000
00100000
00000000
10000000
00000000
00100000
00000000
01000000
00000000
10000000
00000000
,
00010000
00000000
00000000
01000000
00010000
00000000
00100000
00000000
10000000
00000000
00100000
00000000
01000000
00000000
00001000
00000000
,
00000001
00000000
00000000
00000010
00000001
00000000
00001000
00000000
00000010
00000000
00000001
00000000
00000010
00000000
00001000
00000000
,
00000100
00000000
00000000
00000010
00000001
00000000
00000100
00000000
00000010
00000000
00000001
00000000
00000010
00000000
00001000
00000000
,
00000100
00000010
00000001
00001000
00000000
00000100
00010000
00001000
,
00000000
01000000
00100000
10000000
00000000
01000000
01100000
00000000
,
10010000
10000000
00100000
01000000
00000000
00010000
10000000
00010000
,
00100000
10000000
00100000
00010000
00000000
00001000
00000100
00000001
,
00000011
00000100
00000001
00000010
00001000
00000010
00000001
00001000
,
00000000
00000100
00001000
00000001
00000000
00000100
00000110
00000000
,
00010010
00010000
00001000
00100000
01000000
10000000
00100000
01000000
,
01010000
00000000
10100000
00000000
10000000
10000000
10000000
10000000
,
00000000
10010000
10010000
10010000
00000000
00011000
00011000
00011000
;

//---------------dance-double - ----------------
#NOTES:
     dance-double:
     :
     Challenge:
     13:
     :
00000000
00000000
00000000
00000000
,
00000000
00000000
00000000
00000000
,
00000000
00000000
00000000
00000000
,
00000000
00000000
00000000
00000000
,
00000000
00000000
00000000
00000000
,
10010000
00001001
10010000
00001001
,
00011000
00000000
00000000
00010000
00000000
00000000
00001000
00000000
00000000
01000000
00100000
00000000
10000000
00000000
00010000
00000000
,
00100000
00000000
00000000
01000000
00000000
00000000
10000000
00000000
00000000
00100000
10000000
00000000
01000000
00000000
00010000
00000000
,
00000010
00000001
00000000
00000100
00000000
00000000
00000010
00000000
00000000
00001000
00000001
00000000
00001000
00000000
00000100
00000000
,
00000001
00000000
00000000
00000100
00000000
00000000
00010000
00000000
00000000
00001000
00100000
00001000
00100000
00000000
01000000
00000000
,
10000000
00100000
00000000
10000000
00100000
00000000
01000000
00000000
00000000
00001000
00010000
00000000
01000000
00000000
00100000
00000000
,
00010000
00000000
00000000
01000000
00000000
00000000
00100000
00000000
00000000
10000000
00000000
00010000
00100000
00000000
01000000
00000000
,
00001000
00000000
00000000
00000100
00000010
00000000
00000001
00000000
00000000
00000100
00000000
00000010
00001000
00000000
00000100
00000000
,
00010000
00000000
00000000
00000010
00001000
00000000
00000001
00000000
00000000
00001000
00000100
00001000
00000100
00001000
00000100
00001000
,
00000001
00000011
00001100
00000000
00010000
00110000
11000000
00000000
,
00100000
10000000
01000000
00010000
01000000
00100000
00010000
01000000
,
00001000
00100000
01100000
00000000
00010000
01010000
00000000
00000000
,
01000000
00001000
00000010
00000100
00000001
00000100
00001000
00000010
,
00000100
00000001
00001010
00000000
00000100
00010100
00000000
00000000
,
00000010
00000001
00001000
00000010
00000001
00000010
00010000
00001000
,
00000100
00000010
00010010
00000000
00001000
00011000
00000000
00000000
,
01000000
10000000
00100000
01000000
10000000
01000000
00010000
00100000
,
01000000
00100000
00110000
00000000
01000000
10100000
00000000
00000000
,
10000000
00100000
00001000
00100000
01000000
00100000
00010000
00100000
,
10000000
00100000
00001000
00000010
00010000
00000010
00000011
00000000
,
00000100
00000010
00000001
00000010
00010000
00000010
00001000
00000010
,
00000110
00000000
00001001
00000000
00000011
00001100
00000011
00001100
,
00000010
00010000
00000010
00000100
00000010
00001000
00000010
00000001
,
00000010
00010000
00100000
10000000
00100000
01000000
11000000
00000000
,
10000000
00010000
00001000
00010000
00100000
10000000
00100000
01000000
,
01100000
00000000
10010000
00000000
10100000
01010000
10100000
01010000
,
00100000
10000000
00100000
00001000
00100000
01000000
00100000
00010000
,
00000100
00000000
00001000
00000000
00000100
00000000
00000001
00000000
00000100
00000000
00000010
00000000
00000100
00000000
00001000
00020000
,
00002000
00000000
00000000
00033000
,
00010000
00000000
00001000
01000000
00000000
01000000
00100000
00000000
10000000
00000000
10000000
00010000
10000000
00000000
10000000
00000000
,
00100000
00000000
10000000
00000000
01000000
00000000
00010000
00000000
01000000
00000000
00100000
00000000
00010000
10000000
00010000
00000000
,
01000000
00000000
00100000
00000000
00001000
00000000
00100000
00000000
10000000
00000000
01000000
00000000
00100000
00010000
00100000
00000000
,
10000000
00000000
00100000
00000000
00001000
00000000
00000100
00000000
00000001
00000000
00001000
00000000
00000010
00000100
00000010
00000000
,
00000001
00000000
00000010
00000000
00001000
00000000
00000100
00000000
00010000
00000000
01000000
00000000
10000000
00010000
10000000
00000000
,
01000000
00000000
00100000
00000000
10000000
00000000
00100000
00000000
00010000
00000000
01000000
00000000
00100000
10000000
00100000
00000000
,
01000000
00000000
10000000
00000000
01000000
00000000
00001000
00000000
00010000
00000000
00001000
00000000
00000100
00000001
00000100
00000000
,
00000010
00000000
00000001
00000000
00000010
00000000
00010000
00000000
00000010
00000000
00001000
00000000
00000010
00000100
00000010
00000000
,
00001000
00000000
00000001
00000000
00001000
00000000
00000100
00000000
00000010
00000000
00001000
00000000
00100000
01000000
00100000
00000000
,
00010000
01000000
10000000
01000000
00100000
01000000
00001000
01000000
,
10000000
01000000
00100000
00010000
00000100
00000001
00001001
00000000
,
00010010
00010000
00001000
00010000
01000000
00010000
00000100
00010000
,
00100000
00010000
00001000
00010000
00000010
00010000
00001000
01000000
,
10010000
10000000
01000000
00010000
01000000
00100000
00010000
01000000
,
10000000
01000000
00100000
10000000
01000000
00100000
00101000
00000000
,
00010100
00000100
00000001
00000100
00000010
00000100
00001000
00000001
,
00001001
00000000
00000110
00000000
00000011
00001100
00000101
00001010
,
00000100
00001100
00001100
00011000
00000000
00110000
00110000
00011000
;
