#VERSION:0.83;
#TITLE:Queen of the Night Aria;
#SUBTITLE:(GITADORA Edition);
#ARTIST:BEMANI Sound Team "Sebas-chan";
#TITLETRANSLIT:;
#SUBTITLETRANSLIT:;
#ARTISTTRANSLIT:;
#GENRE:;
#ORIGIN:;
#TAGS:;
#CREDIT:;
#BANNER:Queen of the Night Aria (GITADORA Edition)-bn.png;
#BACKGROUND:Queen of the Night Aria (GITADORA Edition)-bg.png;
#PREVIEWVID:;
#JACKET:Queen of the Night Aria (GITADORA Edition)-jacket.png;
#CDIMAGE:;
#DISCIMAGE:;
#LYRICSPATH:;
#CDTITLE:;
#MUSIC:Queen of the Night Aria (GITADORA Edition).ogg;
#OFFSET:0.000000;
#SAMPLESTART:38.000000;
#SAMPLELENGTH:20.000000;
#SELECTABLE:YES;
#DISPLAYBPM:150.000000;
#BPMS:0.000000=150.000000;
#STOPS:;
#DELAYS:;
#WARPS:;
#TIMESIGNATURES:0.000000=4=4;
#TICKCOUNTS:0.000000=4;
#COMBOS:0.000000=1;
#SPEEDS:0.000000=1.000000=0.000000=0;
#SCROLLS:0.000000=1.000000;
#FAKES:;
#LABELS:0.000000=Song Start;
#BGCHANGES:;
#KEYSOUNDS:;
#ATTACKS:
;

//---------------dance-single - ----------------
#NOTEDATA:;
#CHARTNAME:;
#CHARTHASH:2138912376:
#STEPSTYPE:dance-single;
#BANNER:;
#DESCRIPTION:;
#CHARTSTYLE:;
#DIFFICULTY:Hard;
#METER:14;
#METERF:0.000000;
#RADARVALUES:0.692408,0.737186,0.599810,0.503067,0.328928,501.000000,439.000000,62.000000,52.000000,0.000000,0.000000,0.000000,0.000000,0.000000,0.692408,0.737186,0.599810,0.503067,0.328928,501.000000,439.000000,62.000000,52.000000,0.000000,0.000000,0.000000,0.000000,0.000000;
#CREDIT:;
#DISPLAYBPM:150.000000;
#NOTES:
0000
0000
0000
0000
0000
0000
0000
0000
0000
0000
0000
0000
0000
0000
1000
0001
,
0200
0000
0000
0000
0000
0010
0010
0310
,
1020
0000
1030
0001
0010
0010
0100
1000
,
2100
0000
0000
0000
3001
0000
1000
0100
0020
0000
0000
0000
0031
0000
0000
0000
,
0102
0000
0000
0000
0013
0000
0001
1000
0200
0000
0000
0000
1300
0000
0010
0000
,
0120
0000
0000
0000
1030
0000
0010
0100
0002
0000
0000
0000
0103
0000
0000
0000
,
0021
0000
0130
0000
1002
0000
0013
1000
,
1100
0000
0101
0000
2010
0000
3100
0010
,
0001
0000
0000
0001
0100
0000
0000
0100
0010
0000
0000
0010
1000
0000
0000
1000
,
0100
1001
0011
0101
,
0210
0000
0000
0000
0310
0000
1000
0001
1000
0000
0001
0100
0001
0000
1000
0100
,
2000
0001
0001
0000
3100
1000
1000
1010
,
0001
0001
0100
0100
0010
0010
1000
1000
,
1100
0000
0012
0000
1000
0000
0103
1001
,
1000
1000
0001
0001
0100
0100
0010
0010
,
1010
0000
0000
0000
1200
0000
0000
0000
0001
0000
0000
0000
1300
0010
1000
0010
,
0100
0000
0010
0000
1000
0000
0010
0000
0100
0000
0001
0000
0010
0100
1000
0001
,
1000
0010
0010
0010
0100
0100
0100
0001
,
0021
0000
0130
1000
1020
0000
0130
0010
,
1002
0100
0103
0010
1000
0001
1000
0100
,
1000
0010
1000
0010
1000
0000
0100
0000
0010
0001
0010
0001
0010
0000
0100
0000
,
1000
0001
1000
0010
0100
0001
0010
0010
,
0001
0100
0001
0100
0001
0000
0010
0000
0100
1000
0100
1000
0100
0000
0010
0000
,
0001
0000
0100
0000
0010
0000
1000
0000
0100
0000
0010
0000
0001
1000
0001
1000
,
0010
0010
0010
0010
0010
0010
0010
0010
,
0110
0000
0100
0000
0001
0000
1000
0000
0001
0000
0010
0000
0100
1000
0100
1000
,
0001
0001
0001
0001
0001
0001
0001
0001
,
0011
0000
1000
0000
0001
0000
0010
0000
0001
0000
0100
0000
0010
1000
0010
1000
,
0001
0001
0001
0100
0010
0010
0010
1000
,
0100
1000
1000
0001
0101
0100
0110
0010
,
1010
1000
1000
0100
1100
1000
1001
0001
,
0011
0000
0000
0000
2001
0001
3001
0100
,
0210
0001
0301
0010
1200
1000
1300
0010
,
2010
0000
0000
0000
3001
0000
0000
0000
1000
0010
1000
0000
0001
0100
0001
0000
,
0010
0000
0000
0000
0001
0000
0000
0001
1000
0000
0000
1000
0010
0000
0100
0000
,
0110
0010
1000
0100
0010
0001
0101
1000
,
1010
0010
0100
0001
1000
0010
1100
0001
,
0011
0100
0010
1000
0001
0010
0100
1000
,
0001
1001
1010
1100
,
0101
0000
0000
0000
0011
0000
0000
1000
0001
0000
0100
0000
0100
0000
0100
0000
,
0002
0013
2000
3100
,
1000
0010
1000
0010
0100
0010
0100
0001
0100
0001
1000
0001
,
1000
0000
0000
0100
0010
0100
0010
0001
1000
0001
1000
0100
,
1000
0000
0000
0001
0010
0001
0100
0001
0100
0010
1000
0100
,
1000
0000
0000
0000
0000
0000
0000
0000
0000
0000
0000
0000
0001
0000
0000
0000
0010
0000
0000
0000
0100
0000
0000
0000
1000
0000
0000
0000
0010
0000
0000
0000
0100
0000
0000
0000
0001
0000
0000
0000
0000
0000
1000
0000
0000
0001
0000
0000
,
0200
0010
0010
0310
1010
1000
1001
0001
,
0011
0001
0001
0100
0110
0010
1010
1000
,
1002
0100
0100
0103
0101
0001
0011
0010
,
1100
1000
1000
0001
0011
0001
0101
0100
,
0110
0010
0010
1000
0001
1000
0100
0100
,
1000
1000
0001
0001
0010
0010
0100
0100
,
1000
1000
0001
0001
0100
0100
0200
0000
,
0002
0000
0000
0000
0303
0000
0010
0100
2000
0000
0000
0000
3000
0000
0000
0000
,
0020
0000
0000
0000
0030
0000
1000
0001
0200
0000
0000
0000
0300
0000
0000
0000
,
0002
0003
2200
0300
,
3001
0000
0000
0001
0100
0000
0000
0100
0010
0000
0000
0010
1000
0000
0000
1000
,
0200
0000
0300
0000
2002
0000
0003
0001
,
3002
0000
0000
0000
0103
0000
0000
2020
0000
0000
0000
0000
3030
0000
0000
0202
,
0000
0000
0000
0000
,
0303
0000
2000
0000
0002
0000
3003
0100
,
0020
0000
0000
0000
0030
0000
0000
2000
0002
0000
0000
0000
3003
0000
0000
0000
,
1000
1000
0100
0100
0010
0010
0001
0001
,
0200
0300
0220
0330
,
2002
0000
3003
0000
;

//---------------dance-single - ----------------
#NOTEDATA:;
#CHARTNAME:;
#CHARTHASH:0:
#STEPSTYPE:dance-single;
#BANNER:;
#DESCRIPTION:;
#CHARTSTYLE:;
#DIFFICULTY:Medium;
#METER:11;
#METERF:0.000000;
#RADARVALUES:0.512741,0.583606,0.561113,0.812646,0.130604,371.000000,313.000000,58.000000,84.000000,0.000000,0.000000,0.000000,0.000000,0.000000,0.512741,0.583606,0.561113,0.812646,0.130604,371.000000,313.000000,58.000000,84.000000,0.000000,0.000000,0.000000,0.000000,0.000000;
#CREDIT:;
#DISPLAYBPM:150.000000;
#NOTES:
0000
0000
0000
0000
0000
0000
0000
0000
0000
0000
0000
0000
0000
0000
0000
1000
,
0002
0000
0000
0000
0003
0001
0001
0001
,
0202
0000
0303
0100
0010
0010
1000
1000
,
0002
0000
0000
0000
0103
0000
0000
0010
2000
0000
0000
0000
3000
0000
0000
0000
,
2200
0000
0000
0000
3300
0000
0000
1000
0002
0000
0000
0000
0013
0000
0100
0000
,
1100
0000
0000
0000
0101
0000
0000
0010
0200
0000
0000
0000
0300
0000
0000
0000
,
0012
0030
0000
0000
1003
0000
0000
0000
2010
0000
0000
0000
3001
0000
0010
0000
,
0200
2300
3002
1000
,
0013
0000
0000
0010
0001
0000
0000
0001
1000
0000
0000
1000
0100
0000
0000
0100
,
1000
1010
0101
0011
,
2200
0000
0000
0000
3300
0000
0000
0001
1000
0000
0000
1000
0100
0000
0000
0100
,
0020
0000
0001
0000
1000
0000
0130
0010
,
0001
0001
0100
0100
0010
0010
1000
1000
,
1001
0000
0210
0000
0002
0000
0303
1000
,
0100
0100
0010
0010
0001
0001
1000
1000
,
1010
0022
0000
0033
,
2001
0000
3200
0000
2300
0000
3001
0010
,
0001
0001
0001
0001
1000
1000
1000
1000
,
0020
0000
0030
1000
0002
0000
0003
0100
,
0020
0000
0001
0000
0100
0000
1030
0001
,
0010
0010
0010
0100
1000
1000
1000
0010
,
0200
0000
0010
0000
1000
0000
0301
0001
,
0001
1000
1000
1000
0010
0010
0010
0100
,
0002
0000
1000
0000
0100
0000
1003
0001
,
0010
0010
0010
0010
0010
0010
0010
0010
,
0220
0000
0000
0000
0330
0000
0100
0010
,
0001
0001
0001
0001
0001
0001
0001
0001
,
0022
0000
0000
0000
0033
0000
0001
0100
,
1000
1000
1000
0000
0001
0001
0001
0000
,
0100
0010
1000
0001
0101
0000
1100
0000
,
0101
1000
0010
0100
1010
0000
0011
0000
,
1010
0000
0000
0000
2200
0000
3300
0001
,
2002
0000
3003
0100
0202
0000
0303
0010
,
0220
0000
0330
0000
1000
0001
0100
0010
,
2000
0000
3020
0000
0230
0000
0301
1000
,
0002
0100
1003
1100
,
0021
1000
0130
0110
,
1100
0000
0010
0100
0001
0010
0100
1000
,
0001
0011
0110
1100
,
1001
0202
0000
0303
,
2000
3001
0200
0310
,
1000
0000
1000
0010
0000
0010
0100
0000
0100
0001
0000
0001
,
0010
0000
0000
0100
0000
0100
1000
0000
1000
0001
0000
0001
,
0100
0000
0000
0001
0000
0001
1000
0000
1000
0010
0000
0100
,
0001
0000
0000
0000
0000
0000
1000
0000
0000
0000
1000
0000
0100
0000
0000
0000
0100
0000
0010
0000
0000
0001
0000
0000
,
0201
0000
0310
0100
0110
0000
1001
0000
,
1010
1000
0100
0010
0011
0000
1100
0000
,
0102
0000
1003
0001
0011
0000
0110
0000
,
1100
0100
1000
0010
0110
0000
1001
0000
,
1010
0000
0001
1000
0010
1000
0100
0010
,
0002
0000
0103
0010
2000
0000
3001
0010
,
0200
0000
1300
0001
0100
0100
0100
0000
,
0220
0000
0000
0000
0330
0000
0000
1000
0002
0000
0000
0000
0003
0000
0000
0000
,
2200
0000
0000
0000
3300
0000
0000
0010
0200
0000
0000
0000
0300
0000
0000
0000
,
0202
0000
0303
0000
2000
0001
3001
0000
,
2000
3020
0230
0302
,
0013
0000
0000
0000
2002
0000
3003
1000
,
0100
0000
0000
0000
0100
0000
0000
2200
0000
0000
0000
0000
3300
0000
0000
0022
,
0000
0000
0000
0000
,
0033
0000
2000
0000
0002
0000
3003
0100
,
0020
0030
0202
0303
,
1000
0000
0010
1000
0100
0000
0010
0001
,
2000
3000
0220
0330
,
2002
0000
3003
0000
;

//---------------dance-single - ----------------
#NOTEDATA:;
#CHARTNAME:;
#CHARTHASH:0:
#STEPSTYPE:dance-single;
#BANNER:;
#DESCRIPTION:;
#CHARTSTYLE:;
#DIFFICULTY:Easy;
#METER:8;
#METERF:0.000000;
#RADARVALUES:0.398031,0.460741,0.522416,1.093203,0.009674,288.000000,234.000000,54.000000,113.000000,0.000000,0.000000,0.000000,0.000000,0.000000,0.398031,0.460741,0.522416,1.093203,0.009674,288.000000,234.000000,54.000000,113.000000,0.000000,0.000000,0.000000,0.000000,0.000000;
#CREDIT:;
#DISPLAYBPM:150.000000;
#NOTES:
0000
0000
0000
0000
,
2002
0000
0000
0000
3003
0000
0001
1000
,
0002
0000
0003
0100
0020
0000
2030
0000
,
3002
0103
0220
0330
,
0202
0000
0303
0000
2000
0000
3010
0100
,
0002
0013
2200
3300
,
2020
0000
3030
0000
0022
0000
0033
0001
,
2000
3020
0230
0300
,
0002
2003
3020
0230
,
0310
0110
1001
0110
,
2002
0000
3003
0010
2000
0000
3200
0000
,
0302
0010
1000
0013
,
1000
0100
1000
0000
0001
0100
0001
0000
,
0011
0022
0000
0033
,
1000
0010
1000
0000
0001
0100
0001
0000
,
1100
2200
0000
3300
,
0202
0000
0000
0000
0303
0000
1000
0001
,
0010
0100
0010
0000
0001
1000
0001
0000
,
0202
0000
0303
1000
0020
0000
0030
0001
,
0200
1000
0001
0310
,
1000
0001
0100
0000
0001
1000
0100
0000
,
2010
0000
0001
0000
0100
0000
3010
1000
,
0001
1000
0010
0000
1000
0001
0010
0000
,
2020
0000
3030
2000
,
3010
0100
0010
0100
0010
0100
0010
0100
,
0020
0000
0000
0230
,
0301
1000
0001
1000
0001
1000
0001
1000
,
0002
0000
0000
0023
,
0031
0100
1000
0010
,
0100
0001
0011
1010
,
0011
0100
0101
1100
,
0101
0000
0020
0030
,
2000
0000
3000
0001
0020
0000
0030
0100
,
2000
0000
3000
0000
0001
1000
0001
1000
,
0200
0000
1000
0000
0001
0000
0310
0100
,
2000
0001
3001
1100
,
0102
1000
1003
1010
,
0011
0200
2300
3002
,
0103
1001
0110
1001
,
2100
0002
0003
3001
,
0022
0033
0202
0303
,
2000
3002
2003
3020
,
2030
3200
0320
0032
,
0203
0320
2030
3002
,
0023
0230
0320
0032
,
2003
3000
1010
0101
,
1010
0100
0011
1100
,
0022
0033
1001
0110
,
1001
0010
1100
0110
,
0011
0000
2000
0000
3002
0000
0013
0100
,
2000
3100
0002
0013
,
2000
0000
3001
0000
0100
0010
0200
0000
,
0020
0330
0202
0303
,
2000
3000
2200
3300
,
0002
0000
2000
3003
,
0010
0010
0100
0100
,
0010
0000
0000
0000
2020
0000
3030
1000
,
0002
0000
0000
0000
0003
0000
0000
0022
0000
0000
0000
0000
0033
0000
0000
2200
,
0000
0000
0000
0000
,
3300
0000
0020
0000
0200
0000
0330
0001
,
2000
3000
0220
0330
,
1000
0001
0010
0000
0001
1000
0100
0000
,
0010
0000
0220
0330
,
2002
0000
3003
0000
;

//---------------dance-single - ----------------
#NOTEDATA:;
#CHARTNAME:;
#CHARTHASH:0:
#STEPSTYPE:dance-single;
#BANNER:;
#DESCRIPTION:;
#CHARTSTYLE:;
#DIFFICULTY:Beginner;
#METER:5;
#METERF:0.000000;
#RADARVALUES:0.229421,0.274268,0.116092,0.077395,0.000000,166.000000,154.000000,12.000000,8.000000,0.000000,0.000000,0.000000,0.000000,0.000000,0.229421,0.274268,0.116092,0.077395,0.000000,166.000000,154.000000,12.000000,8.000000,0.000000,0.000000,0.000000,0.000000,0.000000;
#CREDIT:;
#DISPLAYBPM:150.000000;
#NOTES:
// measure 0
0000
0000
0000
0000
,  // measure 1
1001
0000
0000
0000
,  // measure 2
1000
0000
0001
0000
,  // measure 3
0100
0100
0100
0000
,  // measure 4
0010
0000
1000
0000
,  // measure 5
0001
0001
0001
0000
,  // measure 6
0100
0000
0010
0000
,  // measure 7
1000
1000
1000
0000
,  // measure 8
0001
0001
0001
0001
,  // measure 9
0001
0100
0100
0100
,  // measure 10
0010
0000
1000
1000
,  // measure 11
2000
0000
3000
0000
,  // measure 12
0001
0001
0001
0001
,  // measure 13
1000
2000
3000
0000
,  // measure 14
0010
0010
0010
0010
,  // measure 15
0100
0200
0300
0000
,  // measure 16
0110
0000
0000
0000
,  // measure 17
0001
0000
1000
0000
,  // measure 18
0100
0000
0100
0000
,  // measure 19
0100
0000
0000
0000
,  // measure 20
1000
0000
0001
0000
,  // measure 21
1001
0000
0000
0000
,  // measure 22
0100
0000
0010
0000
,  // measure 23
0110
0000
0000
0000
,  // measure 24
0010
0010
0010
0010
,  // measure 25
0020
0000
0030
0000
,  // measure 26
0001
0001
0001
0001
,  // measure 27
0002
0000
0003
0000
,  // measure 28
1000
0000
0001
0000
,  // measure 29
0010
0000
0001
0001
,  // measure 30
0001
0000
0100
0100
,  // measure 31
0100
0000
0001
0000
,  // measure 32
1000
0000
0001
0000
,  // measure 33
0010
0000
0100
0100
,  // measure 34
2000
0000
3000
0010
,  // measure 35
0010
0000
0000
0100
,  // measure 36
0100
0000
0000
0001
,  // measure 37
0001
0000
1000
0000
,  // measure 38
0010
0100
0100
0100
,  // measure 39
0001
2000
0000
3000
,  // measure 40
1001
0000
0110
0000
,  // measure 41
0000
1000
1000
1000
,  // measure 42
0000
0010
0010
0010
,  // measure 43
0000
0100
0100
0100
,  // measure 44
0000
0001
0001
0001
,  // measure 45
0010
0000
0100
1000
,  // measure 46
0100
0000
1000
0001
,  // measure 47
1000
0000
0010
0100
,  // measure 48
0010
0000
0100
0001
,  // measure 49
0010
0000
0000
0100
,  // measure 50
1000
1000
0001
0001
,  // measure 51
1000
0001
0100
0100
,  // measure 52
0010
0000
1001
0000
,  // measure 53
0010
0000
0110
0000
,  // measure 54
0001
0000
1001
0000
,  // measure 55
1000
0001
1000
0001
,  // measure 56
1000
0000
0010
0000
,  // measure 57
0100
0100
0001
0000
,  // measure 58
0110
0000
0000
0000
,  // measure 59
0000
1000
1000
0000
,  // measure 60
0001
0000
0020
0030
,  // measure 61
0001
0001
1000
1000
,  // measure 62
0001
0000
0110
0000
,  // measure 63
1001
0000
0000
0000
;
