#VERSION:0.83;
#TITLE:Puppet;
#SUBTITLE:;
#ARTIST:Faouzia;
#TITLETRANSLIT:;
#SUBTITLETRANSLIT:;
#ARTISTTRANSLIT:;
#GENRE:;
#ORIGIN:;
#CREDIT:;
#BANNER:Puppet-bn.png;
#BACKGROUND:Puppet-bg.png;
#PREVIEWVID:;
#JACKET:Puppet-jacket.png;
#CDIMAGE:;
#DISCIMAGE:;
#LYRICSPATH:;
#CDTITLE:;
#MUSIC:Puppet.ogg;
#OFFSET:-0.062500;
#SAMPLESTART:36.063000;
#SAMPLELENGTH:20.000000;
#SELECTABLE:YES;
#DISPLAYBPM:130.000000;
#BPMS:0.000=130.000;
#STOPS:;
#DELAYS:;
#WARPS:;
#TIMESIGNATURES:0.000=4=4;
#TICKCOUNTS:0.000=4;
#COMBOS:0.000=1;
#SPEEDS:0.000=1.000=0.000=0;
#SCROLLS:0.000=1.000;
#FAKES:;
#LABELS:0.000=Song Start;
#BGCHANGES:;
#KEYSOUNDS:;
#ATTACKS:
;

//---------------dance-single - ----------------
#NOTEDATA:;
#CHARTNAME:;
#STEPSTYPE:dance-single;
#DESCRIPTION:;
#CHARTSTYLE:;
#DIFFICULTY:Hard;
#METER:11;
#RADARVALUES:0.482177,0.472424,0.438343,0.350674,0.008767,385.000000,335.000000,50.000000,40.000000,0.000000,0.000000,0.000000,0.000000,0.000000,0.482177,0.472424,0.438343,0.350674,0.008767,385.000000,335.000000,50.000000,40.000000,0.000000,0.000000,0.000000,0.000000,0.000000;
#CREDIT:;
#DISPLAYBPM:130.000000;
#NOTES:
0000
0000
0000
0000
,
0000
0000
0000
0000
,
0000
0000
0000
0000
,
0000
0000
0000
0000
1000
0100
0010
0001
,
0200
0000
0310
1000
0001
0000
0022
0000
,
0000
0000
0033
0000
0001
0100
0010
1000
,
0020
0000
0130
0001
1000
0000
2200
0000
,
0000
0000
3300
0000
1000
0001
1000
0010
,
0200
0001
0000
0000
0310
0100
0001
1000
,
0020
0100
0000
0000
1030
0001
1000
0100
,
0010
0001
2000
0000
3000
0000
1010
0000
,
0202
0000
0303
0000
1000
0001
0100
0000
,
0001
0010
1000
0010
0002
0000
0103
0010
,
2000
0000
3100
0000
0110
0001
1000
0010
,
0100
1000
0100
0001
0200
0000
0310
1000
,
0002
0000
0013
0000
1001
0100
0010
1000
,
0010
0001
0010
1000
0200
0000
1300
0001
,
0020
0000
0130
0000
0010
0001
0100
1000
,
2100
0000
3001
0000
0010
0100
1000
0001
,
0202
0000
0303
0000
0001
0010
0100
1000
,
1001
0000
0010
0100
0101
0000
0001
1000
,
0010
0100
0010
0001
0010
1000
0100
0010
,
0011
0000
1000
0001
1100
0000
0010
0100
,
0001
0010
0100
1000
0010
0001
0010
0100
,
0110
0000
0110
0000
0110
0001
1000
0000
,
0100
0000
0010
0001
0100
1000
0100
0010
,
1010
0000
1010
0000
1010
0100
0001
0000
,
1000
0001
1000
0001
0010
0100
0010
0100
,
0011
0000
0001
0100
1010
0000
1000
0010
,
1000
0100
0001
0100
0010
0100
1000
0001
,
1001
0000
0010
1000
1100
0000
0001
0100
,
0010
0001
0010
0100
0001
1000
0100
0010
,
0011
0000
0011
0000
0011
1000
0100
0000
,
0001
0000
1000
0001
0010
1000
0010
0100
,
1100
0000
1100
0000
1100
0010
0001
0000
,
1000
0000
0001
0000
0100
0010
0100
0000
0001
0000
0010
0000
1000
0000
0000
0000
,
1001
0000
0000
0001
0100
0010
2000
0000
,
0000
3002
0000
0100
0203
0000
0310
1000
,
0000
0000
0000
1000
0001
0010
0200
0000
,
0000
0320
0000
0001
0032
0000
1003
0001
,
0101
0000
0101
1000
0001
0010
0200
0000
,
0000
2300
0000
0010
3020
0000
0130
0001
,
1100
0000
0010
1000
0001
0100
0002
0000
,
0013
0001
0100
0001
1000
0010
0100
0001
,
0022
0000
0033
0000
2020
0000
3030
0001
,
1000
0001
0010
0000
0002
0000
0103
0010
,
0202
0303
2200
3300
,
1000
0001
0010
0000
0200
0000
1300
0010
,
1001
0000
1001
0000
1001
0010
0000
0000
,
0000
0000
0001
0010
1000
0001
0100
1000
,
0101
0000
0101
0000
0101
1000
0000
0000
,
0001
0000
1000
0010
1000
0000
0100
0000
0001
0000
0100
0000
0010
0000
0001
0000
,
1001
0000
0010
1000
0100
0100
0100
0000
,
1000
0010
0100
0001
0010
0100
1000
0001
,
0110
0000
0100
1000
0001
0001
0001
0000
,
1000
0001
0010
0100
1000
0010
0100
0001
,
1001
0000
1001
0000
1001
0100
0010
0000
,
0001
0000
1000
0001
1000
0010
0100
0001
,
0110
0000
0110
0000
0110
1000
0001
0000
,
0010
0001
0100
0010
1000
0100
0010
0001
;

//---------------dance-single - ----------------
#NOTEDATA:;
#CHARTNAME:;
#STEPSTYPE:dance-single;
#DESCRIPTION:;
#CHARTSTYLE:;
#DIFFICULTY:Medium;
#METER:9;
#RADARVALUES:0.328131,0.341195,0.175337,0.227938,0.000000,262.000000,242.000000,20.000000,26.000000,0.000000,0.000000,0.000000,0.000000,0.000000,0.328131,0.341195,0.175337,0.227938,0.000000,262.000000,242.000000,20.000000,26.000000,0.000000,0.000000,0.000000,0.000000,0.000000;
#CREDIT:;
#DISPLAYBPM:130.000000;
#NOTES:
0000
0000
0000
0000
,
0000
0000
0000
0000
,
0000
0000
0000
0000
,
0000
0000
1000
0001
,
0010
0010
0001
0100
,
0000
0000
0010
0100
,
1000
1000
0001
0100
,
0000
0000
0010
0100
,
1001
0000
0001
1000
,
0110
0000
0001
0010
,
1000
0001
1000
0000
0000
0000
1010
0000
,
0101
0000
0000
0000
0100
0010
0100
0000
,
0001
0010
1000
0001
,
1000
0001
0010
0100
,
0010
0100
0001
0010
,
0001
0100
1000
0010
,
1000
0001
0010
1000
,
0100
0000
0010
0000
0001
1000
0001
0000
,
0022
0000
0033
0000
0010
0100
0010
0000
,
2200
0000
3300
0000
0001
0100
0010
0100
,
0002
0013
2000
3100
,
1000
0001
0100
0000
1010
0000
0001
1000
,
0200
1300
0020
1030
,
0001
0010
0100
0000
0011
0000
0001
1000
,
0010
0000
0010
0000
0010
0010
0000
0000
,
1000
0000
0001
0000
1000
0100
0001
0000
,
0100
0000
0100
0000
0100
0100
0000
0000
,
0001
0000
1000
0000
0010
0100
0010
0100
,
0002
1003
0200
0310
,
0001
1000
0010
0000
0101
0000
1000
0100
,
0020
0031
2000
3010
,
1000
0001
0010
0000
1100
0000
1000
0010
,
1000
0000
1000
0000
1000
1000
0000
0000
,
0010
0000
0100
0000
0010
1000
0100
0000
,
0001
0000
0001
0000
0001
0001
0000
0000
,
1000
0000
0110
0000
0001
0100
0010
0000
,
1001
0100
1000
0001
,
0010
0001
0100
1000
,
0010
0100
0010
1000
,
0100
0001
1000
0010
,
0110
0110
0001
0010
,
1000
0001
1000
0100
,
0010
0001
0100
1000
,
0010
0000
0100
0000
0001
1000
0001
1000
,
0002
0003
2000
3000
,
0010
0100
0101
1100
,
0020
0030
0200
0300
,
0001
0010
1100
0011
,
0100
0000
0010
0000
0100
0010
0000
0000
,
0000
0000
1001
0000
0010
1000
0100
0000
,
1000
0000
0001
0000
1000
0001
0000
0000
,
0010
0001
0100
0000
0010
1000
0100
0000
,
1001
0000
0000
0010
1000
0010
2000
0000
,
0000
3200
0000
0310
0002
0000
1003
0001
,
0010
0000
0000
0001
0100
0001
0200
0000
,
0000
0320
0000
1030
0002
0000
1003
0100
,
2000
0000
3002
0000
0103
0010
0000
0000
,
1000
0000
0100
0000
0010
0001
1000
0000
,
0020
0000
0230
0000
0301
1000
0000
0000
,
0001
0000
1000
0000
0010
1000
0100
0001
;

//---------------dance-single - ----------------
#NOTEDATA:;
#CHARTNAME:;
#STEPSTYPE:dance-single;
#DESCRIPTION:;
#CHARTSTYLE:;
#DIFFICULTY:Easy;
#METER:5;
#RADARVALUES:0.215414,0.261910,0.140270,0.000000,0.000000,172.000000,156.000000,16.000000,0.000000,0.000000,0.000000,0.000000,0.000000,0.000000,0.215414,0.261910,0.140270,0.000000,0.000000,172.000000,156.000000,16.000000,0.000000,0.000000,0.000000,0.000000,0.000000,0.000000;
#CREDIT:;
#DISPLAYBPM:130.000000;
#NOTES:
0000
0000
0000
0000
,
0000
0000
0000
0000
,
0000
0000
0000
0000
,
0000
0000
0000
0000
,
1000
0100
1000
1000
,
0000
0000
0110
0000
,
0001
0100
0001
0001
,
0000
0000
0010
0000
,
0110
0000
0001
0000
,
1001
0000
1000
0000
,
0010
0100
0000
0001
,
1000
0000
1001
0000
,
0010
1000
0001
0000
,
0100
0000
0010
0000
,
1000
0100
0001
0000
,
0010
0000
0100
0000
,
1000
0010
0100
0000
,
0001
0000
0010
0001
,
0101
0000
1000
0100
,
1100
0000
0010
0100
,
0110
0000
1001
0000
,
0001
0100
1000
0010
,
1001
0000
0110
0000
,
1000
0100
0001
0010
,
1000
1000
1000
0000
,
0000
0010
1000
0100
,
0001
0001
0001
0000
,
0010
0000
0001
1000
,
1100
0000
0101
0000
,
0010
0100
0001
1000
,
0101
0000
1100
0000
,
1000
0100
0010
0001
,
0100
0100
0100
0000
,
0000
0001
1000
0001
,
0010
0010
0010
0000
,
0001
0100
1000
0000
,
0000
0100
0000
0100
,
0000
0010
0000
0010
,
0000
1000
0000
1000
,
0000
0001
0000
0001
,
0000
0010
0000
0001
,
0000
0100
0000
1000
,
0000
0001
0000
1000
,
0000
0000
0010
0100
,
0001
0000
1000
0000
,
0001
0010
0100
1000
,
0010
0000
0100
0000
,
0010
1000
0100
0001
,
1000
1000
1000
0000
,
0000
0010
1000
0010
,
0100
0100
0100
0000
,
0001
0001
1000
1000
,
1001
0000
1000
0100
,
0001
0010
0100
1000
,
0110
0000
0010
1000
,
0100
0010
0001
1000
,
0010
0010
0010
0000
,
0000
1000
0100
0010
,
0001
0001
0001
0000
,
0100
0000
0100
0001
;

//---------------dance-single - ----------------
#NOTEDATA:;
#CHARTNAME:;
#STEPSTYPE:dance-single;
#DESCRIPTION:;
#CHARTSTYLE:;
#DIFFICULTY:Beginner;
#METER:2;
#RADARVALUES:0.110212,0.183337,0.000000,0.000000,0.000000,88.000000,88.000000,0.000000,0.000000,0.000000,0.000000,0.000000,0.000000,0.000000,0.110212,0.183337,0.000000,0.000000,0.000000,88.000000,88.000000,0.000000,0.000000,0.000000,0.000000,0.000000,0.000000,0.000000;
#CREDIT:;
#DISPLAYBPM:130.000000;
#NOTES:
// measure 0
0000
0000
0000
0000
,  // measure 1
0000
0000
0000
0000
,  // measure 2
0000
0000
0000
0000
,  // measure 3
0000
0000
0000
0000
,  // measure 4
1000
0000
1000
0000
,  // measure 5
0000
0000
0000
0000
,  // measure 6
0001
0000
0001
0000
,  // measure 7
0000
0000
0000
0000
,  // measure 8
0100
0000
0000
0000
,  // measure 9
0100
0000
0000
0000
,  // measure 10
0010
0000
0000
0000
,  // measure 11
0010
0000
0000
0000
,  // measure 12
1000
0000
1000
0000
,  // measure 13
1000
0000
0000
0000
,  // measure 14
0100
0000
0100
0000
,  // measure 15
0100
0000
0000
0000
,  // measure 16
0001
0000
0001
0000
,  // measure 17
0001
0000
0000
0000
,  // measure 18
0010
0000
0010
0000
,  // measure 19
0010
0000
0000
0000
,  // measure 20
0001
0000
1000
0000
,  // measure 21
0100
0000
0100
0000
,  // measure 22
1000
0000
0001
0000
,  // measure 23
0010
0000
0010
0000
,  // measure 24
0001
0001
0001
0000
,  // measure 25
0000
0000
0000
0000
,  // measure 26
1000
1000
1000
0000
,  // measure 27
0000
0000
0000
0000
,  // measure 28
0010
0000
0100
0000
,  // measure 29
0001
0000
0001
0000
,  // measure 30
0100
0000
0010
0000
,  // measure 31
1000
0000
1000
0000
,  // measure 32
0010
0010
0010
0000
,  // measure 33
0000
0000
0000
0000
,  // measure 34
0100
0100
0100
0000
,  // measure 35
0000
0000
0000
0000
,  // measure 36
0000
0000
0001
0001
,  // measure 37
0000
0000
1000
0000
,  // measure 38
0000
0000
0100
0100
,  // measure 39
0000
0000
0010
0000
,  // measure 40
0000
0000
0010
0010
,  // measure 41
0000
0000
0001
0000
,  // measure 42
0000
0000
1000
1000
,  // measure 43
0000
0000
0100
0000
,  // measure 44
1000
0000
1000
0000
,  // measure 45
1000
0000
0000
0000
,  // measure 46
0010
0000
0010
0000
,  // measure 47
0010
0000
0000
0000
,  // measure 48
0100
0100
0100
0000
,  // measure 49
0000
0000
0000
0000
,  // measure 50
0001
0001
0001
0000
,  // measure 51
0000
0000
0000
0000
,  // measure 52
0000
0000
1000
1000
,  // measure 53
0000
0000
0001
0001
,  // measure 54
0000
0000
0100
0100
,  // measure 55
0000
0010
0010
0000
,  // measure 56
1000
1000
1000
0000
,  // measure 57
0000
0000
0000
0000
,  // measure 58
0010
0010
0010
0000
,  // measure 59
0000
0000
0001
0001
;
