#TITLE:Pump It;
#ARTIST:The Black Eyed Peas;
#BANNER:Pump It-bn.png;
#BACKGROUND:Pump It-bg.png;
#JACKET:Pump It-jacket.png;
#MUSIC:Pump It.ogg;
#OFFSET:1.15;
#SAMPLESTART:22.287;
#SAMPLELENGTH:20;
#LASTBEATHINT:0.364;
#DISPLAYBPM:154;
#BPMS:0=153.6;
#BGCHANGES:;

//---------------dance-single - ----------------
#NOTES:
     dance-single:
     :
     Beginner:
     3:
     :
0000
0000
0000
0000
,
0000
0000
0000
0000
,
0000
0000
0000
0000
,
0000
0000
0000
0000
,
0001
0000
0001
0000
,
1001
0000
0000
0000
,
0000
0000
0000
0000
,
0010
0000
0000
0000
,
0100
0000
0000
0000
,
0001
0000
0000
0000
,
1000
0000
0000
0000
,
0000
0000
0001
0001
,
0000
0000
1000
0000
,
0002
0000
0000
0003
,
0000
0000
0000
0000
,
0000
0000
0100
0100
,
0000
0000
0010
0010
,
0000
0000
1000
1000
,
0000
0000
0001
0001
,
0000
0000
0010
0010
,
0000
0000
0001
0001
,
0000
0000
0100
0000
,
0010
0000
1000
0000
,
0001
0001
0000
0000
,
1000
1000
0000
0000
,
0001
0001
0000
0000
,
0100
0000
0010
0000
,
1000
0000
0100
0000
,
0010
0000
0001
0000
,
1001
0000
0100
0000
,
0010
0000
1000
0000
,
0001
0001
0000
0000
,
1000
1000
0000
0000
,
0010
0010
0000
0000
,
0000
0000
0000
0000
,
1000
0000
0000
0000
,
0100
0000
0000
0000
,
0010
0000
0000
0000
,
0001
0000
0000
0000
,
0100
0000
0000
0000
,
0010
0000
0000
0000
,
1001
0000
0000
0000
,
1001
0000
0000
0000
,
0000
0000
1000
1000
,
0000
0000
0010
0000
,
0002
0000
0003
0000
,
2000
0000
3000
0000
,
0000
0000
0010
0010
,
0000
0000
1000
0000
,
0002
0000
0000
0003
,
0000
0000
0000
0000
,
1001
0000
0000
0000
,
0010
0000
0000
0000
,
0010
0000
0000
0000
,
0010
0000
0000
0000
,
0010
0000
0000
0000
,
0010
0010
0010
0010
,
0010
0000
1000
0000
,
0001
0000
0100
0000
,
0001
0000
0010
0000
,
0100
0000
1000
0000
,
0010
0000
1000
0000
,
0001
0000
0100
0000
,
0001
0000
1000
0000
,
1001
0000
0000
0000
,
0001
0000
0000
0000
,
0010
0000
0000
0000
,
0100
0000
0000
0000
,
1000
0000
0000
0000
,
0010
0000
0000
0000
,
0100
0000
0000
0000
,
1001
0000
0000
0000
,
1001
0000
0000
0000
,
0000
0000
0010
0010
,
0000
0000
1000
0000
,
0002
0000
0003
0000
,
2000
0000
3000
0000
,
0000
0000
0100
0100
,
0000
0000
0010
0000
,
0002
0000
0000
0003
,
0000
0000
0000
0000
,
0200
0300
0000
0000
0000
0000
0000
0000
;

//---------------dance-single - ----------------
#NOTES:
     dance-single:
     :
     Easy:
     7:
     :
0000
0000
0000
0000
,
0000
0000
0000
0000
,
0000
0000
0000
0000
,
0000
0000
0000
0000
,
0001
0000
0001
0000
,
1001
0100
0000
0100
,
0000
0100
0000
0100
,
0110
0000
0000
1000
0000
1000
0000
0000
,
1010
0000
0000
0100
0000
0100
0000
0000
,
0101
0000
0000
0010
0000
0010
0000
0000
,
1010
0000
0000
0001
0000
0001
0000
0000
,
0000
0010
1000
0001
,
0000
0110
0000
0000
0001
0000
1000
0000
,
0002
0000
0000
0003
,
0000
0010
0001
0100
,
1001
1000
0010
0100
,
0110
0010
1000
0100
,
1001
0001
0010
1000
,
0110
0010
0001
0100
,
1001
1000
0010
0100
,
0110
0010
1000
0001
,
1001
0100
0010
1000
,
0001
0100
0110
0110
,
1001
1001
0010
1000
,
0101
0101
0010
1000
,
1100
1100
0001
0100
,
1000
0010
0100
1001
,
0010
1000
0100
0110
,
0010
0001
0100
0110
,
1001
0000
0001
0100
,
1000
0010
0100
0001
,
1001
0000
0000
1000
0001
0020
0000
0000
,
0030
0000
0000
0001
1000
0020
0000
0000
,
0030
0000
0000
1000
0001
0020
0000
0000
,
1030
0100
0010
0001
,
0101
0000
0000
1000
0000
0001
0000
0000
,
1100
0000
0000
0010
0000
0100
0000
0000
,
1010
0000
0000
1000
0000
0100
0000
0000
,
0011
0000
0000
0010
0000
0001
0000
0000
,
1001
0000
0000
1000
0000
0010
0000
0000
,
0110
0000
0000
0100
0000
0001
0000
0000
,
1001
0000
0000
0010
0000
0100
0010
0000
,
0110
0000
0000
0001
0000
1000
0001
0000
,
1000
0010
0100
0001
,
0010
0100
1000
0010
,
0002
0000
0000
0003
,
2000
0000
0000
3000
,
0010
1000
0100
0100
,
0010
0001
0100
0100
,
0002
0000
0000
0003
,
0010
0001
0100
1000
,
1001
0000
0000
0002
0000
0000
0000
0000
,
0003
0000
0000
2000
0000
0000
0000
0000
,
3000
0000
0000
0020
0000
0000
0000
0000
,
2030
0000
0000
0000
0000
0000
3001
0200
,
0000
0020
0000
0000
0000
0000
0330
0000
,
0010
0010
0010
0010
,
1001
1000
0100
0001
,
0010
0000
0100
0000
1000
0001
1000
0000
,
0010
0100
0001
1000
,
0100
0000
0010
0000
0001
1000
0001
0000
,
1000
2000
0000
0000
0010
0000
3100
0000
,
0001
0002
0000
0000
0100
0000
0013
0000
,
1000
2000
0000
0000
0100
0000
3010
0000
,
0001
0001
1000
0000
0010
0000
1000
0000
,
1010
0000
0000
0010
0000
0100
0000
0000
,
0101
0000
0000
0001
0000
1000
0000
0000
,
0011
0000
0000
1000
0000
0010
0000
0000
,
1100
0000
0000
0001
0000
0100
0000
0000
,
0110
0000
0000
0001
0000
0010
0000
0000
,
1001
0000
0000
0100
0000
1000
0000
0000
,
1001
0000
0000
0010
0000
0100
0010
0000
,
0110
0000
0000
0001
0000
1000
0001
0000
,
1000
0010
1000
0100
,
0010
0001
0100
1000
,
0002
0000
0000
0003
,
2000
0000
0000
3000
,
0010
1000
0100
0100
,
0010
0001
0100
0100
,
0002
0000
0000
0003
,
0010
0001
0100
1000
,
0200
0300
0000
0000
0000
0000
0000
0000
;

//---------------dance-single - ----------------
#NOTES:
     dance-single:
     :
     Medium:
     11:
     :
0000
0000
0000
0000
,
0000
0000
0000
0000
,
0000
0000
0000
0000
,
0000
0000
0000
0000
,
0001
0000
0001
0000
,
1001
0000
1000
0010
0100
0000
0001
0000
,
0110
0000
0001
0100
0010
0000
1000
0000
,
1010
0000
1000
0100
0020
0000
0032
0000
,
0103
0000
0000
0010
0000
0000
1000
0000
0001
0000
0000
0010
0000
0000
0100
0000
,
2000
0000
3001
0100
0010
0000
0101
0000
,
0001
0000
0010
0100
1000
0000
1100
0000
,
0000
1000
0010
1000
0001
1000
0100
0000
,
0000
0011
0000
0001
0010
0100
1000
0000
,
0002
0000
0010
0010
0000
0000
0103
0000
,
0000
1000
0001
1000
0001
0010
0100
1000
,
0010
0000
1000
0100
0010
0100
1000
0000
,
1001
0000
0100
0010
1000
0001
1000
0000
,
1100
0000
0010
1000
0001
1000
0100
0000
,
0011
0000
0010
0001
0100
0010
1000
0000
,
0101
0000
0001
0010
0001
1000
0100
0000
,
1010
0000
0010
1000
0001
0010
0100
0000
,
0110
0000
0010
1000
0010
1000
0010
1000
,
0001
0010
0100
1000
0100
0010
0001
0000
,
0101
0000
1100
0000
1000
0100
0001
0000
,
1010
0000
0011
0000
1000
0010
0001
0000
,
0110
0000
1001
0000
0010
1000
0010
1000
,
0001
0010
0001
0100
0010
1000
0100
0000
,
1000
0100
0000
0100
0001
0000
0011
0000
,
0001
0100
0000
0100
1000
0000
1010
0000
,
1001
0000
0000
0000
0010
1000
0001
0000
,
1000
0100
1000
0001
0010
0100
1000
0000
,
0110
0000
0000
0001
1000
0020
0000
0000
,
0230
0000
0301
0020
0000
0000
1000
0000
,
0032
0000
1003
0020
0000
0000
0100
0000
,
0031
0010
1000
0100
1000
0010
0100
0001
,
0010
0001
0000
0101
0000
2200
0300
0000
,
3010
1000
0000
1002
0000
1003
0010
0100
,
0001
1000
0000
1010
0000
0022
0030
0000
,
0013
0100
0000
0210
0000
1300
0001
0100
,
0001
0010
0000
2001
0000
3010
1000
0100
,
0010
0001
0000
0120
0000
0031
0010
0100
,
2000
0000
3001
0010
0000
0001
0100
0000
,
0020
0000
1030
0001
0000
1000
0100
0000
,
0000
1000
0010
1000
0100
0010
0001
0000
,
0000
0011
0000
0001
1000
0010
0100
0000
,
0002
0000
0010
0010
0000
0000
1003
0000
,
2100
0000
0010
0010
0000
0000
3100
0000
,
0000
1000
0001
0010
0001
0100
1000
0000
,
0010
0000
0000
0010
0000
0000
0010
0000
1000
0000
0001
0000
0100
0000
0000
0000
,
0002
0000
0100
0100
0000
0000
0013
0000
,
0000
0001
1000
0001
0010
0100
1000
0010
,
0100
0000
0000
2020
0000
0000
0030
0000
,
3001
0000
0000
0022
0000
0000
0003
0000
,
1030
0000
0000
2200
0000
0000
3000
0000
,
0310
0000
0000
0202
0000
0000
0300
0000
,
1003
0000
0000
2002
0000
0000
0003
0000
,
3010
0010
0010
0010
,
0110
1000
0010
1000
0100
0010
0001
0100
,
0010
0001
0010
0100
0010
1000
0010
0000
,
1000
0001
0100
0010
1000
0100
0010
0001
,
0100
1000
0100
0010
0100
0001
0100
0000
,
0001
0001
0000
1000
0100
1000
0100
0000
,
1000
1000
0000
0010
0100
0010
0100
0000
,
0010
0010
0000
1000
0001
1000
0001
0000
,
0100
0100
0001
0010
0001
0010
0001
0010
,
0001
1000
0000
1100
0000
0202
0003
0000
,
0310
1000
0000
2001
0000
3001
0010
0100
,
1000
0010
0000
1010
0000
0022
0003
0000
,
0130
0010
0000
0210
0000
1300
0001
0100
,
0010
1000
0000
0120
0000
0130
0001
1000
,
0100
0010
0000
1002
0000
1003
0001
0100
,
0020
0000
1030
0001
0000
1000
0100
0000
,
0002
0000
1003
0010
0000
1000
0100
0000
,
0000
1000
0010
0100
0010
1000
0001
0000
,
0000
0011
0000
1000
0010
0100
0001
0000
,
0002
0000
0100
0100
0000
0000
1003
0000
,
1200
0000
0001
0001
0000
0000
1300
0000
,
0000
1000
0010
0100
0001
0010
1000
0000
,
0100
0000
0000
0100
0000
0000
0100
0000
1000
0000
0001
0000
0010
0000
0000
0000
,
0002
0000
0100
0100
0000
0000
0013
0000
,
0000
0001
0010
0001
0100
0010
1000
0001
,
0200
0300
0000
0000
0000
0000
0000
0000
;

//---------------dance-single - ----------------
#NOTES:
     dance-single:
     :
     Hard:
     13:
     :
0000
0000
0000
0000
,
0000
0000
0000
0000
,
0000
0000
0000
0000
,
0000
0000
0000
0000
,
0001
0000
0001
0000
,
1001
0000
0100
0100
0010
1000
0001
0100
,
0110
0000
0010
0010
1000
0001
1000
0000
,
1100
0001
0100
0020
1000
1030
0001
0000
,
0011
1000
0001
0200
0010
0310
1000
0000
,
1010
0100
0001
0020
1000
1030
0100
0000
,
0101
0010
1000
0020
0100
0130
0001
0000
,
1000
0010
0010
0100
0001
1000
1000
0000
,
0100
0011
0000
1000
1010
0010
0100
0000
,
0002
0000
0013
0010
0001
0100
1000
0000
,
0010
0000
1000
0001
1000
0000
0100
0000
0010
0000
0001
0000
0100
0000
0010
0000
,
1000
0000
0000
0000
0101
0000
0010
0100
0010
0000
1000
0000
0001
0000
0000
0000
,
1001
0000
0000
0000
1000
0100
1000
0000
0001
0000
0001
0000
0001
0000
0000
0000
,
0110
0000
0000
0001
0010
0000
0001
1000
0001
0000
0100
0000
0100
0000
0000
0000
,
1010
0001
0001
1000
0010
0010
0100
0000
,
1001
0000
0000
0000
1000
0010
1000
0000
0001
0000
0100
0000
0010
0000
0000
0000
,
0101
0000
0001
0000
1000
0100
1000
0000
0001
0100
0001
0000
0010
0000
0000
0000
,
0110
0000
0011
0001
0100
0010
1000
0001
,
1000
0000
0000
0010
0000
0000
0100
0000
0000
0001
0000
0000
1000
0000
0100
0000
0010
0000
0001
0000
0000
0000
0000
0000
,
1100
0000
0101
0010
1000
0100
1000
0001
,
1001
0000
0110
1000
1000
0001
0010
0100
,
0011
0000
1010
0000
0100
0010
1000
0001
,
0020
0001
0031
2000
0100
3100
1001
0000
,
2000
0010
3010
0200
0001
0301
0011
0000
,
0002
1000
1003
0020
0100
0130
0110
1000
,
0101
0000
0010
0010
1000
0001
0100
0000
,
0001
0010
1000
0001
0100
0010
1000
0000
,
1010
0000
0001
0100
1000
0010
0001
0000
,
1200
0000
1300
0010
0001
0010
1000
0000
,
0201
0000
0301
0010
1000
0010
0001
0000
,
0100
0010
1000
0001
1000
0100
0010
0001
,
0011
1000
0010
0200
0001
0301
1000
0000
,
1010
0010
1000
0200
0001
0301
0100
0000
,
0110
0001
1000
0020
1000
1030
0100
0000
,
1001
0010
1000
0002
0010
0013
0100
0000
,
1100
0010
1000
0002
1000
1003
0100
0000
,
0011
1000
0001
0200
0010
0310
1000
0001
,
0101
0000
0000
1000
0001
0000
0200
0000
0000
0000
0010
0000
0310
0000
0000
0000
,
1010
0000
0000
0100
1000
0000
0002
0000
0000
0000
0010
0000
0013
0000
0001
0000
,
0001
1000
0010
1000
0100
0010
0001
0000
,
0100
1001
0000
0010
1010
0001
0100
0000
,
0002
0000
0013
0010
0001
1000
0100
0000
,
0020
0000
0031
0001
1000
0010
0100
0000
,
0110
0001
0001
1000
0010
1000
0100
0000
,
2000
0000
0000
3020
0000
0000
0130
0000
0001
0000
1000
0000
1000
0000
0000
0000
,
0002
0000
1003
1000
0001
0010
0100
0000
,
1000
0010
1000
0001
0010
0100
1000
0001
,
0100
0000
0000
1010
0000
0000
0001
0100
,
1000
0000
0000
0011
0000
0000
0010
0001
,
0100
0000
0000
0110
0000
0000
0010
1000
,
0001
0000
0000
1100
0000
0000
0010
1000
,
0100
0000
0000
1001
0000
0000
1000
0001
,
0010
0010
0010
0010
,
1001
0000
0001
0100
0001
0000
1000
0100
1000
0000
0010
0000
0100
0000
0001
0000
,
0010
1000
0010
0100
0010
0001
0010
0000
,
0001
1000
0001
0000
0100
0000
0001
1000
0001
0000
0010
0000
0100
0000
1000
0000
,
0010
0001
0010
0100
0010
1000
0010
0000
,
1100
1100
0000
0001
1000
0100
0010
0000
,
0011
0011
0000
1000
0001
0010
0001
1000
,
0101
0101
0000
0010
1000
0001
0100
0000
,
1010
1010
0001
1000
0001
1000
0010
1000
,
1100
0001
0010
0200
1000
1300
0001
0000
,
0110
0001
1000
0020
0100
0130
0001
0000
,
0011
0100
0001
2000
0010
3010
0001
0000
,
1001
0100
0001
0020
1000
1030
0010
0000
,
0011
0001
0100
0020
1000
1030
0100
0000
,
1100
0010
1000
0002
1000
1003
0010
0100
,
0101
0000
0000
0010
1000
0000
0002
0000
0000
0000
0100
0000
0103
0000
0000
0000
,
1010
0000
0000
0001
1000
0000
0020
0000
0000
0000
0100
0000
0130
0000
0010
0000
,
0010
1000
0010
0100
0001
1000
0100
0000
,
0001
1010
0000
0100
1001
0010
1000
0000
,
0002
0000
1003
1000
0100
0010
0001
0000
,
0200
0000
0310
0010
1000
0001
0100
0000
,
1001
0010
1000
0001
1000
0100
0100
0000
,
0020
0000
0000
0032
0000
0000
1003
0000
0010
0000
0100
0000
0100
0000
0000
0000
,
0002
0000
1003
1000
0010
0100
0001
0000
,
0010
0001
1000
0001
0010
0100
1000
0001
,
0200
0300
0000
0000
0000
0000
0000
0000
;
