#TITLE:Pull Over;
#SUBTITLE:(Are You Ready);
#ARTIST:Darren Styles;
#BANNER:Pull Over (Are You Ready)-bn.png;
#BACKGROUND:Pull Over (Are You Ready)-bg.png;
#JACKET:Pull Over (Are You Ready)-jacket.png;
#MUSIC:Pull Over (Are You Ready).ogg;
#SAMPLESTART:99;
#SAMPLELENGTH:20;
#DISPLAYBPM:160;
#BPMS:0=160;
#BGCHANGES:;

//---------------dance-single - ----------------
#NOTES:
     dance-single:
     :
     Beginner:
     4:
     :
0000
0000
0000
0000
,
0000
0000
0000
0000
,
0000
0000
0000
0000
,
0000
0000
0000
0000
,
1000
0000
0100
0000
,
1000
0000
0001
0000
,
1000
0000
0100
0000
,
1000
0000
0010
0000
,
0100
0200
0300
0000
,
0010
0020
0030
0000
,
1000
2000
3000
0000
,
0001
0002
0003
0000
,
1000
2000
3000
0000
,
0010
0020
0030
0000
,
0100
0200
0300
0000
,
1001
0000
0110
0000
,
1000
0000
1000
0000
,
0010
0000
0010
0000
,
0100
0000
0100
0000
,
0001
0000
0001
0000
,
0010
0000
0001
0000
,
0100
0000
1000
0000
,
0010
0000
0100
0000
,
0110
0000
1001
0000
,
1000
0000
0001
0000
,
1000
0000
0100
0000
,
0010
0000
0100
0000
,
1000
0000
0001
0001
,
0001
0000
0010
0000
,
0001
0000
0100
0000
,
1000
0000
0010
0000
,
0110
0000
1001
0000
,
1000
1000
1000
1000
,
1000
0000
0000
0000
,
0000
0001
0000
0100
,
0000
0000
0010
0010
,
0010
0010
0000
1000
,
0000
0000
0000
0000
,
0001
0000
1000
0000
,
0100
0100
0100
0000
,
0020
0000
0000
0000
,
0000
0000
0030
0000
,
0001
0002
0000
0000
,
0003
0000
0000
0000
,
1000
0000
0010
0000
,
0100
0000
0001
0000
,
1000
2000
0000
0000
,
3000
0000
0000
0000
,
0001
0000
1000
0000
,
0010
0000
0100
0000
,
0001
0002
0003
0000
,
0010
0020
0030
0000
,
0100
0200
0300
0000
,
1000
2000
3000
0000
,
0010
0020
0030
0000
,
1000
2000
3000
0000
,
0100
0200
0300
0000
,
0110
0000
1001
0000
,
0010
0000
0010
0000
,
0100
0000
0100
0000
,
0001
0000
0001
0000
,
1000
0000
1000
0000
,
0100
0000
0010
0000
,
0100
0000
1000
0000
,
0001
0000
0100
0000
,
1001
0000
0110
0000
,
0010
0020
0030
0000
,
1000
2000
3000
0000
,
0001
0002
0003
0000
,
0100
0100
0010
0010
,
1000
2000
3000
0000
,
0001
0002
0003
0000
,
0010
0020
0030
0000
,
0110
0000
1001
0000
,
1000
0002
0003
0000
,
0010
0200
0300
0000
,
1000
0020
0030
0000
,
0100
0001
1000
1000
,
0001
0200
0300
0000
,
0010
2000
3000
0000
,
0001
0020
0030
0000
,
0001
1000
1001
0000
,
0220
0000
0000
0000
,
0000
0000
0000
0000
,
0000
0000
0000
0000
,
0330
0000
0000
0000
;

//---------------dance-single - ----------------
#NOTES:
     dance-single:
     :
     Easy:
     8:
     :
0000
0000
0000
0000
,
0000
0000
0000
0000
,
0000
0000
0000
0000
,
0000
0000
0000
0000
,
1000
0100
1000
0100
,
1000
0100
1000
0001
,
1000
0100
1000
0100
,
1000
0100
1000
0010
,
0110
0220
0330
0001
,
1001
2002
3003
0100
,
1010
2020
3030
1000
,
0101
0202
0303
0010
,
1001
0220
0330
0010
,
1010
0202
0303
0001
,
0011
2200
3300
0010
,
2000
3002
2003
3002
,
0013
0010
0100
0100
,
0010
0010
0100
0100
,
1000
1000
0001
0001
,
1000
1000
0001
0001
,
0100
0001
0010
1000
,
0100
0010
0001
1000
,
0010
1000
0100
0001
,
0010
1001
0110
1001
,
0110
1000
0010
0001
,
0010
0100
1000
0010
,
0100
0010
1000
0001
,
0010
0001
2000
3200
,
0310
0011
0001
0101
,
0100
0110
0010
1010
,
1000
1001
1000
1100
,
0010
0110
1001
0110
,
1001
0020
2030
3002
,
0203
0310
1000
0001
,
0010
0012
0103
2100
,
3010
0100
0002
2003
,
3010
0201
0310
2010
,
3001
0010
0001
1000
,
0100
0010
0100
1000
,
0001
0100
0010
0200
,
0320
0000
0000
0000
,
0000
0000
0000
0030
,
1001
2002
0000
3003
,
0000
1000
0000
0001
,
0000
0010
0000
0100
,
0000
2000
0002
3003
,
0110
0220
0000
0330
,
1000
0100
1000
0001
,
1000
0100
1000
0100
,
1000
0100
1000
0010
,
1010
2020
3030
0001
,
0011
0022
0033
0100
,
1100
2200
3300
0010
,
0101
0202
0303
1000
,
1001
2002
3003
0010
,
0110
0220
0330
0100
,
1001
0220
0330
0001
,
0200
0320
0230
0320
,
1030
1000
0001
0001
,
1000
1000
0001
0001
,
0010
0010
0100
0100
,
0010
0010
0100
0100
,
1000
0010
0100
0001
,
0010
0001
0100
1000
,
0001
0010
1000
0100
,
0010
0110
1001
0110
,
1001
2001
0010
3100
,
0110
0120
1000
0031
,
0011
0012
1000
0103
,
1001
0110
2000
3002
,
0013
0012
1000
0103
,
1010
2010
0100
3001
,
1001
1200
0001
0310
,
0100
1001
0110
1001
,
0110
0210
0001
0310
,
2000
3002
0010
0103
,
0011
2100
0010
3100
,
2000
3020
0230
0302
,
0013
0102
1000
0103
,
0011
1020
0001
1030
,
0020
2030
3002
0203
,
0302
2003
3020
0130
,
0220
0000
0000
0000
,
0000
0000
0000
0000
,
0000
0000
0000
0000
,
0330
0000
0000
0000
;

//---------------dance-single - ----------------
#NOTES:
     dance-single:
     :
     Medium:
     12:
     :
0000
0000
0000
0000
,
0000
0000
0000
0000
,
0000
0000
0000
0000
,
0000
0000
0000
0000
,
1000
0100
1000
0100
0000
0100
0000
0100
,
0000
0100
0000
0100
0000
0100
0001
0100
,
1000
0100
1000
0100
0000
0100
0000
0100
,
0000
0100
1000
0100
1000
0100
0010
0000
,
0011
0000
2200
0000
3300
0001
0100
0010
,
1010
0000
0202
0000
0303
1000
0001
0000
,
0011
0000
2020
0000
3030
1000
0001
0100
,
0101
0000
2200
0000
3300
0010
0100
0000
,
1001
0000
0220
0000
0330
0010
1000
0100
,
0110
0000
2002
0000
3003
0001
0100
0000
,
1100
0000
0022
0000
0033
0010
0001
1000
,
0002
0023
0230
2300
,
3020
0230
0320
0230
,
0320
0230
0320
0230
,
0302
2003
3002
2003
,
3002
2003
3002
2003
,
3001
0010
0001
0010
0100
1000
0100
1000
,
0001
0100
0001
0100
0010
1000
0010
1000
,
0100
0010
0001
1000
0010
0100
0001
1000
,
0010
0000
1000
0001
0100
0010
0100
0010
,
1000
0000
0000
1000
0100
0000
0000
0100
0010
0000
0000
0010
0001
0000
0000
0001
,
0100
0000
0000
0100
0010
0000
0000
0010
1000
0000
0000
1000
0001
0000
0000
0001
,
0010
0000
0000
0010
0001
0000
0000
0001
1000
0000
0000
1000
0100
0000
0000
0100
,
1000
0010
0100
0001
0020
0000
0230
0000
,
0310
0001
0011
0000
1000
0100
1100
0000
,
1000
0010
1010
0000
0100
0001
0101
0000
,
1000
0001
1001
0000
0010
0100
0110
0000
,
0020
2030
3002
0203
0302
0023
0230
2300
,
3010
0000
0110
0100
0001
0100
1000
0100
,
0001
0000
0010
0001
1000
0010
0100
0000
,
0000
0101
0101
1000
0000
1100
1100
0001
,
0100
0000
0010
1000
0002
0000
0203
0000
,
0310
0000
0110
0010
1000
0010
0001
0010
,
1000
0100
0010
0001
0000
0101
0000
1010
,
1000
0100
1000
0100
0010
0001
0010
0001
,
0100
1000
0100
0001
0100
1000
0200
0000
,
0320
0000
0000
0000
,
0000
0000
0000
0030
,
1001
2001
0001
3100
,
1000
0100
1000
0100
0000
0100
0000
0100
,
0000
0100
1000
0100
0000
0100
1000
0100
,
0000
0100
1000
0100
0020
0000
0030
0000
,
0110
0000
0210
0000
1300
0001
0010
0100
,
0000
0100
1000
0100
0000
0100
0000
0100
,
0000
0100
1000
0100
0000
0100
1000
0100
,
0000
0100
1000
0100
1000
0100
0010
0000
,
0011
0000
2200
0000
3300
1000
0010
0100
,
0101
0000
2020
0000
3030
0001
0010
0000
,
0101
0000
2200
0000
3300
0010
0001
1000
,
1010
0000
0022
0000
0033
1000
0100
0000
,
0110
0000
2002
0000
3003
0010
0001
0100
,
1001
0000
0220
0000
0330
1000
0001
0000
,
0011
0000
0202
0000
0303
0100
0010
1000
,
0002
0023
0230
2300
,
3020
0230
0320
0230
,
0320
0230
0320
0230
,
0302
2003
3002
2003
,
3002
2003
3002
2003
,
3001
0010
0001
0010
0100
1000
0100
1000
,
0001
0100
0001
0100
0010
1000
0010
1000
,
0001
0010
0100
1000
0001
0100
0010
1000
,
0002
0000
1003
0001
0100
0010
0100
0010
,
1010
0000
0102
0000
1003
0100
0010
0001
,
0011
0000
2001
0000
3010
1000
0100
0000
,
1100
0000
0012
0000
0103
0001
1000
0010
,
0110
1002
2003
3100
,
0110
0000
0021
0000
0130
0010
0001
1000
,
0101
0000
1200
0000
1300
0001
0100
0000
,
1010
0000
1200
0000
0310
0001
1000
0100
,
0010
0000
0001
1000
0010
0100
0010
0100
,
0101
0000
0120
1000
1030
0010
0100
0001
,
0011
0000
2100
0001
3001
0100
0010
0000
,
1001
0000
1020
0100
0130
0010
1000
0001
,
0011
0102
0203
0310
,
0110
0000
2010
0001
3001
1000
0100
0010
,
0011
0000
0120
0001
0031
0100
1000
0000
,
0010
1000
0100
0010
0001
0100
0001
1000
,
0010
0100
0010
1000
0001
0100
1001
0000
,
0220
0000
0000
0000
,
0000
0000
0000
0000
,
0000
0000
0000
0000
,
0330
0000
0000
0000
;

//---------------dance-single - ----------------
#NOTES:
     dance-single:
     :
     Hard:
     15:
     :
0000
0000
0000
0000
,
0000
0000
0000
0000
,
0000
0000
0000
0000
,
0000
0000
0000
0000
,
1000
0100
1000
0100
1000
0100
1000
0100
,
1000
0100
1000
0100
1000
0100
0001
0100
,
1000
0100
1000
0100
1000
0100
1000
0100
,
1000
0100
1000
0100
1000
0100
0010
0000
,
0011
0000
2100
0000
3001
0100
0010
1000
,
0101
0000
1020
0000
1030
0100
0001
0000
,
1100
0000
0201
0000
0310
1000
0001
0100
,
1010
0000
0012
0000
0103
0001
0010
0000
,
0110
0000
2001
0000
3010
1000
0100
0001
,
1001
0000
0120
0000
1030
0001
0010
0000
,
2000
0000
3002
0000
0013
0001
0100
1000
,
0020
0000
2030
0001
3002
0000
0203
0000
,
0320
0000
1030
0100
2000
0000
3100
0010
,
0002
0000
1003
0001
0200
0000
0301
0010
,
0100
1000
0002
0000
0013
0001
2000
0000
,
3001
0100
0020
0000
1030
0001
0200
0000
,
0301
0001
0100
0100
0010
0010
1000
1000
,
0100
0100
0010
0010
0001
0001
1000
1000
,
0001
0100
0001
0100
0010
1000
0010
1000
0001
0010
0001
0010
0100
1000
0100
1000
,
0020
0000
1030
0001
0100
0110
1001
0110
,
1000
0100
1000
0100
0010
0000
0001
0100
0001
0000
0010
0100
0010
0000
0001
1000
,
0001
0000
0100
0010
0100
0000
0010
1000
0010
0000
1000
0100
1000
0000
0001
0010
,
0001
0000
0100
0010
0100
0000
0001
0010
0001
0000
0100
0010
0100
0000
1000
0001
,
1000
0000
0100
0010
0001
0000
0100
0010
2000
0000
0000
0000
3001
0000
0000
0000
,
1001
0000
0010
1000
0010
0000
0100
0001
0100
0000
0001
0010
0001
0000
1000
0100
,
1000
0000
0001
1000
0001
0000
0100
0010
0100
0000
0001
0010
0100
0000
1000
0010
,
0100
0000
0001
1000
0010
0000
1000
0001
0100
0000
0001
0010
0100
0000
1000
0010
,
2000
0000
0000
3002
0000
0000
0203
0000
0000
0320
0000
0000
1030
0000
0100
0000
0010
0000
0001
0000
0000
0100
0000
0000
,
1010
0000
0000
0000
0010
1000
0100
1000
0010
0000
0100
0000
0001
0010
0001
0010
,
0100
0000
1000
0010
1000
0000
0001
0100
0001
0000
1000
0100
1000
0000
0001
0010
,
0001
0000
0010
0000
1000
0100
1000
0001
0100
0000
0010
0000
1000
0001
1000
0100
,
0010
0000
0001
0100
0001
0000
1000
0100
2000
0000
0000
0000
3001
0000
0000
0000
,
1100
0000
0001
0000
0010
0100
0010
0001
1000
0000
0010
0000
1000
0100
1000
0001
,
0010
0000
0001
1000
0001
0000
0100
0010
0100
0000
0010
0100
0010
0000
1000
0001
,
1000
1000
0100
0100
0010
0010
0001
0001
,
0100
0001
0100
0001
0100
1000
0100
1000
0100
0001
0100
1000
0200
0000
0000
0000
,
0320
0000
0000
0000
,
0000
0000
0000
0030
,
1010
0201
1000
0301
,
0010
0001
0100
0010
1000
0100
1000
0001
,
1000
0100
0001
0000
1000
0010
0001
0000
,
1000
0100
0010
0001
0200
0000
0310
0000
,
0101
0000
2100
0000
3001
0100
1000
0000
,
1000
0100
1000
0100
1000
0100
0001
0100
,
1000
0100
1000
0100
1000
0100
1000
0100
,
1000
0100
1000
0100
1000
0100
0010
0000
,
0011
0000
2100
0000
3001
0100
0010
1000
,
1010
0000
0021
0000
0130
1000
0001
0000
,
1001
0000
0210
0000
1300
0100
0001
0010
,
0110
0000
1002
0000
0013
0001
0100
0000
,
1010
0000
2100
0001
3001
0100
0010
1000
,
0110
0000
1002
0010
0013
0001
1000
0000
,
0011
0000
0201
0010
0310
1000
0100
0001
,
0020
0000
0031
0100
1000
0100
0001
0100
,
0020
0000
1030
0100
2000
0000
3001
0010
,
0200
0000
1300
0010
0002
0000
1003
0001
,
0010
0001
0200
0000
0301
1000
0020
0000
,
0130
0001
2000
0000
3010
0100
0002
0000
,
0013
0010
0001
0001
0100
0100
1000
1000
,
0001
0001
1000
1000
0010
0010
0100
0100
,
0001
1000
0001
1000
0100
0010
0100
0010
0001
1000
0001
1000
0010
0100
0010
0100
,
0002
0000
0013
1000
0100
0110
1001
0110
,
1001
0000
0010
0000
1000
0100
0010
0100
1000
0000
0001
0000
0100
0000
0010
0000
,
0100
0000
0001
0000
1000
0001
0010
0001
1000
0000
1100
0000
1100
0000
0000
0000
,
0101
0000
0010
0000
0001
0100
0010
0100
0001
0000
1000
0000
0100
0000
1000
0000
,
0010
0000
0001
0000
0100
0010
1000
0001
2000
0000
0000
0000
3100
0000
0100
0000
,
1010
0000
0001
0000
0010
0100
1000
0100
0010
0000
0001
0000
1000
0000
0100
0000
,
0010
0000
1000
0000
0010
0001
0100
0001
0010
0000
0110
0000
0110
0000
0000
0000
,
0001
0000
0100
0000
0010
0001
0010
1000
0100
0000
1000
0000
0001
0000
0100
0000
,
0020
0000
0000
0000
0000
0000
2030
0000
0000
0000
0000
0000
3002
0000
0000
0000
0000
0000
0203
0000
0000
0000
0000
0000
0301
0000
0000
0000
0010
0000
0000
0000
0100
0000
0000
0000
1000
0000
0000
0010
0000
0000
0100
0000
0000
0001
0000
0000
,
1000
0000
0000
0000
0101
0000
0010
1000
0100
0000
0010
0000
0001
1000
0100
0000
,
0010
0000
0001
0100
0001
0000
0010
0100
1000
0000
0010
0100
0001
0000
1000
0100
,
1000
0000
0011
0000
0001
0100
0010
0100
0001
0000
1000
0000
0010
0100
0001
1000
,
0100
0000
0010
0001
0100
0000
0010
1000
0200
0000
0000
0000
0310
0000
0001
0000
,
1001
0000
0010
0000
1000
0100
0010
0001
0100
0000
0010
1000
0100
1000
0001
0010
,
0100
0000
1000
0001
1000
0000
0010
0100
0001
0000
0011
0000
1100
0000
0001
0100
,
0010
0010
1000
1000
0100
0100
0001
0001
,
0010
0100
1000
0100
0010
0100
1000
0100
0010
0001
0010
0100
1000
0000
0000
0000
,
0220
0000
0000
0000
,
0000
0000
0000
0000
,
0000
0000
0000
0000
,
0330
0000
0000
0000
;
