#TITLE:Private Eye;
#ARTIST:atomsoak ft. cerol;
#BANNER:Private Eye.png;
#BACKGROUND:Private Eye-bg.png;
#JACKET:Private Eye-jacket.png;
#MUSIC:Private Eye.ogg;
#SAMPLESTART:49.14;
#SAMPLELENGTH:20;
#DISPLAYBPM:160;
#BPMS:0=160;
#BGCHANGES:;

//---------------dance-single - ----------------
#NOTES:
     dance-single:
     :
     Beginner:
     2:
     :
0000
0000
0000
0000
,
0000
0000
0000
0000
,
0000
0000
0000
0000
,
0000
0000
0000
0000
,
0000
0000
0000
0000
,
0000
0000
0000
0000
,
0000
0000
0000
0000
,
0000
0000
0000
0000
,
0000
0000
0000
0000
,
1000
0000
0000
0000
,
0000
0000
0000
0000
,
0001
0000
0000
0000
,
0000
0000
0000
0000
,
1000
0000
0000
0000
,
0000
0000
0000
0000
,
0001
0000
1000
0000
,
0000
0000
0000
0000
,
0001
0000
0001
0000
,
1000
0000
0000
0000
,
0001
0000
1000
0000
,
0001
0000
0000
0000
,
1000
0000
1000
0000
,
0001
0000
0000
0000
,
0010
0000
0000
0000
,
0000
0000
0000
0000
,
1001
0000
0000
0000
,
1000
0000
1000
0000
,
0001
0000
0001
0000
,
0010
0000
0000
0000
,
1001
0000
0000
0000
,
0001
0000
0001
0000
,
1000
0000
1000
0000
,
0010
0000
0000
0000
,
0001
0000
1000
0000
,
0001
0001
0001
0000
,
0001
0000
1000
0000
,
0001
0001
0001
0000
,
1000
0000
0000
0000
,
0100
0000
0000
0000
,
0010
0000
0000
0000
,
0001
0000
0000
0000
,
1000
0000
0001
0000
,
1000
1000
1000
0000
,
1000
0000
0001
0000
,
1000
1000
1000
0000
,
0001
0000
0000
0000
,
0100
0000
0000
0000
,
0010
0000
0000
0000
,
1000
0000
0000
0000
,
0010
0000
0000
0000
,
0000
0000
0000
0000
,
0100
0000
0000
0000
,
0000
0000
0000
0000
,
0010
0000
0000
0000
,
0000
0000
0000
0000
,
0100
0000
0000
0000
,
0000
0000
0000
0000
,
0001
0000
1000
0000
,
0010
0000
0000
0000
,
1000
0000
0001
0000
,
0010
0000
0000
0000
,
0001
0000
1000
0000
,
0010
0000
1000
0000
,
0001
0000
1000
0000
,
0010
0010
0010
0010
,
0010
0000
0000
0000
,
0000
0000
0000
0000
;

//---------------dance-single - ----------------
#NOTES:
     dance-single:
     :
     Easy:
     4:
     :
0000
0000
0000
0000
,
0000
0000
0000
0000
,
0000
0000
0000
0000
,
0000
0000
0000
0000
,
0000
0000
0000
0000
,
0000
0000
0000
0000
,
0000
0000
0000
0000
,
0000
0000
0000
0000
,
0000
0000
0000
0000
,
2002
0000
0000
0000
,
0000
0000
3003
0000
,
0001
0000
1000
0000
,
0100
0100
0100
0000
,
2002
0000
0000
0000
,
0000
0000
3003
0000
,
1000
0000
0001
0000
,
0100
0000
0000
0000
,
1000
0001
0001
0000
,
1000
1000
0001
0000
,
1000
0000
0001
0000
,
0100
0000
0100
0000
,
1000
0001
0001
0000
,
1000
1000
0001
0000
,
0100
0000
0100
0000
,
0100
0000
0000
0000
,
0002
0000
0003
0000
,
0020
0000
0030
0000
,
0001
0001
0010
0010
,
0001
0000
0001
0000
,
2000
0000
3000
0000
,
0020
0000
0030
0000
,
1000
1000
0010
0010
,
1000
0000
0000
0000
,
0001
0000
0010
0000
,
0001
0100
0001
0000
,
1000
0000
1000
0000
,
0010
0010
0100
0000
,
0002
0003
0020
0030
,
0200
0300
2000
3000
,
0020
0030
0200
0300
,
0002
0003
1000
0001
,
1000
0000
0010
0000
,
1000
0100
1000
0000
,
0001
0000
0001
0000
,
0010
0010
0100
0000
,
2000
3000
0020
0030
,
0200
0300
0002
0003
,
0020
0030
0200
0300
,
2000
3000
0001
1000
,
0002
0000
0000
0000
,
0000
0000
0000
0003
,
0200
0000
0000
0000
,
0000
0000
0000
0300
,
0020
0000
0000
0000
,
0000
0000
0000
0030
,
2000
0000
0000
3000
,
0000
0000
0000
0000
,
1001
0000
0001
0000
,
1001
0000
1000
0000
,
1001
0000
0001
0000
,
0100
0000
0000
0000
,
0010
0000
1000
0001
,
0010
0000
0001
1000
,
0010
0000
1000
0001
,
1001
0000
1001
0000
,
0100
0000
0000
0000
,
0000
0000
0000
0000
;

//---------------dance-single - ----------------
#NOTES:
     dance-single:
     :
     Medium:
     8:
     :
0000
0000
0000
0000
,
0000
0000
0000
0000
,
0000
0000
0000
0000
,
0000
0000
0000
0000
,
0000
0000
0000
0000
,
0000
0000
0000
0000
,
0000
0000
0000
0000
,
0000
0000
0000
0000
,
0000
0000
0000
0000
,
2200
0000
0000
0000
,
0000
0000
0000
3300
,
0001
0100
0001
1000
,
0100
0010
0001
0100
,
0202
0000
0000
0000
,
0000
0000
0000
0303
,
0010
0100
0010
0100
,
0010
0000
0000
0000
,
1000
0000
0100
0000
1000
0001
1000
0000
,
0110
0000
0010
0000
0010
0100
0010
0000
,
0100
0101
0100
1100
,
0010
0000
0100
0100
,
0001
0000
0100
0000
0001
1000
0001
0000
,
0110
0000
0010
0000
0010
0100
0010
0000
,
1000
0100
1000
0000
0001
0100
0001
0000
,
0010
0000
0000
0000
,
0002
0000
1000
0100
,
2003
0000
0100
3100
,
0010
0001
0010
0000
0010
0001
0010
0000
,
0100
0000
0010
1001
,
2000
0000
0001
0100
,
3002
0000
0100
0103
,
0010
1000
0010
0000
0010
1000
0010
0000
,
0200
0000
0000
0300
,
0001
0010
0100
1000
,
0001
0010
0001
0010
0001
0000
0100
0000
,
0010
1000
0001
0100
,
0010
1000
0001
0000
0010
0000
0100
0000
,
0020
0032
0203
0320
,
2030
3200
0320
0031
,
2000
3020
0230
0320
,
2030
0000
3002
0000
1003
0001
1000
0000
,
1000
0010
0100
0001
,
1000
0010
1000
0010
1000
0000
0100
0000
,
0010
0001
1000
0100
,
0010
0001
1000
0000
0010
0000
0100
0000
,
0020
2030
3200
0320
,
0032
0203
0320
1030
,
0002
0023
0230
0320
,
0032
0000
2003
0000
3001
1000
0001
1000
,
0002
0000
0000
0000
,
0200
0003
0000
0000
0310
0000
1000
0000
,
1000
0100
0100
0010
,
0010
0001
0100
0001
,
0020
0000
0000
0000
,
0002
0030
0000
0000
0103
0000
0010
0000
,
0010
1000
1000
0100
,
0010
0100
0010
0100
,
1000
0000
0010
0100
0010
0000
1000
0000
,
1000
0000
0010
0100
0010
0000
1001
0000
,
0001
0000
0010
0100
0010
0000
0001
0000
,
1000
0100
0001
0000
1000
0100
0001
0000
,
2000
0000
0010
0000
0001
0000
3010
0100
,
0002
0000
0010
0000
1000
0000
0013
0100
,
2000
0000
0010
0000
0001
0000
3100
0100
,
0010
1001
0010
1001
,
0100
0000
0000
0000
,
0000
0000
0000
0000
;

//---------------dance-single - ----------------
#NOTES:
     dance-single:
     :
     Hard:
     12:
     :
0000
0000
0000
0000
,
0000
0000
0000
0000
,
0000
0000
0000
0000
,
0000
0000
0000
0000
,
0000
0000
0000
0000
,
0000
0000
0000
0000
,
0000
0000
0000
0000
,
0000
0000
0000
0000
,
0000
0000
0000
0000
,
2200
0000
0000
0300
,
0001
0001
0001
3001
,
0010
0000
0100
0000
0001
0010
1000
0000
,
0010
0000
0001
0000
0100
1000
0100
0000
,
0022
0000
0000
0030
,
1000
0100
1000
1003
,
0100
0010
0001
0000
1000
0100
0010
0000
,
0100
0100
0100
0010
,
1000
0100
0010
0000
0001
1000
0010
0100
,
0101
0000
0010
1000
0010
1000
0001
0000
,
1100
0101
1100
0101
,
1000
0010
0001
0000
1000
0100
0001
0000
,
1000
0100
1000
0000
0001
1000
0010
0100
,
0101
0000
0010
1000
0100
1000
0001
0000
,
1000
0100
1000
0100
0010
0001
0010
0001
,
1000
0001
1000
0001
,
0020
1000
0100
0001
,
2030
0100
0001
3010
,
0100
0001
0010
0000
0100
0010
1000
0001
,
0100
0000
0011
1100
,
1020
0001
0100
1000
,
0032
0100
1000
0013
,
0100
1000
0010
0000
0100
0010
0001
0000
,
0020
0000
0000
0200
0000
0000
0330
0000
,
1000
0000
0100
0000
0010
0010
0001
1000
,
0100
0010
1000
0001
0010
0100
1100
0000
,
0002
0000
0010
0000
0203
0000
1300
0001
,
0010
0100
0001
0100
0010
1000
0100
0000
,
0020
0000
0032
0000
0203
0000
1300
0010
,
0002
0000
0203
0000
2300
0010
3010
0000
,
0002
0000
0023
0000
2030
0000
3100
0001
,
0020
0000
2030
0000
3100
0001
0100
0000
,
0001
0000
0100
0000
0010
0010
1000
0001
,
0100
0010
0001
1000
0010
0100
0101
0000
,
2000
0000
0010
0000
3200
0000
0301
1000
,
0010
0100
1000
0100
0010
0001
0100
0000
,
0020
0000
2030
0000
3200
0000
0301
0010
,
2000
0000
3200
0000
0302
0010
0013
0000
,
2000
0000
3020
0000
0032
0000
0103
1000
,
0020
0000
0032
0000
0103
1000
0100
1000
,
0002
0000
0000
0000
0200
0003
0000
0000
,
2000
0300
0000
0000
0100
0100
3100
0000
,
0010
0000
1000
0000
0100
0000
0010
0002
,
0100
1000
0100
1003
,
0020
0000
0000
0000
2000
0030
0000
0000
,
0200
3000
0000
0000
0001
0001
0301
0000
,
0100
0000
1000
0000
0001
0000
0100
0010
,
0100
0110
0010
0110
,
1000
0010
1000
0100
0010
0001
0100
0010
,
1000
0010
1000
0100
0010
0001
0100
1000
,
0100
0010
1000
0100
0010
0001
0100
0010
,
1000
0100
0001
0010
1000
0100
0001
0010
,
0021
0000
0130
0010
1000
1000
0010
0100
,
1020
0000
0130
0010
0001
0001
0010
0100
,
0021
0000
0130
0010
1000
1000
0010
0001
,
0100
1001
0010
1001
,
0100
0000
0000
0000
,
0000
0000
0000
0000
;

//---------------dance-single - ----------------
#NOTES:
     dance-single:
     :
     Challenge:
     13:
     :
0000
0000
0000
0000
,
0000
0000
0000
0000
,
0000
0000
0000
0000
,
0000
0000
0000
0000
,
0000
0000
0000
0000
,
0000
0000
0000
0000
,
0000
0000
0000
0000
,
0000
0000
0000
0000
,
0010
0000
0000
1000
0001
0000
0000
1000
0001
0000
0000
1000
0001
0000
0000
1000
,
0100
0000
0011
0000
0100
0001
1000
0000
,
0010
0000
1000
0000
0100
0000
0000
0000
1000
0000
0001
0000
0010
0000
0000
0001
,
0100
0000
1010
0000
0100
1000
0001
0000
,
0010
0000
0100
0000
1000
0000
0000
0000
0010
0000
1000
0000
0001
0000
0000
0100
,
0010
0000
0101
0000
1000
0001
0010
0000
,
0001
0100
0010
0000
1000
0001
1000
0200
,
0010
0001
1000
0001
,
1300
0000
0000
1000
0001
0000
0000
0001
1000
0000
0000
1000
0100
0000
0000
0000
,
1001
0001
0200
0000
0310
1000
0100
0010
,
0001
0000
1000
0000
0010
0000
0100
0000
0010
0000
1000
0000
0001
0000
0000
0100
,
0001
0000
0000
0010
0001
0000
0000
1000
0010
0000
0100
0000
0010
0000
1000
0000
,
0100
0010
0001
0100
0001
1000
0010
0100
,
0001
1000
0020
0000
1030
0100
1000
0001
,
0010
0100
1000
0010
1000
0001
0100
0020
,
1000
0001
0100
0001
,
1030
0000
1100
0000
0110
0000
0001
1000
,
0010
1000
0100
0010
0001
0100
0001
1000
,
0000
0100
0100
0010
0001
1000
0001
0200
,
0000
0010
0310
1000
0001
1000
0100
0010
,
0001
0100
0010
1000
0100
0010
0001
1000
,
0010
1000
0001
0000
0001
0010
0100
2000
,
0000
0010
3010
0100
0010
1000
0001
0100
,
0010
1000
0100
1000
0001
0010
0001
0100
,
0110
0000
1000
0001
0000
1000
0100
0000
,
1001
0001
0100
0010
0100
1000
0100
0001
,
0010
1000
0010
0100
0010
0001
0100
0010
,
1000
0100
1000
0001
0100
1000
0100
0010
,
1000
0001
0010
0001
0100
0010
1000
0001
,
0010
0000
0000
0001
1000
0000
0000
1000
0010
0000
0100
0000
0010
0000
1000
0000
,
0100
0001
0100
0010
0100
1000
1000
0001
,
0100
0000
0000
0010
1000
0000
0000
1000
0001
0000
0100
0000
0010
0000
1000
0000
,
0100
0001
0100
0010
0100
1000
1100
0000
,
0101
0100
0001
0010
0001
1000
0100
0010
,
1000
0010
0100
0010
1000
0010
0001
0100
,
0010
0001
0010
1000
0100
0010
0001
0100
,
0001
0010
1000
0010
0001
1000
0010
0100
,
0001
0000
0000
0010
0100
0000
0000
0100
1000
0000
0010
0000
1000
0000
0001
0000
,
0100
1000
0100
0001
0010
0100
0100
1000
,
0001
0000
0000
1000
0100
0000
0000
0100
0010
0000
0001
0000
1000
0000
0010
0000
,
0100
1000
0100
0001
0010
0001
1000
0100
,
0020
0031
2000
3001
,
0200
0000
0310
0000
2000
0000
3001
0200
,
0010
0000
1000
0000
0010
0000
0301
0020
,
1000
0000
0100
0000
1000
0000
0031
2000
,
0100
0000
0001
0000
3010
0100
0001
0000
,
1000
0100
0010
0000
0001
1000
0001
0200
,
0010
0000
0000
0000
1000
0000
0000
0000
0001
0000
0000
0000
0310
0000
1000
0001
,
1000
1100
0110
0011
,
0100
1000
0001
0010
0001
1000
0100
0010
,
0010
0001
0001
0100
1000
0100
0010
1000
,
0001
0100
1000
0100
0001
0010
1000
0010
,
1000
1000
0001
0010
0001
0010
0100
0100
,
0001
0010
0001
0010
1000
1000
0100
0100
,
1000
0001
0100
0001
0100
0010
1000
0010
,
0001
0000
0100
0000
0100
0000
1000
0000
0010
0000
0001
0000
1000
0000
0010
0100
,
0010
0000
0000
1000
0001
0000
0000
1000
0001
0000
0000
1000
0001
0000
0000
0000
,
2020
0000
0000
0000
,
0000
0000
0000
0000
,
0000
0000
0000
0000
,
0000
0000
0000
0000
,
3000
0000
0000
0030
;

//---------------dance-double - ----------------
#NOTES:
     dance-double:
     :
     Easy:
     6:
     :
00000000
00000000
00000000
00000000
,
00000000
00000000
00000000
00000000
,
00000000
00000000
00000000
00000000
,
00000000
00000000
00000000
00000000
,
00000000
00000000
00000000
00000000
,
00001000
00000000
00000100
00000000
,
00000001
00000000
00000000
00000000
,
00020000
00000000
00000000
00030000
,
00001000
00001000
00001000
00001000
,
00010000
00010000
00001000
00000000
,
00011000
00000000
01000000
00000000
,
00100000
00100000
00010000
00000000
,
01000000
10000000
01000000
00000000
,
00100000
00100000
10000000
00000000
,
10010000
00000000
00100000
00000000
,
00002000
00000000
00000000
00003000
,
00010000
00010000
00010000
00010000
,
00011000
00000000
00001000
00000100
,
00000010
00000000
00000100
00000000
,
00000001
00001000
00000001
00000000
,
00001001
00000000
00001000
00000000
,
00010000
01000000
00010000
01000000
,
00100000
00000000
10000000
00000000
,
00010000
00100000
00010000
00000000
,
10000000
10000000
10000000
10000000
,
01000000
00010000
00001000
00000000
,
00010000
00010000
00001000
00010000
,
00001000
00000100
00000001
00000000
,
00000010
00000000
00000110
00000000
,
00000100
00001000
00010000
00000000
,
00001000
00010000
00001000
01000000
,
00010000
00000000
00001000
00000000
,
00022000
00000000
00000000
00033000
,
00001000
00100000
00001000
00100000
,
00010000
10000000
01000000
00010000
,
00001000
00100000
00001000
00100000
,
00001000
00000100
00000001
00000100
,
00000110
00000000
00010000
00001000
,
00010000
01000000
00100000
00000000
,
01100000
00000000
00010000
00001000
,
00010000
00010000
00001000
00001000
,
00010000
00000100
00010000
00000100
,
00001000
00000001
00000100
00001000
,
00010000
00000100
00010000
00000100
,
00010000
01000000
10000000
01000000
,
01100000
00000000
00001000
00010000
,
00001000
00000010
00000100
00000000
,
00000110
00000000
00010000
00001000
,
00010000
00100000
01000000
00100000
,
00200000
00000000
00000000
00000000
,
00000000
00000000
00000000
00300000
,
02000000
00000000
00000000
03000000
,
00002000
00000000
00000000
00003000
,
00020000
00000000
00000000
00000000
,
00000000
00000000
00000000
00030000
,
00000020
00000000
00000000
00000000
,
00000100
00000100
00000100
00000130
,
00000001
00001000
00000001
00001000
,
00000010
00001000
00000010
00001000
,
00000010
00010000
00000010
00010000
,
00001000
00010000
01000000
00000000
,
10000000
00010000
10000000
00010000
,
01000000
00010000
01000000
00010000
,
01000000
00001000
01000000
00001000
,
00010000
00010000
00001000
00000100
,
00000220
00000000
00000000
00000000
,
00000000
00000000
00000000
00000000
,
00000000
00000000
00000000
00000000
,
00000000
00000000
00000000
00000000
,
00000330
00000000
00000000
00000000
,
00000000
00000000
00000000
00000000
;

//---------------dance-double - ----------------
#NOTES:
     dance-double:
     :
     Medium:
     8:
     :
00000000
00000000
00000000
00000000
,
00000000
00000000
00000000
00000000
,
00000000
00000000
00000000
00000000
,
00000000
00000000
00000000
00000000
,
00000000
00000000
00000000
00000000
,
01100000
00000000
00000000
00000000
00010000
00000000
00000000
00011000
,
00000000
00000000
00000000
00000000
00000000
00010000
00000100
00020000
,
00000000
00000000
00000000
00000000
,
00001000
00001000
00001000
00031000
,
00010000
00000000
00001000
00000000
00000010
00000000
00000100
00000010
,
00000100
00000000
00000011
00000000
,
00000001
00000000
00000100
00000000
00000010
00000000
00001000
00000100
,
00001000
00000000
00010100
00000000
,
00001000
00000000
00010000
00000000
01000000
00000000
00100000
00010000
,
00100000
00000000
11000000
00000000
,
00100000
00001000
00100000
01000000
,
10000000
00010000
00001000
00000001
,
00000100
00000000
00000010
00000000
00001000
00000000
00000100
00010000
,
00001000
00000000
00011000
00000000
,
00010000
00000000
00001000
00000000
00100000
00000000
01000000
10000000
,
00100000
00000000
01010000
00000000
,
00010000
00000000
00100000
00000000
00001000
00000000
00010000
00001000
,
00000100
00000000
00000101
00000000
,
00000010
00000001
00000100
00000001
,
00000001
00001001
00001000
00011000
,
00001000
00000000
00010000
00000000
01000000
00000000
00100000
01000000
,
00000000
00100000
00000000
10000000
01000000
00000000
00010000
00000000
,
00010000
00000000
00001000
00000000
00000100
00000000
00000010
00000100
,
00000010
00000000
00001000
00000000
00000001
00001000
00000001
00000000
,
00000100
00000000
00001000
00000000
00010000
00000000
00001000
00010000
,
00000000
00001000
00000000
00010000
01000000
00000000
10000000
00000000
,
01000000
00010000
00100000
00001000
,
00022000
00000000
00000000
00033000
,
00010000
00000100
00010000
00000000
00001000
00000010
00001000
00000000
,
00000001
00000100
00001000
00010000
,
00001000
01000000
00001000
00000000
00010000
00100000
00010000
00000000
,
10000000
01000000
00010000
00001000
,
00010000
00000000
00010000
00000000
00010100
00000000
00000100
00000010
,
00000001
00000100
00000010
00010000
,
00001000
00000000
00001000
00000000
00101000
00000000
00100000
01000000
,
10000000
00010000
00001000
00000001
,
00000010
00000001
00000010
00000000
00001000
00000100
00001000
00000000
,
00000001
00000100
00001000
00010000
,
00100000
00010000
00100000
00000000
10000000
01000000
10000000
00000000
,
10000000
01000000
00010000
00001000
,
00010000
00000000
00010000
00000000
00001100
00000000
00000100
00000010
,
00000001
00000100
00000010
00010000
,
00001000
00000000
00001000
00000000
00110000
00000000
00100000
01000000
,
10000000
00000000
10010000
00000000
00010000
10000000
00010000
10000000
,
00020000
00000000
02000000
03000000
,
20000000
30000000
00200000
00300000
,
00032000
00000000
00000200
00000300
,
00000002
00000003
00000020
00000030
,
00023000
00000000
02000000
03000000
,
00032000
00000000
00000200
00000300
,
00013000
01000000
00001000
00010000
,
00011000
00011000
00011000
00011000
,
00001000
00000100
00000001
00000000
00000100
00000000
00000010
00000000
,
00001000
00000100
00010000
00000000
01000000
00000000
10000000
01000000
,
10000000
01000000
00010000
00001000
,
00010000
00010100
00001000
00011000
,
00010000
01000000
10000000
00000000
01000000
00000000
00100000
00000000
,
00001000
00010000
00000100
00000000
00000010
00000000
00000001
00000100
,
00000001
00000010
00000100
00001000
,
00000001
00001000
00010000
10000000
,
20020000
00000000
00000000
00000000
,
00000000
00000000
00000000
00000000
,
00000000
00000000
00000000
00000000
,
00000000
00000000
00000000
00000000
,
30030000
00000000
00000000
00000000
,
00000000
00000000
00000000
00000000
;

//---------------dance-double - ----------------
#NOTES:
     dance-double:
     :
     Hard:
     12:
     :
00000000
00000000
00000000
00000000
,
00000000
00000000
00000000
00000000
,
00000000
00000000
00000000
00000000
,
00000000
00000000
00000000
00000000
,
00000000
00000000
00000000
00000000
,
00001000
00010000
00100000
00000000
00010000
00000000
00001000
00000000
,
00000010
00001000
00010000
00000000
00100000
00000000
00010000
00000000
,
00001000
00000010
00001000
00000000
00010000
00000000
00100000
00000000
,
00101000
00110000
01100000
10100000
,
10000000
01000000
00010000
00000000
00001000
00000000
00101000
00000000
,
00001000
00000100
00000001
00000000
00000010
00000000
00000011
00000000
,
00000001
00000100
00001000
00000000
00010000
00000000
00010100
00000000
,
00010000
01000000
10000000
00000000
01000000
00000000
11000000
00000000
,
10000000
00100000
00010000
00000000
00001000
00000000
00011000
00000000
,
00001000
00000010
00000001
00000000
00000100
00000000
00000101
00000000
,
00000001
00000010
00001000
00000000
00010000
00000010
00001000
00000000
,
00021000
01000000
10000000
00130000
,
01000000
10000000
01000000
00100000
00010000
00000000
01000000
01000000
,
00001000
00101000
00000010
00000001
,
00001000
00000100
00001000
00000001
00000010
00000000
00000100
00010000
,
00010000
00010010
00001000
00000100
,
00010000
00001000
00010000
01000000
00100000
00000000
01000000
10000000
,
10000000
10010000
00100000
00001000
,
00010000
00000100
00010000
00001000
00000010
00000000
00000001
00000100
,
00000101
00000110
00001100
00010100
,
00010000
00001000
00010000
00001000
00100000
01000000
10000000
01000000
,
00100000
10100000
01000000
00110000
,
00001000
00010000
00001000
00010000
00000100
00000010
00000001
00000010
,
00000100
00000101
00000010
00001100
,
00010000
00001000
00010000
00001000
01000000
00100000
00010000
00100000
,
01000000
11000000
00100000
01010000
,
10000000
01000000
00010000
00000000
00001000
00000100
00000001
00000000
,
00000022
00000000
00000000
00000033
,
00000100
00000001
00000100
00000001
00000100
00000010
00000100
00000010
,
00001000
00000100
00001000
00000010
00010000
00001000
00010000
00000000
,
01000000
10000000
01000000
10000000
01000000
00100000
01000000
00100000
,
00010000
01000000
00010000
00100000
00001000
00010000
00001000
00000000
,
00010000
00000000
00001100
00000000
00000010
00000001
00000100
00001000
,
00010000
00000000
00001000
00000000
00010000
00001000
00011000
00000000
,
00001000
00000000
00110000
00000000
01000000
10000000
00010000
00000000
,
00012000
00000100
00000001
00003010
,
00000100
00000010
00000100
00000010
00001000
00000010
00001000
00000010
,
00010000
00001000
00100000
00001000
01000000
00001000
00010000
00000000
,
01000000
00100000
01000000
00100000
00010000
00100000
00010000
00100000
,
00001000
00010000
00000100
00010000
00000010
00010000
00001000
00000000
,
00010000
00000000
00001100
00000000
00000010
00000001
00000100
00001000
,
00010000
00000000
00001000
00000000
00010000
00001000
00011000
00000000
,
00001000
00000000
00110000
00000000
01000000
10000000
00100000
00010000
,
00001000
00000000
00011000
00000000
00000100
00000100
00001000
00001000
,
00000200
00000000
00001000
00000000
00000310
00000001
00002000
00000000
,
00000100
00000000
00000001
00000000
00003010
00010000
00002000
00000000
,
01000000
00000000
00010000
00000000
00103000
01000000
20000000
00000000
,
00100000
30010000
10010000
02100000
,
10000000
00000000
00100000
00000000
03010000
00001000
00000200
00000000
,
00000001
00000000
00000010
00000000
00001300
00010000
00200000
00000000
,
10000000
00000000
00010000
00000000
01300000
00001000
00010000
00000000
,
00011000
00110000
00011000
00001010
,
00000001
00000010
00000100
00001000
00000010
00000100
00001000
00000000
,
00000100
00001000
00010000
00100000
00001000
00010000
00100000
00000000
,
00010000
00100000
01000000
10000000
00100000
01000000
10000000
00000000
,
10000000
01000000
00100000
00010000
00001000
00000100
00000010
00000000
,
00000001
00000010
00000100
00001000
00000010
00000100
00001000
00000000
,
00000100
00001000
00010000
00100000
00001000
00010000
00100000
00000000
,
00010000
00100000
01000000
10000000
00100000
01000000
10000000
00000000
,
01020000
10000000
00100000
00031000
,
00002200
00000000
00000000
00000000
,
00000000
00000000
00000000
00000000
,
00000000
00000000
00000000
00000000
,
00000000
00000000
00000000
00000000
,
00003300
00000000
00000000
00000000
,
00000000
00000000
00000000
00000000
;
