#TITLE:Prince on a star;
#ARTIST:SPIRITUAL RIDE;
#BANNER:Prince on a star.png;
#BACKGROUND:Prince on a star-bg.png;
#JACKET:Prince on a star-jacket.png;
#MUSIC:Prince on a star.ogg;
#SAMPLESTART:47.134;
#SAMPLELENGTH:20;
#DISPLAYBPM:145;
#BPMS:0=145.048;
#BGCHANGES:;

//---------------dance-single - ----------------
#NOTES:
     dance-single:
     :
     Beginner:
     3:
     :
0000
0000
0000
0000
,
0000
0000
0000
0000
,
0000
0000
0000
0000
,
0000
0000
0000
0000
,
0000
0000
0000
0000
,
0001
0001
0000
1000
,
0000
0010
0000
0100
,
0000
0010
0000
1000
,
0000
0100
0000
0010
,
0000
0001
0000
0010
,
0000
0001
0000
0100
,
0000
1000
0000
0010
,
0000
0000
0000
0000
,
0100
0100
0100
0000
,
0002
0000
0000
0003
,
0000
0010
0010
0000
,
0001
0000
1000
0000
,
0010
0000
1000
0000
,
0200
0000
0000
0300
,
0000
1000
1000
0000
,
0001
0000
0010
0000
,
0110
0000
1000
0000
,
0001
0000
1000
0000
,
0010
0000
0100
0000
,
0001
0000
1000
0000
,
0010
0000
1000
0000
,
0100
0000
0001
0000
,
0010
0010
0010
0000
,
0001
0000
0100
0100
,
0100
0000
0010
0000
,
1000
0000
0001
0001
,
0001
0000
0000
0010
,
0010
0000
0001
0001
,
0001
0000
1000
0000
,
0100
0000
1000
1000
,
1000
0000
0010
0000
,
0100
0100
0100
0000
,
0001
0000
1001
0000
,
0000
0000
1000
0000
,
0010
0000
1000
0000
,
0000
0000
0100
0000
,
0010
0000
0000
0000
,
0000
0000
0001
0000
,
2000
0000
0000
0000
,
3000
0000
0010
0010
,
0010
0000
0100
0000
,
0001
0000
0010
0010
,
0010
0000
0000
0100
,
0100
0000
1000
1000
,
1000
0000
0010
0000
,
0001
0000
0010
0010
,
0010
0000
0001
0000
,
0100
0100
0100
0000
,
0020
0000
0000
0000
,
0000
0000
0000
0030
;

//---------------dance-single - ----------------
#NOTES:
     dance-single:
     :
     Easy:
     7:
     :
0000
0000
0000
0000
,
0000
0000
0000
0000
,
0000
0000
0000
0000
,
0000
0000
0000
0000
,
0000
0000
0000
0000
,
1000
0001
1000
0001
,
0010
0100
0010
0100
,
0010
1000
0010
0001
,
0100
1000
0010
0000
,
0100
0000
0010
0000
,
1000
0010
0001
0100
,
1000
0000
1000
1000
1000
0000
0001
0001
,
0001
0010
0100
1000
,
1000
0000
0001
0000
,
1000
1000
0100
0010
,
0100
0000
0010
0000
,
0001
0001
0010
0100
,
1000
0100
0010
0000
,
0001
0010
0100
0000
,
1000
1000
1000
0000
0010
0000
0010
0000
,
0001
0000
0001
0000
0100
0100
0100
0000
,
1000
0000
0000
0000
1000
1000
0000
0000
,
0001
0000
0000
0000
0001
0001
0000
0000
,
0100
0000
0000
0000
0100
0100
0000
0000
,
0010
0000
0000
0000
0010
0010
0000
0000
,
0001
1000
0001
1000
,
1000
0001
1000
0001
,
0110
1001
0100
0010
,
1001
0110
1000
0001
,
1000
0000
0010
0000
,
0001
0000
0100
0000
,
1000
0000
0000
0000
0010
0010
0010
0000
,
0001
0000
0000
0000
0100
0100
0100
0000
,
1000
0000
1000
0000
0001
0001
0001
0000
,
0100
0000
0100
0000
0010
0010
0010
0000
,
0100
1000
0100
0001
,
0100
1000
0100
0001
,
1000
0000
0000
0000
,
0001
0010
0110
0000
,
0001
0000
0000
0000
,
1000
0100
0110
0000
,
0100
0000
0010
0000
,
1000
0000
0001
0000
,
1000
0100
1000
0100
,
0001
0010
0001
0010
,
1000
0000
1000
0000
0001
0001
1000
0000
,
0100
0000
0100
0000
0010
0010
1000
0000
,
1000
0000
1000
0000
0001
0001
1000
0000
,
0001
0000
0001
0000
1000
1000
0001
0000
,
0100
0000
1000
0000
0010
0010
0010
0000
,
0010
0000
0001
0000
0100
0100
0100
0000
,
1000
0000
0010
0000
1000
0001
1000
0000
,
0001
0000
0100
0000
0001
1000
0001
0000
,
0110
0000
0000
0000
;

//---------------dance-single - ----------------
#NOTES:
     dance-single:
     :
     Medium:
     8:
     :
0000
0000
0000
0000
,
0000
0000
0000
0000
,
0000
0000
0000
0000
,
0000
0000
0000
0000
,
0000
0000
0000
0000
,
1000
0010
0001
0100
,
0001
0010
1001
0000
,
0100
0100
0010
0010
,
1000
0001
1001
0000
,
1000
0100
0001
0010
,
0001
0000
1000
1000
1000
0000
0000
0000
,
0001
0001
0001
0000
0001
0000
1000
0000
,
0000
1100
0000
0101
,
1001
0000
1001
0000
0100
0100
0100
0000
,
0010
0010
0010
0000
1001
0000
0000
0000
,
0100
1000
0100
0001
,
0100
0000
1000
0000
1000
0100
0001
0000
,
1000
0100
1000
0000
0001
0000
0000
0000
,
0001
0010
0001
0000
1000
0000
0000
0000
,
1000
0001
1000
0000
0001
1000
0001
0000
,
0010
1000
0010
0000
0101
0000
0000
0000
,
0100
1000
0010
0001
,
0110
1000
0101
0000
,
1000
1000
1000
0000
1001
0000
0000
0000
,
0001
0001
0001
0000
1001
0000
0000
0000
,
0100
0001
0100
1000
,
0100
0001
0100
1000
,
0010
1001
0010
1000
,
0110
1001
0100
0001
,
1000
1000
0000
0000
0100
0100
0000
0000
,
0001
0001
0000
0000
0010
0010
0000
0000
,
1000
1000
0000
1000
0100
0100
0000
0100
,
0001
0001
0000
0001
0010
0010
0000
0010
,
1000
1000
1000
1000
0100
0100
0000
0100
,
0001
0001
0001
0001
0010
0010
0000
0010
,
0100
0000
1000
0000
0001
0010
1000
0000
,
0010
0000
0001
0000
1000
0100
0001
0000
,
1000
0000
0001
0000
,
0010
0001
0100
0000
,
0001
0000
1000
0000
,
0100
1000
0010
0000
,
0100
1000
0100
0001
,
0100
0001
0100
1000
,
0000
0001
0000
1000
,
0001
0101
0100
1100
,
1000
1000
1000
0000
0001
0001
0001
0000
,
0010
0010
0010
0000
0100
0100
0100
0000
,
1000
1000
0010
0000
0001
0001
0100
0000
,
0010
0010
1000
0000
0100
0100
0001
0000
,
1100
1010
1001
0000
,
0001
0101
1001
0000
,
0010
0000
0001
0000
1000
0100
0001
0000
,
1001
0000
0110
0000
0001
0010
1000
0000
,
0110
0000
0000
0000
;

//---------------dance-single - ----------------
#NOTES:
     dance-single:
     :
     Hard:
     10:
     :
0000
0000
0000
0000
,
0000
0000
0000
0000
,
0000
0000
0000
0000
,
0000
0000
0000
0000
,
0000
0000
0000
0000
,
1000
0010
0001
0100
,
0001
0010
1001
0000
,
0100
0001
1100
0101
,
1000
0010
0100
0001
,
1000
0000
0010
0100
0010
0000
1000
0000
,
0001
0000
0100
0010
0100
0000
0001
0100
,
1000
0100
0001
0000
0001
0010
1000
0000
,
0000
0100
0000
0010
,
0110
0001
1000
0001
,
1001
1010
0101
0000
,
1000
0000
0001
0100
1000
0000
1001
0000
,
0001
0000
1000
0010
0001
0000
0000
0000
,
1000
0100
1000
0100
0101
0000
1000
0000
,
0001
0010
0001
0010
1010
0000
0000
0000
,
1000
0001
1000
0000
0001
1000
0001
0000
,
0010
0000
0010
0100
0001
0100
1000
0000
,
1000
0100
0001
0000
0001
0001
0000
0000
,
0001
0100
1000
0000
1000
1000
1000
0000
,
0010
0001
1000
0000
0100
0000
0010
0000
,
0100
1000
0001
0000
0010
0000
0001
0000
,
1000
0100
0010
0100
0001
0000
1000
0000
,
0001
0010
0100
0010
1000
0000
0001
0000
,
1100
0000
0101
0000
1000
0100
0001
0000
,
0011
0000
1010
0000
0001
0010
1000
0000
,
1000
0100
1000
0000
0100
0001
0100
0000
,
0001
0010
0001
0000
0010
1000
0010
0100
,
1000
0000
1000
0001
0100
0000
0100
1000
,
0001
0000
0001
0100
0010
0000
0010
0000
,
0110
0000
1001
0000
0100
0010
0100
0000
,
1000
0000
0001
1000
0010
0000
0010
0000
,
0100
0000
1000
0000
0001
0010
1000
0000
,
0010
0000
0001
0000
1000
0100
0001
0000
,
1000
0000
0100
0000
,
0010
0001
0010
0000
,
0001
0000
0010
0000
,
0100
1000
0100
0000
,
1000
0001
1000
0000
,
0010
0100
0010
0000
,
0100
0110
0010
1001
,
0000
0010
1001
0100
,
0110
1001
0001
0011
,
0110
1000
0001
1010
,
1000
0100
0001
0000
0001
0100
1000
0000
,
1000
0000
0000
0000
0001
0000
0000
0000
1000
0000
0000
0001
0000
0000
1000
0000
,
0110
1001
0010
1000
,
0010
0001
0101
1001
,
0010
0100
0010
1000
0001
0100
0010
0000
,
1000
0100
0010
0000
0001
0100
1000
0000
,
0110
0000
0000
0000
;

//---------------dance-single - ----------------
#NOTES:
     dance-single:
     :
     Challenge:
     12:
     :
0000
0000
0000
0000
,
0000
0000
0000
0000
,
0000
0000
0000
0000
,
0000
0000
0000
0000
,
0000
0000
0000
0000
,
0001
0010
0100
1000
0010
0001
0010
1000
,
0100
0010
0000
0011
0000
0000
0001
1000
,
0010
0100
0010
0001
0010
1000
0100
0010
,
0001
1000
0000
1010
0000
0000
0010
0100
,
0001
1000
0100
0001
0100
1000
0010
0100
,
0010
1000
0000
0101
0000
0000
0001
0100
,
0010
0001
0010
1000
0100
0010
0001
0000
,
1000
0001
0000
1000
0001
0000
1000
0001
0000
1000
0001
0000
1000
0000
0001
0000
,
0010
0001
0100
0001
1000
0100
0010
0001
,
0100
0010
0000
0110
0000
0000
0001
1000
,
0010
1000
0100
0010
0001
0100
1000
0000
,
1100
0001
1000
0010
1000
0100
0001
0000
,
0010
0100
0010
0001
1000
0010
1000
0100
,
0010
0001
0100
0000
1010
0000
0001
1000
,
0100
1000
0010
0100
0010
1000
0100
0001
,
0100
0010
0100
1000
0010
0100
0001
0000
,
0010
0000
0001
0000
0000
0000
1000
0100
1000
0000
1000
0000
0000
0000
0000
0000
,
0010
0000
1000
0000
0000
0000
0001
0100
0001
0000
0001
0000
0000
0000
0000
0000
,
1000
0000
0100
0000
0000
0000
0001
0010
0001
0000
0001
0000
0000
0000
0000
0000
,
0100
0000
0001
0000
0000
0000
1000
0010
1000
0000
1000
0000
0000
0000
0000
0000
,
1000
0000
0001
0000
0000
0000
0010
0100
0010
0000
0010
0000
0000
0000
0000
0000
,
0010
0000
0100
0000
0000
0000
1000
0001
1000
0000
1000
0000
0000
0000
0000
0000
,
1001
0010
1000
0100
1000
0010
0100
1000
,
0100
0000
0001
0000
0010
0000
0100
0000
1000
0001
0000
0000
0001
1000
0000
0000
,
0011
0010
0001
0100
1000
0100
0001
0010
,
0100
0000
1000
0000
0001
0000
0000
0000
0010
0001
0000
0000
0001
0100
0000
0000
,
0110
0000
1001
0000
1000
0010
1000
0001
,
0010
0000
0100
0000
1000
0000
0000
0000
0001
0010
0000
0000
0001
0100
0000
0000
,
1010
0000
1100
0000
0001
0010
0001
0100
,
0010
0000
1000
0000
0100
0000
0010
0000
0001
1000
0000
0000
1000
0010
0000
0000
,
0200
0001
0301
0010
0200
1000
1300
0001
,
1000
0010
0100
0001
0020
0100
0130
0000
,
1000
1000
0000
0001
0102
0000
0000
1000
,
1000
0000
0000
0000
0000
0000
0010
0000
0013
0000
0000
0001
0000
0000
0100
0000
,
0010
0000
0000
1000
0000
0000
0001
0000
1020
0000
0000
0000
0000
0000
0100
0000
,
0100
0000
0000
0000
0000
0000
1000
0000
1030
0000
0000
0001
0000
0000
0010
0000
,
0001
0100
0010
1000
0000
1000
0100
0000
,
0100
0010
0000
0010
0001
0000
1000
0001
,
0010
0001
0100
1000
0100
0010
1000
0001
,
0010
0000
0100
0000
1000
0000
0010
0000
0100
0001
0000
0000
0001
1000
0000
0000
,
1100
0010
1000
0100
0001
0100
0010
0001
,
0100
0000
0010
0000
1000
0000
0000
0000
0100
1000
0000
0000
0001
0100
0000
0000
,
0011
0000
1001
0000
0010
1000
0010
0100
,
0001
0000
0010
0000
1000
0000
0000
0000
0100
0010
0000
0000
0010
0100
0000
0000
,
1100
0000
0110
0000
0001
0100
0001
0010
,
0100
0000
1000
0000
0001
0000
0000
0000
0010
0001
0000
0000
1000
0010
0000
0000
,
0200
0001
0301
0010
0200
1000
1300
0001
,
0010
0001
0100
0010
1000
0100
1000
0001
,
2020
0000
0000
0000
,
0000
0000
0000
3030
;

//---------------dance-double - ----------------
#NOTES:
     dance-double:
     :
     Easy:
     8:
     :
00000000
00000000
00000000
00000000
,
00000000
00000000
00000000
00000000
,
00000000
00000000
00000000
00000000
,
00000000
00000000
00000000
00000000
,
00000000
00000000
00000000
00000000
,
01000000
10000000
01000000
00010000
,
00001000
00000100
00000001
00000110
,
00000010
00000001
00000100
00001000
,
00010000
00100000
10010000
00000000
,
10000000
01000000
00010000
00000000
10000000
01000000
00010000
00000000
,
00001000
00000100
00000001
00000000
00001000
00000100
00000001
00000000
,
00001000
00001100
00010000
00110000
,
00011000
01000000
00011000
00000010
,
00000100
00000000
00001000
00000000
00000001
00000100
00001000
00000000
,
00001000
00000010
00000001
00000000
00001000
00000000
00011000
00000000
,
00100000
00000000
00010000
00000000
10000000
00100000
00010000
00000000
,
00010000
01000000
10000000
00000000
00010000
00000000
00011000
00000000
,
00000110
00000000
00001001
00000000
00001000
00000100
00000001
00000000
,
00001000
00000100
00000001
00000000
00000100
00000000
00011000
00000000
,
00010000
10000000
01000000
00010000
,
01000000
00000000
10000000
00000000
01000000
00100000
00010000
00000000
,
00001000
00000001
00000010
00001000
,
00000010
00000000
00000001
00000000
00000010
00000100
00001000
00000000
,
00010000
10000000
01000000
00010000
,
00001000
00000001
00000010
00001000
,
00000100
00000100
00000100
00000000
00001000
00000000
00001000
00000000
,
01000000
01000000
01000000
00000000
10000000
00000000
10000000
00000000
,
01100000
10010000
00010000
10000000
,
10010000
00000000
01100000
00000000
10000000
01000000
00010000
00000000
,
00001000
00001000
00001000
00000000
00001000
00000100
00000001
00000000
,
00000001
00000001
00000001
00000000
00000001
00000100
00001000
00000000
,
00011000
00000000
01100000
00000000
10000000
10000000
10000000
00000000
,
10000000
00010000
01000000
00000000
10000000
01000000
00010000
00000000
,
00001000
00001000
00001000
00000000
00001000
00000000
00001000
00000000
,
00010000
00010000
00010000
00010000
00010000
00000000
10010000
00000000
,
10000000
01000000
00100000
00010000
,
00001000
00000100
00000010
00000001
,
00000001
00001000
00000000
00000000
00000001
00000000
00000000
00000000
,
00000100
00010000
00000000
00000000
00000100
00000000
00000000
00000000
,
00010000
00000010
00000000
00000000
00010000
00000000
00000000
00000000
,
10000000
00010000
00000000
00000000
10000000
00000000
00000000
00000000
,
00001000
00000001
00001000
00000000
00000000
00000000
00000000
00000000
,
00010000
00001000
00010000
00000000
00000000
00000000
00000000
00000000
,
10000000
00010000
10000000
00000000
01000000
00000000
00100000
00000000
,
00010000
00001000
00000100
00000110
,
00000100
00000000
00001000
00000000
00010000
00100000
01000000
00000000
,
10000000
00000000
00100000
00000000
00010000
00001000
00000100
00000000
,
00000001
00000010
00001000
00010000
,
00100000
00000000
01000000
00100000
00010000
00100000
10000000
00000000
,
10000000
00000000
01010000
00000000
00001000
00000100
00000010
00000000
,
00000001
00000000
00001010
00000000
00010000
00100000
01000000
00000000
,
10000000
00000000
00010000
00000000
00001000
00000010
00000001
00000000
,
00001000
00000000
00000100
00000000
00000001
00000010
00001000
00000000
,
00011000
00000000
00000000
00000000
;

//---------------dance-double - ----------------
#NOTES:
     dance-double:
     :
     Medium:
     9:
     :
00000000
00000000
00000000
00000000
,
00000000
00000000
00000000
00000000
,
00000000
00000000
00000000
00000000
,
00000000
00000000
00000000
00000000
,
00000000
00000000
00000000
00000000
,
10000000
10000000
01010000
10100000
,
00010000
00010000
00110000
00000000
,
00010000
00100000
10000000
00000000
10000000
01000000
00010000
00000000
,
01100000
00110000
00011000
00000000
,
00000001
00000010
00000001
00000000
00001010
00000000
00000101
00000000
,
00001000
00000100
00001000
00000000
00001100
00000000
00000011
00000000
,
00001000
00000100
00000001
00000000
00000001
00000010
00001000
00000000
,
00000000
00001100
00000000
01010000
,
00010000
00000000
10000000
01000000
00010000
00000000
01100000
00000000
,
01000000
10000000
01100000
00000000
,
00010000
10000000
00010000
01100000
,
00010000
00001000
00000110
00000000
,
00001001
00000000
00000001
00000010
00001000
00000000
00000110
00000000
,
00000010
00000001
00001001
00000000
,
00000001
00000100
00001000
00000000
00001000
00000100
00000010
00000000
,
00000010
00000100
00001000
00000000
00010000
00100000
10000000
00000000
,
00100000
00011000
00010100
00001000
,
00001000
00000010
00001001
00000000
,
00001000
00000101
00000001
00001100
,
00000001
00001000
00011000
00000000
,
10000000
01000000
00100000
00000000
01000000
00000000
10010000
00000000
,
00010000
00100000
01000000
00000000
10010000
00000000
00010000
00000000
,
00011000
00000000
00001010
00000000
00001000
00000001
00001000
00000000
,
00011000
00000000
01010000
00000000
00010000
10000000
00010000
00000000
,
00010000
00100000
00010000
00100000
00010000
00100000
00010000
00000000
,
10000000
00100000
10000000
00100000
10000000
00000000
10010000
00000000
,
00011000
00001100
00001000
00001001
,
00000001
00000100
00000001
00000100
00000001
00000000
00001001
00000000
,
00011000
00000000
00110000
00000000
00010000
01000000
00010000
01000000
,
00010000
00000000
01000000
00000000
10000000
00100000
00010000
00000000
,
00001000
00000000
00000010
00000000
00000001
00000100
00001000
00000000
,
00010000
00000000
01000000
00000000
10000000
01000000
00010000
00000000
,
00001000
00010000
00000000
00000000
00010000
00000000
00000000
00000000
,
10000000
00000000
01000000
00010000
,
00010000
00000000
00001000
00000001
,
00000001
00000000
00001000
00001000
,
00010000
10000000
00010000
00001000
,
00001000
00000001
00001000
00000000
,
00001000
00001000
00011000
00000000
00010000
00010000
00011000
00000000
,
00010000
01100000
10010000
00000000
,
10000000
01000000
00100000
01000000
10000000
01000000
00010000
00000000
,
01000000
00100000
00010000
00001000
,
00000001
00000010
00000100
00000010
00000001
00000010
00001000
00000000
,
00000010
00000100
00001000
00010000
,
00101000
00000000
00010100
00000000
,
00001010
00000000
00110000
00000000
,
10000000
00000000
00010000
01000000
10000000
01000000
00010000
00000000
,
00001000
00000010
00000001
00000000
00000001
00000010
00001000
00000000
,
00011000
00000000
00000000
00000000
;

//---------------dance-double - ----------------
#NOTES:
     dance-double:
     :
     Hard:
     11:
     :
00000000
00000000
00000000
00000000
,
00000000
00000000
00000000
00000000
,
00000000
00000000
00000000
00000000
,
00000000
00000000
00000000
00000000
,
00000000
00000000
00000000
00000000
,
00000010
00001000
00000100
00000010
00000000
00000010
00000001
00000000
,
00000001
00000100
00000000
00000110
00000000
00000000
00000010
00010000
,
00001000
01000000
00100000
10000000
00000000
10000000
01000000
00000000
,
01000000
00100000
00000000
00110000
00000000
00000000
00001000
01000000
,
00100000
01000000
00001000
00010000
00000000
00010000
00000010
00000000
,
00000010
00001000
00000000
00001100
00000000
00000000
00000010
00000001
,
00000100
00000010
00001000
00000100
00000000
00000100
00010000
00000000
,
00010000
00001000
01000000
00001000
00010000
00001000
00000100
00001000
,
00010000
00000000
00011000
00000000
00001000
00100000
00010000
10000000
,
00100000
01000000
00000000
01010000
00000000
00000000
00010000
10000000
,
01000000
00000000
10000000
00100000
00000000
01000000
00010000
00000000
,
00100000
00010000
00000000
01010000
00000000
00101000
00000000
00000000
,
00000020
00000100
00000130
00000000
00000001
00000010
00000001
00001000
,
00000000
00001100
00000000
00000101
00000000
00000000
00000010
00010000
,
01000000
00000000
10000000
00100000
10000000
00010000
00000000
01001000
,
00000000
01100000
00000000
10010000
00000000
01000000
00010000
00000000
,
00200000
00000000
00000000
00000000
00300000
00000000
00001000
00010000
00001000
00000000
00010000
00000000
00000000
00000000
00000000
00000000
,
00000020
00000000
00000000
00000000
00000030
00000000
00001000
00000001
00001000
00000000
00000001
00000000
00000000
00000000
00000000
00000000
,
00000200
00000000
00000000
00000000
00000300
00000000
00000010
00010000
00000010
00000000
00010000
00000000
00000000
00000000
00000000
00000000
,
02000000
00000000
00000000
00000000
03000000
00000000
00100000
00010000
00100000
00000000
00010000
00000000
00000000
00000000
00000000
00000000
,
20000000
00000000
00000000
00000000
30000000
00000000
00100000
01000000
00100000
00000000
01000000
00000000
00000000
00000000
00000000
00000000
,
00002000
00000000
00000000
00000000
00003000
00000000
00000010
00000100
00000010
00000000
00000100
00000000
00000000
00000000
00000000
00000000
,
00010100
00000000
00011000
00000000
00010000
00000100
00001000
00000001
,
00000011
00000000
00001100
00000000
00000010
00001000
00000100
00000000
,
00002002
00000000
00003003
00000000
00000010
00001000
00000010
00000200
,
00000000
00010000
00020300
00000000
01030000
10000000
00100000
00000000
,
10010000
00000000
01100000
00000000
10000000
00100000
10000000
00020000
,
00000000
01000000
01030000
00000000
00100000
10000000
01000000
00000000
,
00110000
00000000
00001100
00000000
00000010
00000100
00000010
00002000
,
00000000
00000001
00003001
00000000
00000010
00000001
00000100
00000000
,
00000020
00001000
00001030
00000000
00000200
00010000
00010300
00000000
,
00001000
00010000
00001000
01000000
00100000
10000000
00010000
00000000
,
00100000
00100000
00000000
00010000
02020000
00000000
00000000
00000000
,
00000000
00000000
00000000
00000000
03000000
00000000
00000000
00000000
10000000
00000000
00000000
10000000
00000000
00000000
10030000
00000000
,
00010000
00000000
00000000
01000000
00000000
00000000
00100000
00000000
20000000
00000000
00000000
00000000
00000000
00000000
00000000
00000000
,
00010000
00000000
00000000
00000000
30010000
00000000
00000000
00000000
00100000
00000000
00000000
00001000
00000000
00000000
00010000
00000000
,
00000100
00000010
00000001
00000100
00000000
00000100
00000010
00000000
,
00001000
00000100
00000000
00001010
00000000
00000000
00000010
00010000
,
00100000
00000000
10000000
00000000
11000000
00000000
00000000
00010000
10000000
00000000
00100000
00000000
01000000
00000000
00000000
00000000
,
00001000
00010000
00000100
00010000
00001000
00010000
01000000
10000000
,
20020000
00000000
30030000
00000000
00100000
01000000
00010000
00200000
,
00000000
00001000
00301000
00000000
00100000
00001000
00000100
00000000
,
00000101
00000000
00010010
00000000
00000001
00000010
00000001
00002000
,
00000000
00000100
00003100
00000000
00001000
00000001
00000010
00000000
,
00000110
00000000
00010100
00000000
00010000
00001000
01000000
00200000
,
00000000
10000000
10300000
00000000
01000000
10000000
00010000
00000000
,
00200000
00010000
00310000
00000000
02000000
00001000
03001000
00000000
,
00001000
00010000
00001000
00000100
00000001
00000010
00000100
00000000
,
02000200
00000000
00000000
00000000
,
00000000
00000000
00000000
03000300
;

//---------------dance-double - ----------------
#NOTES:
     dance-double:
     :
     Challenge:
     12:
     :
00000000
00000000
00000000
00000000
,
00000000
00000000
00000000
00000000
,
00000000
00000000
00000000
00000000
,
00000000
00000000
00000000
00000000
,
00000000
00000000
00000000
00000000
,
00010000
00100000
01000000
00010000
01000000
10000000
00100000
01000000
,
00001000
00011000
00000000
00000011
00000000
00000100
00000010
00001000
,
00000100
00000001
00000100
00000010
00000001
00000100
00000010
00001000
,
00000100
00010100
00000000
00101000
00000000
00100000
00010000
01000000
,
10000000
01000000
00100000
10000000
01000000
00010000
01000000
00100000
,
00001000
01001000
00000000
10100000
00000000
10000000
00010000
00000100
,
00000001
00000010
00000001
00000100
00001000
00000100
00000010
00000000
,
00010000
00001000
00000000
00010000
00001000
00000000
00010000
00001000
00000000
00010000
00001000
00000000
00010000
00000000
00001000
00000000
,
01000000
00100000
00010000
00100000
10000000
01000000
00100000
00010000
,
01000000
01100000
00000000
10010000
00000000
10000000
01000000
00100000
,
00001000
00010000
00001000
00000100
00000001
00000010
00000100
00000000
,
00000011
00000100
00000001
00001000
00000010
00000100
00000001
00000000
,
00000010
00000001
00001000
00000010
00000100
00010000
01000000
00100000
,
00010000
00100000
10000000
11000000
00000000
10000000
00010000
00100000
,
01000000
00001000
01000000
00100000
00010000
10000000
00100000
01000000
,
00010000
00100000
00010000
01000000
00001000
00010000
00000010
00000000
,
00000100
00000000
00000010
00000000
00000000
00000000
00001000
00000001
00001000
00000000
00001000
00000000
00000000
00000000
00000000
00000000
,
00100000
00000000
10000000
00000000
00000000
00000000
00010000
01000000
00010000
00000000
00010000
00000000
00000000
00000000
00000000
00000000
,
00100000
00000000
00010000
00000000
00000000
00000000
01000000
00001000
01000000
00000000
01000000
00000000
00000000
00000000
00000000
00000000
,
00001000
00000000
00010000
00000000
00000000
00000000
00000010
00000100
00000010
00000000
00000010
00000000
00000000
00000000
00000000
00000000
,
00000100
00000000
00000001
00000000
00000000
00000000
00001000
00000010
00001000
00000000
00001000
00000000
00000000
00000000
00000000
00000000
,
01000000
00000000
10000000
00000000
00000000
00000000
00010000
00100000
00010000
00000000
00010000
00000000
00000000
00000000
00000000
00000000
,
00101000
00000000
00000000
00000000
10100000
00000000
00010000
10000000
00010000
00000000
01000000
00000000
00100000
00000000
10000000
00000000
,
11000000
00000000
00000000
00000000
01001000
00000000
00000000
00000000
00010000
00001000
00000000
00000000
00001000
00010000
00000000
00000000
,
00010010
00000000
00001000
00000000
00000100
00000000
00000010
00000001
00000010
00000000
00000100
00000000
00001000
00000000
00000010
00000000
,
00000100
00000000
00000001
00000000
00001000
00000000
00000000
00000000
00000100
00010000
00000000
00000000
00010000
01000000
00000000
00000000
,
11000000
00000000
00000000
00000000
00110000
00000000
10000000
00010000
10000000
00000000
00100000
00000000
01000000
00000000
00001000
00000000
,
00100000
00000000
01000000
00000000
01000000
00000000
00000000
00000000
10000000
00010000
00000000
00000000
00100000
00001000
00000000
00000000
,
00010010
00000000
00000011
00000000
00000010
00000001
00001000
00000010
,
00010000
00000000
00000100
00000000
00001000
00000000
00000000
00000000
00000010
00001000
00000000
00000000
00000001
00000100
00000000
00000000
,
00000020
00010000
00010030
00001000
02000000
00100000
03100000
10000000
,
01000000
00001000
01000000
00010000
01000000
00100000
01000000
10000000
,
00010000
00010000
00000000
01000000
20010000
00000000
00100000
00100000
,
00100000
00000000
00000000
00000000
01000000
00000000
00000000
00000000
30100000
00000000
00000000
00001000
00000000
00000000
00000100
00000000
,
00000001
00000000
00000000
00000010
00000000
00000000
00000001
00000000
00001002
00000000
00000000
00000000
00000100
00000000
00000100
00000000
,
00000100
00000000
00000000
00000000
00010000
00000000
00000000
00000000
00001003
00000000
00000000
00000100
00000000
00000000
00010000
00000000
,
01000000
10000000
00100000
01000000
10000000
01000000
00001000
00100000
,
01000000
00000000
11000000
00000000
00000000
00000000
00101000
00000000
00100000
00000000
00000000
00010000
00000000
00000000
10000000
00000000
,
01000000
00000000
00100000
00000000
00001000
00000000
00000010
00000001
00000010
00000000
00000100
00000000
00001000
00000000
00000010
00000000
,
00010000
00001000
00000000
00010000
00001000
00000000
00010000
00001000
00000000
00010000
00001000
00000000
00010000
00000000
00001000
00000000
,
01000000
00000000
00010000
00000000
00100000
00000000
01000000
10000000
01000000
00000000
00100000
00000000
00010000
00000000
00000100
00000000
,
00000001
00000000
00000010
00000000
00000100
00000000
00000000
00000000
00001000
00000010
00000000
00000000
00001000
00000001
00000000
00000000
,
00000101
00000000
00010100
00000000
00001000
00000010
00001000
00000001
,
00000010
00000000
00000100
00000000
00010000
00000000
00000000
00000000
00001000
01000000
00000000
00000000
00100000
10000000
00000000
00000000
,
01100000
00000000
00000000
00000000
10010000
00000000
00100000
10000000
00100000
00000000
01000000
00000000
00010000
00000000
10000000
00000000
,
01000000
00000000
00100000
00000000
00010000
00000000
10000000
00100000
20000000
00000000
00010000
00000000
30010000
00000000
00000000
00000000
,
02000000
00001000
03001000
00010000
00000020
00000100
00000130
00000001
,
00000010
00000001
00001000
00000010
00000100
00010000
01000000
00100000
,
02000200
00000000
00000000
00000000
,
00000000
00000000
00000000
03000300
;
