#TITLE:Pretty Fly (For a White Guy);
#ARTIST:The Offspring;
#BANNER:Pretty Fly (For a White Guy)-bn.png;
#BACKGROUND:Pretty Fly (For a White Guy)-bg.png;
#JACKET:Pretty Fly (For a White Guy)-jacket.png;
#MUSIC:Pretty Fly (For a White Guy).ogg;
#SAMPLESTART:82;
#SAMPLELENGTH:20;
#DISPLAYBPM:142:145;
#BPMS:0=143.28,176=145,188=143.28,204=144,220=142,232=143,240=144.5,252=143.28,276=142;
#BGCHANGES:;

//---------------dance-single - ----------------
#NOTES:
     dance-single:
     :
     Beginner:
     4:
     :
0000
0000
0000
0000
,
0000
0000
0000
0000
,
0000
0000
0000
0000
,
0000
0000
0000
0000
,
0000
0000
0000
0000
,
1000
1000
1000
0000
,
0000
1001
0000
0110
,
0000
0001
0000
0001
,
0001
0000
0110
0000
,
1001
0000
0010
0000
,
1000
0000
0100
0000
,
1001
0000
0010
0000
,
0100
0000
0001
0000
,
0110
0000
0010
0000
,
1000
0000
0100
0000
,
1000
1000
1000
0000
,
0001
0001
0001
0000
,
0100
0000
0010
0000
,
0100
0000
0010
0000
,
1000
0000
0001
0000
,
1000
0000
0001
0000
,
1000
0000
0010
0000
,
1000
0000
0010
0000
,
1000
0000
0100
0000
,
0010
0010
0010
0000
,
0110
0000
0001
0000
,
1001
0000
0100
0000
,
1000
1000
1000
0000
,
0100
0100
0100
0000
,
1001
0000
0010
0000
,
1001
0000
0100
0000
,
0001
0001
0001
0000
,
0010
0010
0010
0000
,
0110
0000
0010
0000
,
0110
0000
0100
0000
,
1000
1000
1000
0000
,
0001
0001
0001
0000
,
1001
0000
0000
0000
,
0100
0000
0010
0000
,
1000
0000
0001
0000
,
0110
0000
0000
0000
,
0010
0000
0000
0000
,
1000
0000
0000
0000
,
0001
0000
0000
0000
,
0100
0000
0100
0000
,
1001
0000
0000
0000
,
0110
0000
0000
0000
,
0110
0000
0000
0000
,
1001
0000
1000
0000
,
0010
0010
0010
0000
,
0100
0100
0100
0000
,
0110
0000
0001
0000
,
1001
0000
0010
0000
,
1000
1000
1000
0000
,
0001
0001
0001
0000
,
1001
0000
0010
0000
,
1001
0000
1000
0000
,
0100
0100
0100
0000
,
0010
0010
0010
0000
,
0110
0000
0001
0000
,
0110
0000
1000
0000
,
0001
0001
0001
0000
,
0100
0100
0100
0000
,
0110
0000
0000
0000
,
0010
0010
0010
0000
,
1001
0000
0000
0000
,
0010
0010
0010
0000
,
1000
1000
1000
0000
,
0001
0001
0001
0000
,
1000
0000
1000
0000
,
0010
0010
0010
0010
;

//---------------dance-single - ----------------
#NOTES:
     dance-single:
     :
     Easy:
     7:
     :
0000
0000
0000
0000
,
0000
0000
0000
0000
,
0000
0000
0000
0000
,
0000
0000
0000
0000
,
0000
0000
0000
0000
,
1000
0100
0001
0100
,
1000
0010
0001
0010
,
1000
1000
0001
0001
,
1001
0100
0110
0110
,
1001
0000
2000
3200
,
1300
0000
0020
0130
,
0110
0000
0002
0023
,
0031
0000
2000
3100
,
1001
0000
0020
0230
,
0310
0000
2000
3002
,
0013
0010
0011
0011
,
1000
1100
1100
0000
,
0001
0100
1000
0000
,
0010
1000
0001
0000
,
1000
0010
0100
0100
,
0100
0001
1000
0000
,
0010
0100
0110
0000
,
0001
1000
1001
0000
,
1000
0001
1001
0110
,
1000
1000
1000
1000
,
0010
0100
0001
0001
,
0010
0100
1000
1000
,
1100
1100
0001
1000
,
0010
0010
0010
0100
,
0001
0010
0100
0100
,
1000
0010
0100
0100
,
0002
1000
0103
0000
,
2000
0001
3100
0110
,
1001
0001
0100
1000
,
1001
0010
1000
0100
,
0011
0011
0001
0100
,
1000
0010
1001
0000
,
2200
0300
0001
3001
,
1000
0001
1000
0100
,
1001
1001
0110
0110
,
1001
0010
0010
0010
,
1000
0100
1000
0000
,
0001
0100
0001
0000
,
1000
0001
1000
0001
,
0100
0100
0100
0010
,
1001
0100
0010
1000
,
0110
0001
1000
0000
,
1001
1000
0100
0010
,
0001
0100
0001
1001
,
0010
0010
0011
0011
,
1000
1100
1100
0001
,
0110
0010
1000
0100
,
0110
0001
1000
0010
,
1100
1100
0001
1000
,
0010
0100
0100
0100
,
0110
0010
1000
0001
,
1001
1000
0100
0010
,
0001
0001
0001
0100
,
1000
0010
1000
0100
,
1001
1000
0001
0010
,
1001
0010
0100
1000
,
0011
0011
0100
0010
,
1000
1000
1000
0000
,
0220
0030
0001
0301
,
1000
0010
0100
0001
,
0022
0030
0100
0103
,
0001
0001
1000
0010
,
1000
0011
0100
0010
,
1000
0001
1000
0100
,
1001
1001
0110
0110
,
1001
0010
0010
0010
;

//---------------dance-single - ----------------
#NOTES:
     dance-single:
     :
     Medium:
     11:
     :
0000
0000
0000
0000
,
0000
0000
0000
0000
,
0000
0000
0000
0000
,
0000
0000
0000
0000
,
0000
0000
0000
0000
,
1000
0001
1000
0001
0100
0010
0000
0000
,
0000
0000
0101
0001
0000
1100
1000
0000
,
0001
0010
0001
0000
1000
0100
1000
0000
,
0010
0000
0010
1000
0001
0000
0110
0000
,
1001
0000
0000
1000
0002
0000
0203
0000
,
0301
0010
0000
0001
2000
0000
3100
0000
,
1100
0000
0000
0010
2000
0000
3200
0000
,
0310
0001
0000
1000
0002
0000
0103
0000
,
0101
0000
0000
1000
0200
0000
0320
0000
,
0130
0010
0000
0001
2000
0000
3010
0000
,
1000
0001
0100
0000
0110
0000
0001
1000
,
0010
0100
0010
0100
0010
0000
0000
0000
,
1001
0000
0001
0010
0100
1000
0000
0000
,
1010
0000
1000
0001
0100
0010
0000
0000
,
0101
0000
0001
0100
0010
1000
0000
0000
,
1100
0000
0010
1000
0001
0100
0000
0000
,
0110
0000
0010
0100
0001
1000
0000
0000
,
0011
0000
1000
0001
0100
0010
0000
0000
,
1010
0000
1000
0100
0010
0001
0000
0000
,
0001
1000
0001
1000
0001
1000
0001
0000
,
0010
0001
0000
0101
0000
1000
0000
0010
,
1000
0100
0000
1100
0000
0001
0000
0100
,
0020
0000
1030
0100
2000
0000
3001
0100
,
0001
0010
0100
0010
0001
0000
0001
1000
,
0010
0100
0000
1010
0000
0001
0000
1000
,
0100
0010
0000
0011
0000
1000
0000
0001
,
2000
0000
3020
0000
0230
0000
0310
1000
,
0001
0000
1001
0000
0110
0000
0010
1000
,
0100
0010
0000
0011
0000
0010
0001
1000
,
0001
0100
0000
1010
0000
0010
1000
0000
,
0020
0000
2030
0000
3001
0010
0100
1000
,
0010
0100
0010
0100
0010
0000
0000
0000
,
0101
0000
0000
0001
2000
0000
3002
0000
,
0013
0100
0000
1100
0000
0101
0000
0000
,
1001
0000
1001
0000
1000
0001
0100
0010
,
1000
0000
0100
1000
0100
1000
0010
0000
,
1000
0000
0100
0000
0010
0001
0000
0001
,
0100
0010
1000
0000
1010
0000
0000
0000
,
1000
0001
0100
0001
1000
0000
0101
0000
,
0001
1000
0100
1000
0001
1000
0100
0000
,
1001
0000
0010
0000
0010
0000
0000
0110
,
0110
0000
0001
0000
1000
0000
0000
1001
,
1001
0100
0020
0000
2030
0000
3001
1000
,
0000
0010
0000
0010
1000
0001
1000
0000
,
1000
0001
0100
0000
0110
0000
0001
1000
,
0010
0100
0010
0100
0010
0000
0110
0000
,
0100
0001
0000
0011
0000
1000
0000
0100
,
1000
0010
0000
1010
0000
0100
0000
0001
,
2000
0000
3010
0100
0020
0000
1030
0001
,
1000
0100
1000
0100
1000
0000
0001
1000
,
0001
0100
0000
0011
0000
0010
0000
0100
,
1000
0001
0000
1100
0000
0010
0000
0100
,
0002
0000
2003
0000
3200
0000
0310
0001
,
0200
0000
0320
0000
2030
0000
3001
1000
,
0001
0010
0000
1001
0000
1000
0001
0100
,
0001
1000
0000
0110
0000
0010
0100
0000
,
0002
0000
2003
0000
3100
0010
0100
0010
,
0001
1000
0100
1000
0001
0000
0000
0000
,
0011
0000
0000
0010
0001
0000
0100
0000
,
0001
1000
0000
1100
0000
0101
0000
0000
,
1010
0000
0000
0010
0100
0000
0001
0000
,
0010
0100
0000
1001
0000
0110
0000
0000
,
2000
0000
3002
0000
1003
0100
0001
0000
,
0010
0100
0000
0011
0000
1010
0000
0000
,
1001
0000
1001
0000
0001
0010
0100
0010
,
0001
0000
0100
0001
0100
0001
0010
0000
;

//---------------dance-single - ----------------
#NOTES:
     dance-single:
     :
     Hard:
     13:
     :
0000
0000
0000
0000
,
0000
0000
0000
0000
,
0000
0000
0000
0000
,
0000
0000
0000
0000
,
0000
0000
0000
0000
,
1000
0001
0010
0001
1000
0100
0100
0000
,
0010
0000
1100
0001
0000
0101
1000
0100
,
1000
1000
0010
0010
0100
0100
0001
0001
,
1001
0000
0010
0001
0100
0000
0110
0000
,
1001
0000
0001
0100
0020
1000
2030
0000
,
3100
0010
0000
0010
0002
0100
0103
0000
,
1010
0000
1000
0001
0200
0010
0320
0000
,
1030
0001
0000
0001
2000
0100
3100
0000
,
0011
0000
0010
0001
2000
0100
3200
0000
,
0310
0100
0000
0100
2000
0001
3001
0000
,
0010
0001
0100
0001
1000
0010
1000
0100
,
1000
1000
0001
0001
0110
0000
0000
0010
,
1000
0100
1000
0001
0100
0010
0000
0010
,
1000
0100
1000
0001
0010
0100
0000
0100
,
1000
0010
0001
0010
1000
0000
1000
0100
,
1000
0001
0010
0001
1000
0100
0000
0100
,
0010
0001
0100
0001
1000
0010
0000
0010
,
1000
0100
0010
0000
0001
1000
0000
0001
,
0100
1000
0100
0001
0010
0000
0010
0001
,
0100
0100
0100
0100
0010
1000
0001
0000
,
0101
0100
0000
0010
1000
0001
1000
0100
,
1000
0001
0000
0100
0001
0010
0001
1000
,
2100
0000
3001
1000
0010
1000
0100
0010
,
0001
0001
0001
1000
1000
0010
1000
0100
,
0010
0001
0000
0001
1000
0010
1000
0100
,
1000
0010
0000
0010
0100
0001
0100
0010
,
1010
0000
0101
0000
1100
0001
0100
0010
,
2001
0000
3002
0000
2003
0000
3010
0100
,
0110
0010
0000
0100
0001
1000
0001
0010
,
0001
0100
0000
0100
0010
1000
0001
0000
,
0011
0000
1010
0000
0101
1000
0001
1000
,
0010
0100
0010
1000
2000
0001
3001
0000
,
1010
0000
0001
1000
0100
0010
0100
0000
,
1000
0001
0000
0110
0000
0010
0100
0000
,
1001
0000
1001
0000
0010
1000
0001
1000
,
0100
1000
1000
1000
0001
1000
1000
0000
,
0001
0010
1000
0001
0100
1000
0000
0010
,
1000
0100
0001
0000
0011
0000
0000
0001
,
0001
0100
0010
1000
1000
0000
1000
0001
,
1000
0100
0010
0001
1000
0010
0100
0001
,
1001
0100
0010
0000
0010
0000
1000
0001
,
0101
0000
1100
0000
0101
0000
0000
0001
,
1001
1000
0010
1000
0100
0010
0001
0001
,
0000
1010
0000
0001
1000
0100
0100
0000
,
0010
0001
0100
0001
1000
0010
1000
0100
,
1000
1000
0001
0001
0110
0000
0110
0000
,
0101
0010
0000
0001
1000
0100
1000
0010
,
1000
0001
0000
0001
0100
0010
0100
1000
,
0200
0000
0301
1000
0001
0010
0100
1000
,
0010
0010
0010
0100
0200
0000
0301
1000
,
0010
1000
0000
1000
0001
0010
0001
0100
,
0001
1000
0000
1000
0100
0010
0100
0001
,
0100
0000
1100
0000
0101
0001
0010
0100
,
1100
0000
0110
0000
0011
0000
0001
0100
,
1001
0010
0000
1000
0001
0100
0001
0010
,
0001
0100
0000
0010
1000
0100
1000
0000
,
0011
0000
1010
0000
0001
0100
0010
1000
,
0100
0010
0100
1000
2000
0001
3001
0000
,
0011
0000
0001
0100
1000
0100
0001
0000
,
0010
0100
0000
0110
0000
0001
1000
0000
,
1100
0000
0010
1000
0100
1000
0001
0000
,
0010
0001
0000
0110
0000
1000
0100
0000
,
0001
0000
1002
0000
1003
0010
0100
0000
,
1000
0100
0000
0110
0000
0010
0001
0000
,
1001
0000
1001
0000
1000
0001
0100
0010
,
1000
0010
0010
0010
0100
0010
0010
0000
;
