#TITLE:Pony;
#ARTIST:Ginuwine;
#BANNER:Pony-bn.png;
#BACKGROUND:Pony-bg.png;
#JACKET:Pony-jacket.png;
#MUSIC:Pony.ogg;
#SAMPLESTART:40.583;
#SAMPLELENGTH:20;
#DISPLAYBPM:142;
#BPMS:0=142;
#BGCHANGES:;

//---------------dance-single - ----------------
#NOTES:
     dance-single:
     :
     Beginner:
     3:
     :
0000
0000
0000
0000
,
0000
0000
0000
0000
,
0000
0000
0000
0000
,
0000
0000
0000
0000
,
1000
0000
0000
0000
,
0001
0000
0100
0100
,
0100
0000
0000
0000
,
0010
0000
1000
1000
,
1000
0000
0000
0000
,
0100
0000
1000
1000
,
1000
0000
0000
0000
,
0001
0000
0010
0010
,
0010
0000
0000
0000
,
0001
0000
0100
0100
,
0100
0000
0000
0000
,
0001
0000
0010
0010
,
0010
0000
0000
0000
,
0100
0000
0010
0010
,
0010
0000
0000
0000
,
0001
0000
0001
0001
,
0001
0000
0000
0000
,
1000
0000
0010
0010
,
0010
0000
0000
0000
,
1000
0000
0100
0100
,
0100
0000
0000
0000
,
1000
0000
0010
0010
,
0010
0000
0000
0000
,
0100
0000
0001
0001
,
0001
0000
0000
0000
,
0010
0000
0001
0001
,
0001
0000
0000
0000
,
0100
0000
0010
0010
,
0010
0000
0000
0000
,
1000
0000
0100
0100
,
0100
0000
0000
0000
,
1000
0000
0001
0001
,
0001
0000
0000
0000
,
0100
0000
0010
0010
,
0010
0000
0000
0000
,
0100
0000
0010
0010
,
0010
0000
0000
0000
,
1000
0000
1000
1000
,
1000
0000
0000
0000
,
0100
0000
0010
0010
,
0010
0000
0000
0000
,
0001
0000
1000
1000
,
1000
0000
0000
0000
,
0001
0000
0001
0001
,
0001
0000
0000
0000
,
0100
0000
0100
0100
,
0100
0000
0000
0000
,
0001
0000
0010
0010
,
0010
0000
0000
0000
,
0100
0000
1000
1000
,
1000
0000
0000
0000
,
0100
0000
0010
0010
,
0010
0000
0000
0000
,
0001
0000
1000
1000
,
1000
0000
0000
0000
,
0001
0000
0100
0100
,
0100
0000
0000
0000
,
0010
0000
1000
1000
,
1000
0000
0000
0000
,
0100
0000
0010
0010
,
0010
0000
0000
0000
,
0001
0000
1000
1000
,
1000
0000
0000
0000
,
0100
0000
1000
1000
,
1000
0000
0000
0000
,
0010
0000
0100
0100
,
0100
0000
0000
0000
,
0001
0000
0010
0010
,
0020
0000
0000
0000
,
0000
0000
0030
0000
,
2000
0000
0000
0000
,
0000
0000
3000
0000
;

//---------------dance-single - ----------------
#NOTES:
     dance-single:
     :
     Easy:
     6:
     :
0000
0000
0000
0000
,
0000
0000
0000
0000
,
0000
0000
0000
0000
,
0000
0000
0000
0000
,
2000
3001
0100
0100
,
0002
0013
0002
2003
,
3020
0130
0001
0001
,
0200
0300
1001
1001
,
0020
0030
1000
0001
,
0020
0130
2000
3002
,
0203
0310
1000
0100
,
0020
0031
0200
0320
,
1030
1001
0220
0030
,
0001
0310
0002
0003
,
0220
0300
1000
1030
,
2000
3000
1001
1001
,
0200
0300
0001
0010
,
0002
0103
2000
3020
,
0230
0310
1000
0001
,
0020
0130
2000
3002
,
0203
0310
0100
0001
,
2000
3010
2000
3200
,
0320
0031
0100
0010
,
1001
0110
2002
3000
,
0013
0200
2300
3010
,
0000
0200
0302
1003
,
0000
0000
2000
3100
,
0000
0020
0032
1003
,
0000
0200
2300
3001
,
0000
0000
0020
0130
,
0000
0000
2000
3010
,
0000
1001
0020
0230
,
0301
0020
0032
1003
,
0000
0200
0320
0130
,
0000
0000
2000
3010
,
0000
0200
0302
0013
,
0000
0002
2003
3100
,
0000
0000
0200
1300
,
0000
0000
0002
0103
,
0000
0110
2000
3002
,
0023
0030
0001
0100
,
2000
3010
2000
3002
,
0203
0310
1000
1000
,
0200
0310
0002
0203
,
0320
1030
2002
0003
,
0010
3100
0002
0003
,
0220
0030
0001
0301
,
0002
0003
1001
1001
,
2000
3000
0100
1000
,
0002
0103
0020
2030
,
3200
0310
0001
0010
,
0002
0103
2000
3002
,
2003
3010
0220
0030
,
0301
0100
2000
3000
,
0020
0030
1000
0001
,
0200
0310
0220
0300
,
1030
0002
2003
3100
,
0000
0020
0032
1003
,
0000
0000
0200
0310
,
0000
0002
0023
0031
,
0000
0200
0302
0013
,
0000
0000
2000
3001
,
0000
0000
2000
3010
,
0000
1001
0200
2300
,
3001
0020
0032
0103
,
0000
2000
3200
0310
,
0000
0000
0002
0103
,
0000
0002
0023
0031
,
0000
2000
3002
0103
,
0000
0000
0020
1030
,
0000
0000
0200
0310
,
0000
0110
0002
2003
,
3020
0000
0000
0000
,
0000
0030
0110
0000
,
2000
0000
0001
0001
,
0000
3000
1001
0000
;

//---------------dance-single - ----------------
#NOTES:
     dance-single:
     :
     Medium:
     10:
     :
0000
0000
0000
0000
,
0000
0000
0000
0000
,
0000
0000
0000
0000
,
0000
0000
0000
0000
,
2000
3100
0001
0000
0010
0000
0010
0000
,
0002
0103
1000
0000
0020
0000
0230
0000
,
0320
1030
0001
0000
0100
0000
0100
0000
,
0002
0003
1001
1001
,
1000
0001
0000
0000
0110
0000
0010
1000
,
0200
0320
0032
2003
,
3001
0100
0000
0000
0010
1000
0010
1000
,
0200
0320
0230
2300
,
3010
0000
0101
0000
2200
0000
0300
3001
,
1000
0000
0010
0100
0002
0000
2003
0000
,
3010
0100
0000
0001
1000
0000
1000
0100
,
2000
0000
3010
0200
0000
0000
0300
0000
,
0001
1000
0000
0000
0100
0010
0100
1000
,
0002
0000
0103
0010
2000
0000
0000
0000
,
3100
1000
0000
0000
0001
0100
0001
0010
,
0002
2003
3020
0230
,
0310
0100
0000
0000
0110
0000
0010
1000
,
0100
0000
1000
0002
0000
0000
0000
0000
,
0013
0001
0000
0000
0100
0010
0100
0010
,
1000
0000
1000
0100
1000
0002
0000
0000
,
0013
0001
0100
0000
0101
0000
1010
0000
,
0100
1000
0001
0000
0020
0000
0230
0000
,
1300
0001
0100
0000
0110
0000
1001
0000
,
0010
1000
0001
0000
2000
0000
3200
0000
,
0310
0001
0100
0000
1010
0000
1100
0000
,
0001
0100
1000
0000
0020
0000
2030
0000
,
3100
0010
0001
0000
0200
0000
0320
0000
,
1030
0000
1001
0000
0010
0100
0001
0000
,
1000
0001
0100
0000
1010
0000
0011
0000
,
0100
1000
0001
0000
2000
0000
3200
0000
,
0310
0100
1000
0000
1100
0000
0011
0000
,
0100
0010
1000
0000
0200
0000
0320
0000
,
0031
1000
0010
0000
0101
0000
1010
0000
,
0100
1000
0001
0000
0020
0000
0230
0000
,
1300
0010
1000
0000
0002
0000
0203
0000
,
0310
0000
0110
0000
0001
0100
1000
0000
,
0010
0100
0000
0000
0001
1000
0100
0000
,
2000
3002
0010
0100
,
0013
0001
0000
0000
1000
0010
0100
0000
,
0002
2003
0100
3100
,
1000
0001
0010
0000
0022
0000
0030
1003
,
0010
0100
0002
0000
1000
0000
0103
0000
,
1000
0001
0100
0000
0100
0000
0100
0000
,
0020
0130
1001
1001
,
0010
1000
0000
0000
0100
0010
0001
0000
,
2000
3020
0100
0001
,
0130
0010
0000
0000
1000
0100
1000
0100
,
2000
0002
0000
3003
,
0010
1000
0010
0100
0002
0000
0000
0013
,
0001
1000
0000
2200
0000
0000
0300
0000
,
3010
0100
0000
0000
0001
1000
0001
1000
,
0200
0000
2300
0002
0000
0000
3003
0000
,
0010
0001
1000
0000
1100
0000
0101
0000
,
0010
1000
0100
0000
2000
0000
3002
0000
,
0013
0100
1000
0000
0110
0000
1001
0000
,
0001
0100
1000
0000
0020
0000
0230
0000
,
0310
1000
0100
0000
1001
0000
0011
0000
,
0100
0001
0010
0000
0002
0000
2003
0000
,
3010
1000
0100
0000
2000
0000
3002
0000
,
0013
0000
0011
0000
0100
0001
1000
0000
,
0100
0010
0001
0000
1010
0000
0110
0000
,
0100
0001
1000
0000
0200
0000
0320
0000
,
0031
0100
0010
0000
0101
0000
1010
0000
,
0010
1000
0100
0000
2000
0000
3002
0000
,
0013
0001
0100
0000
0101
0000
0011
0000
,
1000
0001
0100
0000
0020
0000
2030
0000
,
3100
0010
0001
0000
2000
0000
3200
0000
,
1300
0000
0110
0000
0001
0010
0100
0000
,
2200
0000
0000
0000
,
0300
0000
3001
1000
0020
0000
0030
0000
,
0202
0300
1000
1000
,
0000
0100
0200
0303
;

//---------------dance-single - ----------------
#NOTES:
     dance-single:
     :
     Hard:
     13:
     :
0000
0000
0000
0000
,
0000
0000
0000
0000
,
0000
0000
0000
0000
,
0000
0000
0000
0000
,
2000
0100
3001
0000
0010
0000
0010
0000
,
0002
0100
1003
1000
0020
1030
0200
0000
,
0320
0001
0130
0000
1000
0000
1000
0000
,
0002
0100
1003
0000
1001
0000
1001
0000
,
0020
1000
0130
0000
1010
0000
0001
0100
,
0010
1000
0002
0000
0023
0031
0200
0000
,
0302
1000
0013
0000
0001
1000
0010
1000
,
0100
0010
0001
0000
0200
0310
2000
0000
,
3002
0010
1003
0000
0201
0000
0310
0100
,
0002
0000
0000
0000
1003
0100
0000
2000
0010
0000
0000
0000
3100
0000
0000
0000
,
0020
1000
0130
0010
0110
0000
0001
1000
,
0200
0000
0310
0001
1001
0000
1001
0000
,
0200
0001
0310
0000
1000
0001
1000
0100
,
0010
0001
0010
0100
2000
3001
0020
0000
,
0032
0100
0013
0000
0100
1000
0010
0100
,
0002
1000
0023
0000
0032
0013
0200
0000
,
2300
0010
3001
0000
1020
0000
0130
0001
,
0010
0100
2000
0000
3002
1003
0200
0000
,
0320
0031
0000
0100
0001
1000
0100
0010
,
0002
0100
0013
0001
1000
0010
0100
0000
,
0001
0100
0010
0100
1000
0100
0001
0000
,
0010
0100
1000
0010
2000
0001
3001
0000
,
0010
0001
0100
0000
1010
0000
0101
0000
,
0002
0010
1003
0000
2000
0100
3001
0000
,
0010
1000
0100
0010
0001
1000
0100
0000
,
1000
0010
0100
0001
0020
0100
0130
0000
,
0010
0001
1000
0010
1000
0100
1000
0000
,
0010
0100
0101
0000
2100
0001
3100
0000
,
1001
1000
0010
1000
0100
0010
0001
0000
,
1010
0010
1000
0100
0010
0001
0100
0000
,
0002
0010
1003
0100
2000
0001
3001
0000
,
0010
0001
1001
0000
0012
0100
0013
0000
,
0101
0010
1000
0100
2000
0001
3001
0000
,
1100
0001
0010
0001
2000
0100
3100
0000
,
0010
0001
1000
0010
1000
0100
0001
0000
,
0010
0100
0110
0000
1001
0010
0100
0000
,
2000
0001
3010
0000
0100
0001
2000
0000
,
3100
0010
0002
0000
0203
0310
2000
0000
,
3200
0010
1300
0000
0001
0100
0020
0000
,
2030
0100
3001
0000
1001
0000
1001
0000
,
0010
1000
1100
0000
0021
0000
0031
0100
,
0010
1000
0002
0000
0023
0031
0200
0000
,
0302
1000
0103
0001
1000
0000
1000
0100
,
2000
0010
3100
0010
1001
0000
1001
0000
,
0200
1000
0301
0000
0100
1000
0002
0000
,
0023
0001
0230
0000
2300
3001
0020
0000
,
0032
0100
1003
0000
0010
0100
0010
1000
,
0100
0010
0002
0000
2003
3001
2000
0000
,
3020
0000
0000
0001
0000
0000
1030
0000
0100
0000
1000
0000
0002
0000
0000
0000
0000
0000
0013
0000
0000
0001
0000
0000
,
0100
0010
1000
0001
0020
0031
2000
0000
,
3200
0001
0310
0000
0100
1000
0001
1000
,
0200
1000
0310
0100
2000
3001
0020
0000
,
0031
0100
0010
1000
0100
0010
0001
0000
,
1000
0001
0010
0001
0100
0010
1000
0000
,
0200
1000
0310
0000
0002
0100
1003
0000
,
0010
1000
0010
0100
0001
0010
1000
0000
,
0100
1000
0010
1000
0001
0010
0100
0000
,
1000
0010
1000
0100
0010
0001
0100
0000
,
0010
1000
0100
1000
0001
0010
0100
0000
,
1000
0001
0011
0000
1010
0100
1000
0000
,
1001
0010
1000
0100
2000
0001
3010
0000
,
0110
0010
0100
0001
0020
1000
0031
0000
,
0200
0001
0310
0000
0002
1000
0013
0000
,
0100
1000
0010
1000
0100
0010
0001
0000
,
0101
0010
0100
0001
2000
0010
3100
0000
,
1100
0010
1000
0100
0020
0001
0130
0000
,
2000
0001
3010
0000
0200
0001
1300
0000
,
0010
0100
0101
0000
1010
0001
0100
0000
,
2010
0001
0001
0001
,
0001
0000
3001
0001
0012
0000
0103
0000
,
2000
0000
0010
0010
,
0001
0000
0100
3100
2000
0000
3001
0000
;
