#TITLE:Poker Face;
#ARTIST:Lady Gaga;
#BANNER:Poker Face-bn.png;
#BACKGROUND:Poker Face-bg.png;
#JACKET:Poker Face-jacket.png;
#MUSIC:Poker Face.ogg;
#OFFSET:1.25;
#SAMPLESTART:49.174;
#SAMPLELENGTH:20;
#LASTBEATHINT:0.48;
#DISPLAYBPM:119;
#BPMS:0=119.06;
#BGCHANGES:;

//---------------dance-single - ----------------
#NOTES:
     dance-single:
     :
     Beginner:
     3:
     :
0000
0000
0000
0000
,
0000
0000
0000
0000
,
0000
0000
0000
0000
,
0000
0000
0000
0000
,
0000
0000
0000
0010
,
0010
0000
0000
0000
,
0000
0000
0000
0100
,
0100
0000
0000
0000
,
0000
0000
0000
0001
,
0001
0000
1000
0000
,
0010
0010
0010
0000
,
1000
0000
0100
0000
,
0001
0001
0001
0000
,
1000
0000
0001
0000
,
0100
0100
0100
0000
,
0001
0000
0010
0000
,
1000
1000
1000
0000
,
0110
0000
0001
0000
,
0110
0000
1000
0000
,
0110
0000
0010
0000
,
0001
0001
0000
0000
,
0110
0000
0010
0000
,
0110
0000
0100
0000
,
0110
0000
0001
0000
,
1001
0000
0000
0000
,
0000
0010
0000
1000
,
0000
0100
0000
0100
,
0000
0001
0000
0000
,
1000
0000
0001
0000
,
0000
0010
0000
0001
,
0000
1000
0000
1000
,
0000
0100
0000
0000
,
0010
0000
0100
0000
,
0000
0001
0001
0001
,
0001
0001
0000
0000
,
0000
1000
1000
1000
,
1000
1000
0000
0000
,
1001
0000
0010
0000
,
1000
0000
0100
0000
,
0010
0000
0001
0000
,
0100
0000
0010
0000
,
0100
0000
0001
0000
,
0010
0000
0100
0000
,
1000
0000
0010
0000
,
1000
0000
0001
0000
,
0000
0100
0000
0010
,
0000
1000
0000
0001
,
0000
0001
0000
0000
,
1000
0000
0010
0000
,
0000
1000
0000
0001
,
0000
0100
0000
0010
,
0000
0010
0000
0000
,
0100
0000
0001
0000
,
0000
0100
0100
0100
,
0100
0100
0000
0000
,
0000
0010
0010
0010
,
0010
0010
0000
0000
,
0000
1000
1000
1000
,
1000
1000
0000
0000
,
0000
0001
0001
0001
,
0001
0001
0000
0100
,
0100
0000
0000
0000
;

//---------------dance-single - ----------------
#NOTES:
     dance-single:
     :
     Easy:
     7:
     :
0000
0000
0000
0000
,
0000
0000
0000
0000
,
0000
0000
0000
0000
,
0000
0000
0000
0000
,
0000
0000
0000
0000
,
1001
0010
0001
0100
,
1000
0010
1000
0001
,
1001
0010
0001
0100
,
0010
1000
0100
0010
,
1001
0001
0010
0100
,
1000
0010
2000
3000
,
0100
0100
1000
1000
,
0010
0100
0002
0003
,
0010
0001
0010
0100
,
1000
0010
0200
0300
,
0010
0010
1000
0001
,
1000
0100
0020
0030
,
0110
0000
0001
1000
,
0110
0000
1000
0100
,
0110
0010
0002
0003
,
1000
0001
0200
0300
,
0110
0000
0010
1000
,
0110
0000
0001
0010
,
0100
1000
0020
0030
,
2002
0000
0000
3003
,
0010
1000
0100
0001
,
0010
0100
0010
0001
,
0200
0020
0000
0330
,
1000
1100
0001
0101
,
0010
0001
0100
1000
,
0010
1000
0100
0001
,
2000
0002
0000
3003
,
0001
0101
1000
1100
,
0000
0010
0010
1000
,
0001
1000
0000
0010
,
1001
0100
0001
0001
,
0010
0100
0000
0010
,
1001
0010
1000
0100
,
1000
0001
0010
0100
,
0010
0001
0100
0010
,
1000
0100
0001
0010
,
1001
0100
0001
0010
,
0001
0100
1000
0010
,
1000
0001
1000
0100
,
0010
0001
0100
0010
,
0000
1000
0000
1000
,
0000
1000
0100
0010
,
0002
2000
0000
3003
,
0010
1100
0100
0101
,
0010
0001
0010
0100
,
1000
0010
1000
0001
,
0020
0200
0000
0330
,
0010
0001
0100
1000
,
0000
0010
1000
0100
,
1000
0001
0010
0000
,
0000
0001
0100
1000
,
0010
1000
0100
0000
,
0000
0010
0001
0010
,
0100
1000
0001
0010
,
1001
0010
0001
0100
,
0010
1000
0100
0010
,
1001
0000
0000
0000
;

//---------------dance-single - ----------------
#NOTES:
     dance-single:
     :
     Medium:
     10:
     :
0000
0000
0000
0000
,
0000
0000
0000
0000
,
0000
0000
0000
0000
,
0000
0000
0000
0000
,
0000
0000
0000
0000
0000
0010
0100
0010
,
0100
0001
0010
0100
,
1000
0000
0010
0000
1000
0010
0100
0010
,
0100
0001
0010
0100
,
1000
0000
0001
0000
1000
0010
0100
0010
,
0100
0001
1000
0000
0100
0010
0001
0000
,
1000
0010
0001
0010
2000
0000
3000
0000
,
0100
1000
0001
0000
0010
0001
0100
0000
,
0001
0010
1000
0010
0002
0000
0003
0000
,
0100
0001
0010
0000
0100
1000
0010
0000
,
0100
0001
1000
0001
0200
0000
0300
0010
,
0100
0010
1000
0000
0100
0010
0001
0000
,
1000
0001
0100
0001
0020
0000
0030
0000
,
0110
0000
0000
0001
2000
0000
3010
0000
,
0110
0000
0000
0100
0001
0010
0001
1000
,
0100
0000
0010
0001
2000
0000
3000
0010
,
1000
0100
0010
0002
0000
0000
0003
0000
,
1001
0000
0000
0010
0200
0000
0301
0000
,
1001
0000
0000
0010
0001
0100
0010
1000
,
0100
0010
0001
0100
0020
0000
0030
1000
,
0001
0100
0001
0020
0000
0000
0000
0000
,
0031
0010
0100
1000
0000
0010
0100
0001
,
0000
1000
0100
1000
0010
0100
0001
0000
,
0012
0000
0100
0200
0000
0000
0303
0000
,
0020
0000
1030
0001
1000
0100
0010
0001
,
0000
0100
0001
0010
0000
0100
1000
0010
,
0000
1000
0001
1000
0100
0010
0001
0000
,
2100
0000
0001
0002
0000
0000
3003
0000
,
0200
0000
0301
0010
0001
0100
0010
1000
,
0000
0100
1000
0100
1000
0100
1000
0100
,
1000
0100
1000
0100
0000
0000
0000
0000
,
0000
0010
0001
0010
0001
0010
0001
0010
,
0001
0010
0001
0010
0000
0000
1000
0001
,
0100
0000
0010
1000
0100
0000
0010
0001
,
1000
0000
0010
0100
0010
0000
0100
0001
,
0010
0000
0100
1000
0001
0000
0010
0001
,
0100
0000
0001
0010
0001
0000
1000
0001
,
1000
0000
0010
1000
0100
0000
1000
0001
,
0010
0000
0001
0100
0010
0000
1000
0100
,
0001
0000
0010
0001
0100
0000
0010
1000
,
0100
0000
1000
0010
0001
0000
1000
0100
,
0000
0001
0010
0100
0000
0010
0100
1000
,
0000
0010
1000
0010
1000
0100
0001
0000
,
0102
0000
0010
0020
0000
0000
0033
0000
,
0002
0000
1003
0001
1000
0100
0010
0001
,
0000
0100
0010
0100
0000
0001
0010
0100
,
0000
1000
0010
0100
0001
1000
0100
0000
,
1020
0000
1000
2000
0000
0000
3030
0000
,
0002
0000
1003
0100
1000
0010
0100
0001
,
0000
1000
0010
1000
0010
1000
0010
1000
,
0010
1000
0010
1000
0000
0000
0000
0000
,
0000
0001
0100
0001
0100
0001
0100
0001
,
0100
0001
0100
0001
0000
0000
0000
0000
,
0000
0010
0100
0010
0100
0010
0100
0010
,
0100
0010
0100
0010
0000
0000
0000
0000
,
0000
1000
0001
1000
0001
1000
0001
1000
,
0001
1000
0001
1000
0000
0010
0100
0010
,
0100
0000
0000
0000
;

//---------------dance-single - ----------------
#NOTES:
     dance-single:
     :
     Hard:
     12:
     :
0000
0000
0000
0000
,
0000
0000
0000
0000
,
0000
0000
0000
0000
,
0000
0000
0000
0000
,
0000
0000
0000
0000
0000
0010
0010
0010
,
1001
0100
0001
0100
1000
0100
0010
0100
,
1000
0100
0001
0010
1000
0010
0010
0010
,
1001
0100
0001
0010
1000
0010
0100
0010
,
1000
0010
0001
0010
0100
0010
0010
0010
,
1001
0100
0001
0010
0001
0100
0001
0010
,
1000
0010
0100
0010
0001
0000
0101
0000
,
1000
0010
1000
0100
0001
0100
0010
0100
,
1000
0010
1000
0001
0100
0010
1000
0010
,
0100
0001
1000
0001
0010
0100
0010
0001
,
0100
1000
0100
0001
0010
0100
0001
0100
,
0010
0100
1000
0010
1000
0010
0001
0010
,
0100
0010
0001
0010
1000
0100
0001
0100
,
0110
0000
1000
0010
1000
0001
0100
0000
,
0110
0000
0010
1000
0100
0001
0100
0010
,
0100
1000
1000
0001
0001
0100
0010
1000
,
0100
0100
0010
0010
0001
0100
1000
0100
,
0110
0000
0001
0010
0001
0100
1000
0000
,
0110
0000
0010
1000
0100
0001
0100
0010
,
0100
1000
1000
0001
0001
0100
0010
1000
,
0100
0100
0010
0020
0000
0000
0000
0000
,
0031
0100
1000
0100
0001
0100
1000
0100
,
0001
0000
0010
0000
1000
0000
0010
0000
0001
0100
0001
0000
0100
0000
0010
0000
,
1000
0100
1100
1100
0000
0001
0100
0010
,
2000
0100
3100
0010
0001
0100
0010
1000
,
0100
0001
0100
0010
0100
0001
0100
0010
,
0100
0000
1000
0000
0010
0000
0100
0000
0001
0010
0001
0000
1000
0000
0100
0000
,
0010
0001
0011
0011
0000
1000
0001
0100
,
0002
1000
1003
0010
0100
1000
0100
0001
,
0000
0010
0010
0001
0001
1000
1000
0010
,
0010
0100
0001
1000
0000
0010
0010
0010
,
1001
0100
0100
0001
0001
1000
1000
0100
,
0100
0010
0001
1000
0000
0010
0010
0010
,
1001
0100
0001
0100
0010
0100
0001
0100
,
1000
0000
0010
0000
0100
0000
1000
0000
0100
0001
0000
0000
0010
0000
0010
0000
,
0010
0001
0100
0001
0010
1000
0010
0100
,
0010
0001
0100
1000
0100
0010
0010
0010
,
1001
0100
0100
0001
1000
0100
0001
0100
,
0010
1000
0010
0100
0010
0001
1000
0001
,
0100
0010
0001
0010
1000
0100
0010
0001
,
1000
0010
0000
0000
0100
0000
0100
0000
0100
0000
0001
0000
1000
0000
0100
0000
,
0010
0001
0100
1000
0000
0001
0100
1000
,
0000
0000
0001
0000
0100
0000
0010
0000
1000
0100
1000
0000
0001
0000
0000
0000
,
0100
0010
1010
1010
0000
0000
0000
0000
,
0200
1000
1300
0010
0100
0001
0010
0001
,
0100
0010
1000
0100
0001
0100
0010
0100
,
0001
0000
0100
0000
0010
0000
0001
0000
1000
0010
1000
0000
0100
0000
0010
0000
,
0001
0100
0101
0101
0000
0010
1000
0001
,
2000
0010
3010
0100
0001
1000
0100
0001
,
0100
0010
0010
0100
0100
1000
1000
0001
,
0001
0100
0010
1000
0000
0100
0010
0001
,
1000
0010
0010
1000
1000
0001
0001
0100
,
0200
0010
0310
1000
0001
0010
1000
0010
,
0001
0100
0100
0010
0010
1000
1000
0100
,
0100
0010
0001
1000
0000
0010
0010
0010
,
1001
1000
1000
0001
0001
0010
0010
0100
,
0100
1000
0010
0001
0000
0010
0010
0010
,
1001
0000
0000
0000
;
