#TITLE:Phlox;
#ARTIST:Sota Fujimori 2nd Season;
#BANNER:Phlox-bn.png;
#BACKGROUND:Phlox-bg.png;
#JACKET:Phlox-jacket.png;
#MUSIC:Phlox.ogg;
#SAMPLESTART:63.568;
#SAMPLELENGTH:20;
#DISPLAYBPM:185;
#BPMS:0=185;
#BGCHANGES:;

//---------------dance-single - ----------------
#NOTES:
     dance-single:
     :
     Beginner:
     7:
     :
0000
0000
0000
0000
,
0000
0000
0000
0000
,
0000
0000
0000
0000
,
0000
0000
0000
0000
,
1000
0000
0001
0000
,
0100
0000
0010
0000
,
1000
0000
0000
0000
,
0110
0000
1001
0000
,
0010
0100
0010
0000
,
1000
0001
1000
0100
,
0010
0001
0100
0000
,
0001
0010
1000
0001
,
0110
0000
0001
0100
,
1001
0000
0010
1000
,
0100
0010
0001
0100
,
0000
1000
0001
1000
,
0000
0000
0000
0000
,
0010
1000
0100
0001
,
0000
0010
0001
1000
,
0010
1000
0000
0001
,
0000
1000
0100
0010
,
0001
0100
0010
1000
,
0000
0100
1000
0001
,
1000
0010
0000
0100
,
0000
0001
1000
0001
,
0010
0010
0000
0001
,
0000
0100
0000
1000
,
0001
0100
1000
0000
,
0010
1000
0100
0001
,
1000
1000
0000
0001
,
0000
0100
0000
0010
,
0100
0010
1000
0000
,
0100
1000
0001
0010
,
0000
0001
0000
0001
,
0000
0010
0000
0010
,
0000
0100
0000
0100
,
0000
1000
0000
1000
,
0000
0010
0000
0010
,
0000
0100
0000
0100
,
0000
0001
0000
0001
,
0000
1000
0000
1000
,
1001
0000
0000
0001
,
0200
0000
0300
0000
,
0110
0010
1000
1001
,
0000
0000
0001
0000
,
0110
0000
0000
0001
,
1000
0000
0010
0100
,
1001
0000
0000
1000
,
0020
0000
0000
0030
,
0000
0000
0000
0000
,
0100
0001
0100
0001
,
0010
0100
1000
1000
,
0001
0100
0001
0010
,
0001
0100
0010
1000
,
0100
0010
0100
1000
,
0001
0001
1000
0010
,
0100
0010
0110
0000
,
0001
0100
1000
0001
,
0000
1001
0100
0010
,
1000
0100
1000
0001
,
0010
0001
0100
1001
,
0001
1000
1001
0110
,
1000
0001
1000
0010
,
0100
0001
0010
1000
,
0100
0010
0110
0000
,
0001
0100
1000
0010
,
0000
1001
0001
0100
,
1000
0010
1000
0001
,
0100
0001
1001
0000
,
0010
1000
1001
0110
,
0000
0110
0010
1000
,
0100
0010
0001
0100
,
0001
1000
1001
0110
,
1000
0001
0100
0010
,
0000
0000
0000
0000
,
1000
0001
1000
0000
,
0100
0010
0001
0001
,
0010
0001
0100
0000
,
1000
0010
1000
0001
,
0010
0000
0001
0100
,
1000
0010
0100
0110
,
0001
0010
0001
1000
,
0000
0100
1000
0001
,
0000
0100
0001
1000
,
0000
0110
0000
1001
,
0000
0010
0100
1001
;

//---------------dance-single - ----------------
#NOTES:
     dance-single:
     :
     Easy:
     11:
     :
0000
0000
0000
0000
,
0000
0000
0000
0000
,
0000
0000
0000
0000
,
0000
0000
0000
0000
,
2000
0000
3000
0000
0001
0100
0001
1000
,
0000
0000
0000
0000
0010
0200
0000
0000
,
0301
0000
0010
0001
1000
0000
0010
0100
,
0001
0100
1001
0000
,
0110
0000
0001
0000
1000
0010
1000
0100
,
0000
0010
0002
0000
2003
0000
3200
0000
,
0310
0001
0100
0000
1000
0010
0000
0100
,
0000
0001
2000
0000
3100
0010
0001
0000
,
0220
0000
0330
0000
0001
1000
0001
0100
,
0000
0020
2030
3200
,
1300
0001
0100
0010
1000
0000
0001
0100
,
0000
0010
2000
0000
3100
1000
0001
0000
,
2000
0000
3020
0000
1030
0001
0100
0000
,
0101
0000
1010
0000
1000
0001
0010
0100
,
0000
1100
0000
0010
0002
0000
2003
0000
,
3010
0000
0100
0001
0000
0000
1000
0100
,
0000
0000
1000
0001
0010
0001
0100
0000
,
0011
0000
1100
0000
0010
0100
0001
1000
,
0000
0101
0000
1000
0002
0000
0023
0000
,
0130
0000
1000
0010
0000
0000
0100
0001
,
0000
0000
0011
0000
0001
0100
2000
0000
,
3010
1000
0100
0000
0000
0000
1000
0001
,
0000
0020
0001
1000
,
0031
0100
0010
0000
0000
0000
1000
0001
,
0000
1100
0011
1100
,
0001
0100
0010
1000
0000
0000
0100
0010
,
0000
0100
2000
0000
0010
0000
3001
0000
,
0100
0001
0100
0000
0000
0000
0010
1000
,
0000
0000
0110
0000
1000
0100
0001
0000
,
0010
0011
0001
0101
,
0100
1010
1000
1100
,
1000
1001
0010
0110
,
0001
0000
0011
0000
0100
0010
1000
0000
,
0100
0011
1000
1001
,
0010
1010
0001
1100
,
0010
1001
0100
0110
,
0001
0000
0011
0000
1000
0100
0001
0000
,
0022
0000
0000
0000
0033
0000
2000
0002
,
0000
0000
3003
0000
0100
0010
1000
0000
,
1100
0000
0001
0100
1000
0000
0202
0000
,
0000
0303
1000
0001
,
0110
0000
0001
1000
0000
1010
0000
2002
,
0000
3003
0000
0200
0000
0000
0310
1000
,
0001
0010
0100
1000
0000
1100
0000
0202
,
0000
0000
0300
0000
1003
0000
0001
0100
,
0002
0000
2003
0000
3010
1000
0100
0000
,
1000
0010
0100
0000
0101
0000
1100
0000
,
0001
0010
1000
0000
0100
0010
0001
0000
,
1000
0001
0100
0000
1010
0000
0101
0000
,
0010
0001
1000
0000
0100
0010
0001
0000
,
1000
0001
0100
0000
1010
0000
1100
0000
,
0010
0001
1000
0000
0001
0010
0100
0000
,
1000
0000
0001
0000
0100
0000
0000
0000
1001
0000
0000
1001
0000
0000
0000
0000
,
0001
0100
1000
0000
0001
0100
0010
0000
,
0110
1001
1000
0001
,
0010
0001
0100
0000
0010
0001
1000
0000
,
0001
0000
0100
0000
1000
0000
0000
0000
1010
0000
0000
1010
0000
0000
0000
0000
,
1000
0000
0100
0000
0010
0000
0000
0000
0011
0000
0000
0011
0000
0000
0000
0000
,
0001
1000
0001
0000
0110
0000
1001
0000
,
0010
1000
0100
0000
1000
0001
0100
0000
,
0001
0000
1000
0000
0001
0000
0000
0000
0110
0000
0000
0110
0000
0000
0000
0000
,
1000
0010
0100
0010
1000
0010
0100
0000
,
0001
0100
1000
0000
0011
0000
1100
0000
,
0010
1000
0001
0000
1000
0100
0010
0000
,
0001
0000
0100
0000
0010
0000
0000
0000
1001
0000
0000
1001
0000
0000
0000
0000
,
1000
0000
0100
0000
0010
0000
0000
0000
1100
0000
0000
1100
0000
0000
0000
0000
,
0001
1000
0100
0000
0110
0000
0011
0000
,
0100
0001
1000
0000
0100
0001
1000
0000
,
0010
0000
1000
0000
0001
0000
0000
0000
0101
0000
0000
0101
0000
0000
0000
0000
,
0001
0010
0100
0000
1000
0010
1000
0001
,
2000
0000
3200
0000
1300
0001
0100
0000
,
0020
0000
2030
0000
3100
0010
0100
1000
,
0000
0001
2000
0000
3020
0000
0230
0000
,
0301
0010
0001
0010
0100
0000
1000
0001
,
0000
0000
0020
0000
0031
1000
0001
1000
,
0001
0100
0000
0000
0010
0100
0010
1000
,
0000
0100
2000
0000
3002
0000
2003
0000
,
3010
0100
0010
1000
0001
0000
1000
0100
,
0000
1100
0110
0011
,
0100
1001
1010
1100
,
0001
1010
1000
0101
,
0010
0000
1001
0000
0010
0100
2002
0000
,
0000
0000
0000
0000
,
3003
0000
0000
0000
;

//---------------dance-single - ----------------
#NOTES:
     dance-single:
     :
     Medium:
     13:
     :
0000
0000
0000
0000
,
0000
0000
0000
0000
,
0000
0000
0000
0000
,
0000
0000
0000
0000
,
1000
1000
0000
0010
0100
0001
0010
0100
,
0000
1000
0010
0100
0001
0010
1000
0000
,
0100
0010
0001
0100
0010
1000
0001
0100
,
0010
0010
1000
0001
1001
0000
0000
0000
,
0010
1000
0100
0001
0100
0010
0100
1000
,
0000
0001
0100
0010
1000
0100
1000
0001
,
0010
1000
0010
0001
0100
0010
1000
0001
,
0000
0000
0010
0000
0200
0000
0000
0000
1300
0001
1000
0001
1000
0000
0000
0000
,
0110
0001
1000
0000
1010
0010
0100
0101
,
0000
0000
0000
0000
0001
1000
0001
1000
0001
0000
0010
0000
0200
0000
0000
0000
,
1300
0010
0100
1000
0100
0010
0100
0001
,
0000
0010
0001
0100
1000
0001
0100
0000
,
0010
1000
0100
0010
0001
0001
1001
0000
,
0101
0000
0011
1000
0001
0010
0100
1000
,
0000
0000
0010
1000
0010
0000
0100
0000
0002
0000
0000
0000
2003
0000
0000
0000
,
3010
0000
1000
0000
0100
0000
0110
0000
0000
0000
0001
1000
0001
0000
1001
0000
,
0000
0000
0100
0010
0100
0000
0001
0000
0010
0000
0100
0000
2000
0000
0000
0000
,
3010
0000
1000
0001
1000
0000
0100
0000
0001
0000
0100
0000
0010
0000
0001
0000
,
0000
0102
0000
1003
0002
0000
0013
0001
,
0100
0010
1000
0001
0000
0010
0001
0100
,
0000
0010
1000
0100
1000
0001
0200
0000
,
0301
0010
1000
0000
1001
0100
1000
0001
,
0010
0001
0100
0010
0100
0010
0100
0010
,
1000
0100
0001
0000
0110
0001
1000
0010
,
0000
1000
0100
0010
0100
0010
0100
1000
,
0001
0010
1000
0100
1000
0001
0100
0010
,
0000
1000
0001
0100
0001
0100
0001
0100
,
0010
1000
0100
0000
1100
0001
1000
0100
,
0000
0010
0001
0100
0001
1000
1001
0000
,
0010
0000
0000
1000
0001
0000
0000
0000
0010
0000
0000
0001
1000
0000
0000
0000
,
0100
0000
0000
1000
0010
0000
0000
0000
0100
0000
0000
0001
0010
0000
0000
0000
,
0100
0000
0000
0010
0001
0000
0000
0000
1000
0000
0000
0001
0100
0000
0110
0000
,
0000
1000
0100
0001
0010
0100
0110
0000
,
0001
0000
0000
1000
0010
0000
0000
0000
1000
0000
0000
0001
0100
0000
0000
0000
,
0010
0000
0000
1000
0100
0000
0000
0000
0010
0000
0000
0001
0100
0000
0000
0000
,
0010
0000
0000
1000
0001
0000
0000
0000
0010
0000
0000
0100
1000
0000
1001
0000
,
0000
0001
0010
0100
1000
0010
0101
0000
,
2100
0000
0001
0000
0100
0000
3001
2000
,
0000
0000
3010
1000
0100
0010
0001
0000
,
0011
0000
0000
0000
1000
0001
1000
0001
1000
0000
0000
0000
2010
0000
0000
0000
,
0001
0001
0000
0100
3100
0000
0020
0000
,
0031
0000
0101
1000
0000
0010
0100
0001
,
0000
0000
1000
0100
1000
0000
0001
0000
0100
0000
0000
0000
0010
1000
0010
1000
,
0010
0000
0100
0001
0100
0110
0000
1001
,
1000
0100
0010
0001
1000
0010
0100
0001
,
2000
0001
3001
0200
0010
0310
1001
0000
,
0110
0000
1000
0000
0001
0000
0100
0000
0010
0000
0000
1000
0000
0000
0001
0000
,
0010
0001
0200
0000
0301
0010
0001
1000
,
0100
0000
0010
0000
0002
0000
0000
0000
1003
0000
0000
1000
0000
0000
0001
0000
,
0010
0001
0100
0010
1000
0100
1000
0000
,
0001
0000
0010
0000
0001
0000
0100
0000
0010
0000
0000
1000
0000
0000
0100
0000
,
1000
0000
0001
0000
0100
0000
0000
0000
0010
0000
0000
1000
0000
0000
0001
0000
,
1000
0000
0100
0000
0010
0000
0000
0000
0011
0000
0000
1100
0000
0000
0000
0000
,
0001
0100
1000
0000
0010
0100
0010
1000
,
0002
0000
0003
0000
1001
0000
0010
0000
1000
0000
0000
0100
0000
0000
0001
0000
,
0010
0000
0001
0000
2000
0000
0000
0000
3100
0000
0000
1000
0000
0000
0001
0000
,
0100
0000
0010
0000
1000
0000
0000
0000
1001
0000
0000
0011
0000
0000
0100
0000
,
0010
0000
1000
0000
0100
0000
0000
0000
1010
0000
0000
0110
0000
0000
0000
0000
,
0001
0100
0020
0000
1030
0100
1000
0001
,
0010
0001
0200
0000
0301
0010
1000
0001
,
1000
0000
0100
0000
0010
0000
0000
0000
0011
0000
0000
1010
0000
0000
0000
0000
,
0100
1000
0001
1000
0010
0100
0001
1000
,
0100
0000
0000
0000
1001
0000
0010
0000
1000
0000
0000
0100
0000
0000
0001
0000
,
0010
0001
0100
0000
0001
0010
0100
1000
,
0010
0000
1000
0000
0001
0000
0100
0000
0101
0000
0000
1100
0000
0000
0000
0000
,
0001
0000
0010
0000
0100
0000
1000
0000
0110
0000
0000
1001
0000
0000
0100
0000
,
0001
0000
0010
0000
1000
0000
0000
0000
0100
0000
0000
1000
0000
0000
0010
0000
,
0100
0001
0010
0000
0001
1000
0001
0100
,
0010
0000
0100
0000
0001
0000
1000
0000
1001
0000
0000
0110
0000
0000
0001
0000
,
1000
0100
1000
0100
0010
0001
0010
0100
,
1000
0010
1000
0001
0100
0100
0010
0000
,
0100
0001
0100
0010
1000
0100
1000
0001
,
0000
0000
0010
0001
0020
0000
0000
0000
0230
0000
0000
0000
1300
0000
0001
0000
,
1000
0100
1000
0010
0100
0010
1000
0001
,
0000
0000
1000
0100
2000
0000
0000
0000
0001
0000
0001
0000
3001
0000
0000
0000
,
0010
0002
0000
0003
1001
0100
0010
1000
,
0000
0000
0100
1000
0200
0000
0000
0000
0320
0000
0000
0000
0031
0000
1000
0000
,
0010
1000
0100
0010
0001
0100
0001
1000
,
0000
0010
0100
0010
1010
0000
0101
0000
,
0000
0010
0001
1000
1100
0000
0011
0000
,
0000
0100
0010
1000
0000
0100
0010
0001
,
0000
1000
0100
0010
0001
0100
1001
0000
;

//---------------dance-single - ----------------
#NOTES:
     dance-single:
     :
     Hard:
     17:
     :
0000
0000
0000
0000
,
0000
0000
0000
0000
,
0000
0000
0000
0000
,
0000
0000
0000
0000
,
1000
1000
0000
0010
0100
0001
0010
0100
,
1000
0000
0010
0000
0100
0000
0001
0000
0010
0000
0100
0000
1000
0001
1000
0001
,
0010
0001
0010
0100
1000
0000
0010
0000
0100
0000
0001
0000
1000
0100
0010
0001
,
0100
0100
0010
1000
1001
0010
0100
0000
,
1001
0000
0010
0000
1000
0100
1000
0000
0001
0000
0010
0001
0010
0000
0100
0000
,
0000
0000
2000
0000
3002
0000
0023
0000
0032
0000
0203
0000
0320
0030
2000
0000
,
3100
0000
0010
0000
0001
0000
0100
0000
1000
0010
0001
0010
1000
0000
0100
0000
,
0010
0000
0001
0000
0200
0000
0320
0000
1030
0100
0010
0001
0100
0000
0000
0000
,
0110
0001
1000
0000
1010
1001
1010
1100
,
0000
0000
0000
0000
0002
0023
0032
0023
0230
2300
3200
2300
3020
0230
0302
2003
,
3100
1000
1000
0010
2000
3002
2003
3200
,
0310
0000
0110
0000
0110
0000
0010
0001
0100
0000
0010
0000
1000
0001
1000
0001
,
1000
0100
0010
0100
1000
0000
0001
0000
0011
0000
0110
0000
1100
0000
0000
0000
,
0010
0000
1000
0100
1000
0000
0001
0100
0001
0000
0010
0000
0100
0000
1000
0001
,
1000
0000
0010
0100
0001
0000
0010
0000
0100
0000
1000
0010
1000
0000
0001
0100
,
0010
0000
1000
0100
1000
0000
0001
0000
0010
0000
0001
1000
0001
0000
0200
0000
,
0000
0000
0301
0010
0100
0000
1000
0000
0010
0000
0100
0000
0101
0000
0000
0000
,
1010
0000
0100
1000
0001
0000
0010
0001
0200
0000
0320
0000
2030
0000
3002
0000
,
0013
0000
2200
0000
0300
0000
3001
0000
1000
0000
0010
1000
0100
0000
0010
0001
,
0100
0010
0110
1001
1000
0001
0110
1001
,
1000
0100
0010
0100
1000
0000
0001
0010
0001
0000
0100
0001
1000
0000
0000
0000
,
1001
0000
0101
0000
0011
0000
1000
0001
0010
0000
0100
0000
1100
0000
1100
0000
,
0002
0203
0320
2030
3002
2003
3200
0320
,
0031
0000
0001
0000
0001
0000
0010
0100
1000
0000
0010
0000
2000
0000
3002
0000
,
0103
0001
0100
0000
0010
0000
1000
0000
1100
0000
1100
0000
1001
0000
0101
0000
,
0101
0000
0010
0000
1000
0000
0001
1000
0100
0000
0010
0000
0011
0000
0001
0000
,
0200
0320
2030
3002
0023
0230
2300
3002
,
0103
0000
0100
0000
0100
0000
0001
1000
0010
0000
0100
0000
0002
0000
2003
0000
,
3100
1000
0001
0000
0010
0000
0001
0000
0100
0000
0001
0010
1000
0000
0000
0000
,
0002
0023
0230
2300
3020
2030
3200
0320
,
0032
0203
0302
0023
2030
3020
0230
0320
,
2030
3020
0032
0203
0320
0032
0023
2030
,
3200
0320
0032
0203
0320
2030
3002
0000
,
0203
0320
0230
2300
3200
0302
0023
0230
,
0302
0203
0320
0230
0302
0203
2300
3002
,
2003
3020
0230
2300
3200
0302
0023
0230
,
0302
0203
2300
3020
0230
0302
0023
0030
,
0120
0000
1000
0000
0031
0000
0101
1020
,
0000
0000
1000
0000
1030
0000
0100
0000
0010
0001
0010
0001
1000
0000
0000
0000
,
2001
0000
0000
0000
3010
0100
0001
0100
0010
0000
1000
0000
1100
0000
0021
0000
,
0000
0000
0100
0000
0130
0000
1000
0000
0010
0000
0100
0001
0010
0000
0000
0000
,
0110
1000
0020
0230
0301
0010
0001
1100
,
0010
0001
0010
0100
1000
0000
0010
0000
2000
0000
0000
0000
3001
0100
0010
1000
,
0002
0000
0000
0000
0013
0100
0010
0100
1000
0000
1001
0000
0000
0000
0101
0000
,
0001
0000
0100
0000
1000
0000
0010
1000
0100
0000
0010
0001
0100
0000
1000
0000
,
0001
0100
1000
0100
0001
0000
0001
0010
1000
0010
0001
0000
1001
0000
0000
0000
,
0110
0000
0001
0000
0010
0000
0100
0000
1000
0000
0100
1000
0000
1000
0001
0000
,
0010
0001
0100
0000
0010
1000
0100
0000
1000
0001
0010
0001
0000
0100
0010
0000
,
1000
0000
0100
0000
1000
0001
0010
0000
0001
0100
0010
1000
0000
1000
0001
0000
,
0010
0000
0001
0000
0100
0010
1000
0000
0001
0100
0010
1000
0000
1000
0100
0010
,
0001
0000
0100
0000
0001
0010
0100
0000
1000
0010
1000
0001
0000
1000
0100
0000
,
1000
0001
1000
0000
0010
0100
0001
0000
0010
0001
0010
0100
0000
1000
0001
0000
,
0100
0000
0010
0000
1000
0001
0010
0000
1100
0000
0000
0202
0000
0000
0300
0000
,
1003
0010
0100
0010
1000
0010
0100
0000
0001
1000
0000
0110
0000
0001
0100
0001
,
2000
3200
0300
0000
1001
0000
0010
0000
1000
0001
0010
0100
0000
1000
0001
0000
,
0100
0000
0001
0000
0010
0100
1000
0000
0001
1000
0010
1000
0000
0001
0100
0000
,
0010
0000
0100
0001
0100
0010
1000
0000
1001
0000
0000
1010
0000
0000
0001
0000
,
1000
0000
0100
0000
1000
0010
0001
0000
0100
0010
0000
0220
0000
0000
0300
0000
,
1030
0000
0010
1000
0001
0100
0000
0000
0001
0010
0100
1000
0000
0001
0100
0000
,
0010
0000
1000
0000
0100
0010
0001
0000
1000
0001
0000
0011
0000
0000
0001
0100
,
0010
0000
1000
0000
0100
0010
0001
0000
0101
0000
0000
2020
0000
0000
0030
0000
,
3100
1000
0001
0000
0010
0001
0100
0000
1000
0001
0000
0110
0000
0000
0100
0000
,
0001
0010
1000
0000
1001
0000
0100
0000
0010
1000
0010
0100
0000
0001
1000
0000
,
0100
0000
0010
0000
0001
0100
1000
0000
0010
1000
0010
0100
0010
1000
0001
0000
,
0100
0000
0001
0000
1000
0001
0010
0000
1100
0000
0000
0022
0000
0000
0003
0000
,
0130
0010
0001
0000
1000
0001
0100
0000
0010
1000
0000
1100
0000
0000
0001
0100
,
0001
0010
1000
0000
0100
1000
0001
0000
0010
0001
0010
0100
0000
1000
0001
0000
,
0100
0000
0010
0000
0100
0001
1000
0000
0100
0010
0001
0100
0010
1000
0001
0000
,
1000
0100
0010
0000
0100
0010
0001
0000
1001
0000
0000
1010
0000
0000
0101
0000
,
0001
0010
0100
0010
0100
1000
0000
0000
0001
0100
0000
1001
0000
0010
1000
0000
,
0001
0010
0100
0010
0001
0000
1000
0000
1100
0000
0110
0000
0011
0000
0000
0000
,
0200
0302
0023
0230
2300
3020
2030
3002
,
0003
0000
0010
0001
0200
0000
0320
0000
2030
0000
3200
0000
2300
0000
3002
0000
,
0013
0010
0010
0001
2000
3002
0023
0230
,
0300
0000
1000
0100
0020
0000
0032
0000
0103
0000
0100
0000
0110
0000
1001
0000
,
0110
1000
0001
0000
0020
0032
2003
3200
,
0300
0000
1000
0010
2000
0000
3002
0000
2003
0000
3200
0000
0320
0000
0230
0000
,
2300
3002
0023
0230
0320
0032
2003
3200
,
1300
0010
0100
0010
1000
0000
0000
0000
1001
0000
0101
0000
0011
0000
0000
0000
,
1000
0001
0100
0010
1000
0000
0000
0000
1010
0000
1001
0000
0011
0000
0000
0000
,
0100
0000
0001
0010
0100
0000
1000
0000
0010
0000
1000
0001
0100
0000
0010
0000
,
1000
0000
0100
0010
0001
0000
0100
0000
0101
0000
1010
0000
1001
0000
0000
0000
;

//---------------dance-single - ----------------
#NOTES:
     dance-single:
     :
     Challenge:
     19:
     :
0000
0000
0000
0000
,
0000
0000
0000
0000
,
0000
0000
0000
0000
,
0000
0000
0000
0000
,
1000
1000
0000
0010
0100
0001
0010
0100
,
1000
0000
0000
0000
0010
0000
0000
0000
0100
0000
0000
0000
1000
0000
0000
0000
0100
0000
0000
0000
0001
0000
0000
0000
0010
0100
0010
0100
0010
0100
0010
0100
,
0010
0001
0010
0100
1000
0000
0001
0000
0100
0000
0010
0000
1000
0100
0001
0100
,
1000
0010
0100
1000
0100
0001
0010
0100
,
1000
0000
0010
0000
0001
0000
0100
0000
0010
1000
0100
0010
0001
0000
0100
0010
,
1000
0000
0100
0010
0001
0000
1000
0001
0010
0100
0010
0001
0100
0010
1000
0001
,
0100
0000
0010
0000
1000
0100
0010
0001
1000
0001
0100
0010
1000
0000
0001
0010
,
0100
0000
1000
0000
0010
0000
1000
0000
0001
0010
1000
0100
0001
0000
0000
0000
,
0011
0110
1100
0000
1010
1001
1010
1100
,
0000
0000
0000
0000
0000
0000
0001
0000
0000
0000
0000
0000
0010
0000
0000
0100
0000
0000
1000
0000
0000
0010
0000
0000
0100
0000
0000
0001
0000
0000
0010
0000
0000
0100
0000
0000
1000
0000
0001
0000
1000
0000
0001
0000
1000
0000
0001
0000
,
1000
0000
0010
0100
0001
0000
0010
1000
0100
0000
1000
0001
0010
0000
0001
0100
,
1000
0000
0110
0000
1001
0000
0110
0000
1000
0100
0001
0000
0010
0001
0010
0100
,
1000
0010
0001
0010
1000
0010
0100
0000
0101
0000
1001
0000
1100
0000
0000
0000
,
0011
0000
0010
0100
1000
0000
0010
1000
0001
0000
0100
0010
1000
0000
0001
0000
,
0010
0000
0001
0100
0010
0000
1000
0000
0100
1000
0010
0100
0001
1000
0001
0010
,
0100
0000
1000
0010
0002
0000
0203
0000
0310
0000
1000
0001
2000
0000
3020
0000
,
0130
0000
0000
0000
0001
0000
0010
0000
1000
0000
0000
0000
0100
0000
0000
0000
0010
0000
0001
0000
0100
0000
0000
0000
0010
1000
0010
1000
0010
0000
0000
0000
,
0100
0000
0001
0010
0100
0000
0010
0100
1000
0000
0001
1000
0010
0000
0100
0000
,
0001
0000
0000
0000
1100
0000
0001
0000
0010
0000
0100
0000
1000
0000
0010
0000
0100
0001
0100
0001
0100
0000
0000
0000
0010
0000
1000
0000
0001
0000
0000
0000
,
0101
0000
0011
0000
1001
0000
0110
0000
1000
0000
0100
0001
0010
0000
1010
0000
,
0100
1000
0010
0100
0001
0000
0010
0001
1000
0000
0010
1000
0100
0000
0001
0000
,
0010
0100
0010
0100
0010
0000
0001
0100
1000
0000
0010
0000
0100
0001
0100
0001
,
0010
0000
0100
1000
0001
0000
0100
0010
1000
0000
0001
0010
1000
0000
0100
0000
,
0010
0001
0010
0100
1000
0000
0010
1000
0100
0000
0001
0000
0010
0001
1000
0000
,
0010
0000
1000
0100
1000
0000
0001
0100
0001
0010
0100
1000
0010
0000
1000
0001
,
0101
0000
0101
0000
0101
0000
0010
1000
0100
0000
2000
0000
3002
0000
0023
0000
,
0031
0000
0000
0100
0000
0000
0010
0000
0000
0100
0000
0000
1000
0000
0000
0000
0000
0000
0100
0000
0000
0010
0000
0000
1000
0000
0000
0000
0000
0000
0001
0000
0000
0010
0000
0000
0001
0000
0000
0000
0000
0000
1000
0000
0100
0000
1000
0000
,
0100
0000
0110
0000
0110
0000
0010
0001
1000
0000
0100
0000
1000
0010
1000
0000
,
0100
0010
0001
0000
1100
0000
0010
0000
0100
0001
0010
0100
2000
0000
0000
0000
,
3002
0000
0203
0001
0320
0000
2030
0000
3200
0000
0320
0100
0032
0000
2003
0000
,
3020
0000
2030
0001
3200
0000
0320
0000
0032
0000
0203
0010
0302
0000
2003
0000
,
3020
0000
2030
0001
3200
0000
0320
0000
0032
0000
0203
0010
0302
0000
2003
0000
,
3200
0000
0320
0100
0032
0000
0203
0000
0320
1000
0230
0010
0302
0000
1000
0000
,
2003
0000
3002
1000
0023
0000
0230
0000
0320
0000
0032
0010
0203
0000
0320
0000
,
2030
0000
3002
0010
2003
0000
3200
0000
0320
0000
0230
0010
2300
0000
3002
0000
,
0023
0000
0032
1000
0203
0000
0320
0000
2030
0000
3200
0010
2300
0000
3020
0000
,
0230
0010
0302
1000
0203
0000
0302
1000
0023
1000
0230
0000
2300
0000
3001
0000
,
0012
0000
0100
0000
1003
0000
1100
2010
,
0001
0000
0000
0000
0001
0000
0000
0000
0100
0000
0000
0000
3010
0000
0100
0000
1000
0001
1000
0001
1000
0001
1000
0001
0100
0000
0000
0000
0000
0000
0000
0000
,
2010
0000
0000
0000
0000
0000
0000
0000
3001
0000
0010
0000
1000
0000
0100
0000
0001
0000
0000
0000
0010
0001
0010
0001
0100
0000
0000
0000
0010
1000
0010
1000
,
0100
0000
0100
0000
0001
0000
1000
0000
1000
0000
0010
0000
0200
0000
0301
0100
,
0110
0000
0010
0000
2000
3002
0023
0031
0100
0000
1010
0000
0100
0000
0101
0000
,
1000
0001
0010
0001
0010
0000
1100
0000
0101
0000
0000
0000
1001
0001
0010
0100
,
2000
0010
0001
0001
3001
0011
1000
1100
,
0010
0000
0010
0000
0010
0000
1000
0100
0001
0100
0010
0100
1000
0000
0001
0000
,
0010
0001
0100
1000
0010
0000
0010
1000
0100
0001
0010
0000
1001
0000
0000
0000
,
0110
0000
1000
0010
0100
0000
0001
0010
0100
0000
1000
0010
0000
0100
0001
0000
,
0010
0000
0001
0100
0010
0000
1000
0100
0010
1000
0010
0001
0100
0000
0010
0000
,
1000
0000
0100
0000
0001
0000
0010
0001
0100
0000
0010
1000
0000
0001
0100
0000
,
0010
0000
1000
0000
0100
0000
1000
0001
0010
0001
0000
0100
0000
0010
1000
0000
,
0100
0000
1000
0000
0010
0100
0001
0000
0010
0001
0010
0100
1000
0010
1000
0000
,
0100
0000
0010
0000
0001
0100
0001
0000
1000
0010
0000
0101
0000
1000
0100
0000
,
0010
0000
0001
0000
0110
1000
0001
0000
1100
0000
0000
2020
0000
0000
0000
0030
,
3001
0100
0010
1000
0002
0020
0000
0030
1003
1000
0010
0200
0000
0301
1000
0001
,
0020
0230
2300
3000
0000
0000
0000
0000
1001
0000
0000
0000
0010
0000
0000
0000
1000
0000
0100
0000
0010
0000
0001
0000
0100
0000
0010
0000
1000
0000
0000
0000
,
0100
1000
0001
0000
0010
0100
1000
0000
0011
0100
1000
0010
1000
0001
0100
0000
,
0010
1000
0100
0000
1000
0001
0100
0000
0010
1000
0100
0110
0000
0001
1000
0000
,
0101
0000
0000
0000
0000
0000
0010
0000
0000
1000
0000
0000
0100
0000
0000
0010
0000
0000
0001
0000
0000
0100
0000
0000
0001
0000
0000
0010
0000
0000
0100
0000
0000
1000
0001
1000
0001
0000
0000
0000
0000
0000
0000
0000
0000
0000
0000
0000
,
0010
0000
0001
0010
1000
0100
0010
0001
0100
0010
0100
0001
0000
1000
0100
0000
,
0010
0001
0010
0100
1000
0010
0000
0000
1000
1100
0000
0110
0000
0000
0001
0100
,
1000
0000
0010
0000
1000
0001
0010
0000
0011
0000
0000
0202
0000
0000
0000
0300
,
1003
0010
0001
0100
1000
0010
0100
0001
0010
0100
1000
0001
0000
0100
0010
0000
,
1000
1000
1000
0000
1001
0100
0010
0100
0001
0010
0100
1000
0000
0010
1000
0000
,
0100
1000
0001
0010
0001
0100
0010
0000
1000
1000
0001
0010
0001
0100
1000
0001
,
0010
1000
0010
0001
0100
0010
1000
0000
1100
0010
0000
0202
0000
0000
0000
0300
,
1003
0001
0010
0001
0100
1000
0010
0000
0110
0001
0000
1010
0000
0000
0100
1000
,
0001
0001
0001
0000
0011
1000
0001
0100
0010
1000
0100
0010
0000
0001
1000
0000
,
0010
1000
0100
1000
0010
0100
0001
0010
0100
0100
1000
0001
1000
0010
0100
0000
,
1010
0000
0001
0000
0110
0001
1000
0000
1100
0100
0000
0011
0000
0100
0010
1000
,
0001
0100
0010
0100
1000
0100
0001
0000
1001
0100
0000
1010
0000
0100
1000
0001
,
1000
0010
0001
0010
1000
0010
0100
0000
0101
0000
1001
0000
1100
0000
0000
0000
,
0120
0032
0203
0320
2030
3200
2300
3002
,
0013
0000
0001
0100
2000
0000
3020
0000
0230
0000
0302
0000
2003
0000
3200
0000
,
0310
0000
0001
0100
0002
0000
2003
0000
3010
0000
0100
0001
2000
0000
3200
0000
,
0300
0000
1000
0010
0001
0000
0100
0000
1010
0000
1100
0000
0101
0000
0010
0001
,
1000
0000
0100
0000
0110
0000
0010
0001
2000
0000
3020
0000
0230
0000
0302
0000
,
0013
0000
0100
0010
0002
0000
2003
0000
3100
1000
0010
0100
1001
0000
0001
0000
,
0010
0001
0100
0001
1000
0000
0010
0000
2000
0000
3002
0000
0203
0000
0320
0000
,
1030
0100
1000
0100
1000
0100
0010
0000
0000
0001
0000
0000
0011
0000
0000
0110
0000
0000
1100
0000
0000
0001
0000
0000
,
0100
0001
0100
0001
0100
0001
0100
0001
0010
0000
0000
0000
0100
0000
0000
0000
1100
0000
0000
0000
1001
0000
0000
0000
1010
0000
0000
0000
0100
0000
0000
0000
,
1000
0010
1000
0010
0100
0001
0100
0001
0010
0000
0000
0000
0100
0000
0000
0000
1000
0100
1000
0100
0010
0001
0010
0001
1000
0000
0000
0000
0001
0000
0000
0000
,
1000
0000
0100
0000
0010
0000
0001
0000
0010
0000
0100
0000
1000
0000
0000
0000
0000
0000
0010
0000
0000
0100
0000
0000
0001
0000
0000
0100
0000
0000
0010
0000
0000
1000
0000
0000
1001
0000
0000
0000
0000
0000
0000
0000
0000
0000
0000
0000
;
