#TITLE:Pepper;
#ARTIST:Butthole Surfers;
#BANNER:Pepper-bn.png;
#BACKGROUND:Pepper-bg.png;
#JACKET:Pepper-jacket.png;
#MUSIC:Pepper.ogg;
#SAMPLESTART:84.09;
#SAMPLELENGTH:20;
#DISPLAYBPM:157:163;
#BPMS:0=159.95,28=157,40=159,44=162,56=160,72=158,84=161,92=158.5,96=159.75,104=159.3,116=160,128=158,132=161,136=161.75,148=159.54,160=160.123,168=162,172=158.7,184=158,188=163,200=161.2,204=158,216=160.1,236=162.3,240=160,256=159.175,260=161.03,264=160.125,268=159.456;
#BGCHANGES:;

//---------------dance-single - ----------------
#NOTES:
     dance-single:
     :
     Beginner:
     3:
     :
0000
0000
0000
0000
,
0000
0000
0000
0000
,
0000
0000
0000
0000
,
0000
0000
0000
0000
,
0010
0000
0000
0000
,
0000
0000
0000
0000
,
0000
0000
0000
0000
,
0100
0000
0000
0000
,
0001
0000
0001
0000
,
1000
0000
1000
0000
,
0001
0000
0001
0000
,
1000
0000
1000
0000
,
0100
0000
0010
0000
,
0100
0000
0010
0000
,
0001
0000
0000
0000
,
0000
0000
0000
0000
,
0010
0000
0001
0000
,
0010
0000
0001
0000
,
0100
0000
0010
0000
,
1000
1000
1000
0000
,
0100
0000
0010
0000
,
0100
0000
1000
0000
,
0010
0000
0100
0000
,
0001
0001
0001
0000
,
0010
0000
0010
0000
,
0001
0000
0001
0000
,
0100
0000
0100
0000
,
1000
0000
1000
0000
,
0010
0000
0010
0000
,
0100
0000
0100
0000
,
0001
0001
0001
0000
,
1000
1000
1000
0000
,
0010
0000
0100
0000
,
0001
0000
0100
0000
,
0010
0000
1000
0000
,
1001
0000
0000
0000
,
1000
0000
0100
0000
,
1000
0000
0001
0000
,
0100
0000
0010
0000
,
0110
0000
0000
0000
,
0001
0000
0001
0000
,
1000
0000
1000
0000
,
0010
0000
0100
0000
,
1001
0000
0000
0000
,
1000
0000
0010
0000
,
1000
0000
0100
0000
,
0010
0000
0001
0000
,
0110
0000
0000
0000
,
0001
0000
0100
0000
,
0010
0010
0010
0000
,
1000
0000
0001
0000
,
0100
0100
0100
0000
,
0001
0000
0010
0000
,
0100
0000
1000
0000
,
0010
0010
0010
0000
,
0100
0100
0100
0000
,
0001
0000
0001
0000
,
0010
0000
0100
0000
,
1000
0000
0010
0000
,
0110
0000
0000
0000
,
0100
0000
0010
0000
,
0100
0000
0001
0000
,
1000
0000
1000
0000
,
1001
0000
0000
0000
,
0001
0000
0001
0000
,
1000
0000
1000
0000
,
0010
0000
0100
0000
,
0110
0000
0000
0000
,
0010
0000
1000
0000
,
0100
0000
0010
0000
,
0001
0000
1000
0000
,
1001
0000
0000
0000
,
0002
0000
0000
0000
,
0000
0000
0000
0000
,
0000
0000
0000
0003
;

//---------------dance-single - ----------------
#NOTES:
     dance-single:
     :
     Easy:
     6:
     :
0000
0000
0000
0000
,
0000
0000
0000
0000
,
0000
0000
0000
0000
,
0000
0000
0000
0000
,
0020
0000
0000
0000
,
0000
0000
0000
0000
,
0000
0000
0000
0000
,
0130
0000
0000
0000
,
0001
0100
1001
0000
,
0010
1000
0100
0000
,
1000
0010
0110
0000
,
0100
0001
0010
0000
,
0001
1000
1001
0000
,
0010
0100
0001
0000
,
0002
0000
0000
0000
,
0000
0000
0000
0003
,
0001
0010
1000
0000
,
0100
1000
0001
0100
,
0010
0010
0100
0100
,
0001
1000
1001
0000
,
0010
0010
1000
0100
,
1000
1000
0001
0010
,
0001
0100
1000
0010
,
0100
0100
0110
0000
,
0010
1000
0100
1000
,
0001
0100
0010
0100
,
0001
0010
1000
0100
,
0010
0010
0110
0001
,
0100
0010
0100
0001
,
1000
0010
0100
0001
,
0010
0100
0110
0000
,
0001
0100
1001
0000
,
2000
0000
3001
0000
,
0010
0100
0110
0000
,
0001
0000
0100
0010
,
2000
0000
0000
3000
,
0200
0000
0310
0100
,
1000
0010
1000
0001
,
0100
0010
0100
0001
,
1001
0000
0000
0000
,
0110
0000
1001
0000
,
2000
3000
0200
0300
,
0010
0001
1000
0010
,
0200
0001
0000
0301
,
0010
0010
0001
0100
,
1000
0010
1000
0001
,
1001
0000
0100
0010
,
0110
0000
0000
0000
,
1000
1000
0001
0001
,
0010
0100
1000
0000
,
0010
0010
0100
0100
,
0001
0010
1000
0000
,
0100
1000
0100
0010
,
0001
0100
0001
1000
,
0010
1000
0110
0000
,
0001
0100
1001
0000
,
0020
0000
0130
0000
,
0010
1000
0002
0003
,
0010
0001
0010
0100
,
2000
0001
0000
3001
,
0020
0000
0031
0010
,
0001
0100
1000
1000
,
1001
0110
1000
0001
,
0010
0000
0000
0000
,
1001
0000
0110
0000
,
0002
0003
0020
0030
,
0001
0010
1000
0100
,
0020
0001
0000
0031
,
0200
0000
0310
0000
,
1000
0100
1000
0001
,
0020
0000
0032
0000
,
0203
0000
0000
0000
,
0302
0000
0000
0000
,
0000
0000
0000
0000
,
0000
0000
0000
0003
;

//---------------dance-single - ----------------
#NOTES:
     dance-single:
     :
     Medium:
     9:
     :
0000
0000
0000
0000
,
0000
0000
0000
0000
,
0000
0000
0000
0000
,
0000
0000
0000
0000
,
0020
0000
0000
0000
,
0000
0000
0000
0000
,
0000
0000
0000
0000
,
0130
0000
0000
0000
,
0001
0000
0100
0010
1000
0000
0000
0100
,
0010
0001
1000
0000
,
0010
0000
1000
0001
0100
0000
0000
0001
,
0010
0100
1000
0000
,
0100
0000
1000
0010
0001
0000
0000
1000
,
0100
0001
0010
0000
,
0002
0000
0000
0000
,
0000
0000
0000
0003
,
0001
0100
1000
0000
1010
0000
0000
0000
,
1000
0010
0001
0000
0101
0000
0010
0000
,
1000
0100
1000
0000
0001
0100
0001
0000
,
1001
0000
0010
1000
0100
0000
0000
0000
,
1000
0100
1000
0000
0001
0100
0001
0000
,
0010
0001
0010
0000
0010
1000
0010
0000
,
1000
0100
0001
0000
1000
0010
0001
0000
,
1000
0100
1000
0000
0110
0000
0000
0000
,
0001
0010
0100
0000
1100
0000
0011
0000
,
1000
0001
0100
0001
1000
0000
1001
0000
,
0110
0000
1000
0010
1000
0000
0100
0010
,
0001
0000
1000
0010
0100
0000
0101
0000
,
1100
0000
0010
0000
1000
0100
1000
0000
,
0001
0010
0001
0000
0010
0100
1000
0000
,
1000
0001
0100
0000
1010
0000
0011
0000
,
1000
0001
0100
0001
0100
0010
0000
0000
,
1000
0100
0000
2000
0000
0000
3010
0100
,
0000
0002
0000
0000
1003
0000
0000
0100
,
1000
0002
0000
0000
0013
0100
0000
2000
,
0000
0010
0000
3010
,
0100
0001
0000
0000
0011
0000
0001
2000
,
0000
3020
0000
0000
0100
0000
0130
0000
,
0110
0000
1010
0000
1000
0100
0000
0001
,
0010
0000
0001
0000
0100
0010
0100
0000
,
1000
0002
0000
0000
0010
0000
0013
0000
,
0001
0200
0000
0000
0010
0000
0310
0000
,
0101
0000
1001
0000
1000
0100
0000
1000
,
0001
0200
0301
0020
,
0031
2000
0000
0000
3100
0000
1100
0000
,
0010
0000
1000
0002
0000
0203
0000
0000
,
0310
2000
0000
0000
3100
0010
0000
0001
,
1000
0000
0010
0000
1000
0100
0001
0000
,
0010
0001
0100
0000
0010
1000
0100
0000
,
1100
0101
1100
0000
,
0010
1000
0100
0000
0010
0001
0100
0000
,
1010
0011
1010
0000
,
1000
0100
1000
0000
0001
0100
0001
0000
,
0010
0001
0100
0000
0010
1000
0100
0000
,
1000
0001
0100
0000
0110
0000
1001
0000
,
1000
0001
0100
0001
0100
0010
0000
0000
,
1000
0100
0000
0000
0011
0000
0001
0100
,
0000
0010
1000
0000
0101
0000
0010
0100
,
0001
1000
0000
0000
0100
0010
0000
0001
,
0100
1001
0100
0110
,
1000
0010
0000
0000
1001
0000
0001
0010
,
0000
0001
0100
0000
0101
0000
0011
0000
,
2000
0000
3002
0000
0013
0100
1000
0000
,
1100
0000
0010
0000
1000
0001
0100
0000
,
0010
1000
0000
0000
1010
0000
0110
0000
,
0001
0200
0000
0000
0320
0000
1030
0000
,
1010
0000
0101
0000
0001
0010
0100
1000
,
0010
1001
0100
0110
,
0001
1000
0000
0000
0011
0000
1100
0000
,
0020
0000
1030
0001
1000
0000
0200
0000
,
1300
0002
0000
0000
0013
0001
0000
0100
,
0010
0000
1000
0000
0100
1000
0010
0000
,
0002
0000
0000
0000
,
0000
0000
0000
0000
,
0000
0000
0000
0003
;

//---------------dance-single - ----------------
#NOTES:
     dance-single:
     :
     Hard:
     12:
     :
0000
0000
0000
0000
,
0000
0000
0000
0000
,
0000
0000
0000
0000
,
0000
0000
0000
0000
,
0020
0000
0000
0000
,
0000
0000
0000
0000
,
0000
0000
0000
0000
,
0130
0000
0000
0000
,
0001
0000
1000
0010
0100
0000
0000
0100
,
0001
1000
0001
1000
0010
0100
0000
0010
,
1000
0000
0010
0100
0001
0000
0000
0001
,
1000
0100
1000
0100
0010
0001
0000
0010
,
0100
0000
0010
1000
0001
0000
0000
0001
,
0010
0100
0010
0100
0001
1000
0000
1000
,
0002
0000
0000
0000
,
0000
0000
0000
0003
,
1000
0010
1000
0001
0010
0100
1000
0000
,
0001
0100
0010
1000
0100
0000
1000
0001
,
1000
0100
1000
0100
0010
0001
0010
0001
,
1000
0010
0001
0010
1000
0000
0000
0000
,
0010
0100
0010
0100
0001
1000
0001
1000
,
0001
0010
0100
1000
0010
0100
0001
1000
,
0001
0100
1000
0100
0001
0010
1000
0010
,
0001
0010
0100
1000
0100
0010
0001
0000
,
0010
1000
0100
1000
0001
0100
0001
0010
,
0001
1000
0001
0100
0010
0000
0010
1000
,
0010
1000
0100
0010
0001
0100
0001
1000
,
0010
0100
0010
0100
0010
0000
1000
0001
,
1000
0100
0010
0001
0100
0010
1000
0001
,
0010
0001
0100
0010
1000
0100
1000
0001
,
0100
0010
1000
0010
0001
0010
1000
0000
,
1000
0100
0010
0001
0010
0100
1000
0000
,
0001
0010
0000
0100
1000
0000
1000
0001
,
0100
0010
1000
0000
1100
0000
0010
0100
,
0001
0010
0001
0000
1000
0010
0000
0100
,
1000
0100
0010
0000
0100
0010
0001
0000
,
1000
0100
0001
0000
0011
0000
0100
1000
,
0010
1000
0100
0000
0010
0001
0100
0000
,
1010
0000
0101
0000
0001
1000
0010
0100
,
0001
0010
0100
0000
0010
0100
1000
0000
,
1000
0001
0010
0000
0001
0100
0010
0000
,
1000
0100
0001
0100
1000
0100
0001
0000
,
0110
0000
1001
0000
0100
0001
1000
0010
,
1000
0100
0001
0000
0001
0100
1000
0000
,
0010
1000
0001
0000
0011
0000
1010
0000
,
1001
0000
0100
0010
1000
0010
0100
0000
,
0001
0010
0100
0000
0001
1000
0000
0100
,
1000
0100
0001
0000
0100
0010
1000
0000
,
0010
1000
0010
1000
0001
0100
0001
0100
,
0010
0100
0010
0100
0001
1000
0100
0000
,
1000
0001
1000
0001
0010
0100
0010
0100
,
1000
0010
1000
0010
0100
0001
0010
0000
,
0001
0100
0010
1000
0100
0010
1000
0001
,
1000
0010
0100
0001
0010
0100
0001
1000
,
0001
0010
0100
1000
0100
0010
0001
0000
,
1000
0100
0010
0001
0010
0100
1000
0000
,
0010
0100
0010
0000
1100
0000
0001
0100
,
1000
0100
0001
0000
0101
0000
0100
0010
,
1000
0100
0010
0000
0001
0100
0000
0010
,
1000
0001
0010
0000
0100
0010
0001
0000
,
0010
1000
0100
0000
0110
0000
1000
0010
,
0100
0001
0010
0000
0100
1000
0001
0000
,
1001
0000
0100
0001
1000
0001
0100
0000
,
0010
1000
0100
0010
0001
1000
0100
0000
,
0010
0001
0100
0000
0101
0000
0011
0000
,
1000
0100
0001
0010
0100
0010
1000
0000
,
1010
0000
1100
0000
0001
0100
0010
1000
,
0100
0010
1000
0000
1000
0001
0010
0000
,
0001
0100
0010
0000
1000
0100
0001
0000
,
0110
0000
1000
0100
0001
1000
0010
0000
,
0100
0010
1000
0000
0001
0010
0001
0000
,
1000
0010
0100
0010
1000
0010
0100
0000
,
0002
0000
0000
0000
,
0000
0000
0000
0000
,
0000
0000
0000
0003
;
