#TITLE:Pelo's Comedy Club;
#SUBTITLE:;
#ARTIST:ockeroid;
#TITLETRANSLIT:;
#SUBTITLETRANSLIT:;
#ARTISTTRANSLIT:;
#GENRE:;
#CREDIT:;
#BANNER:Pelo's Comedy Club-bn.png;
#BACKGROUND:Pelo's Comedy Club-bg.png;
#LYRICSPATH:;
#CDTITLE:;
#MUSIC:Pelo's Comedy Club.ogg;
#OFFSET:-0.123457;
#SAMPLESTART:0.000000;
#SAMPLELENGTH:20.000000;
#SELECTABLE:YES;
#DISPLAYBPM:155.000000:192.000000;
#BPMS:0.000000=155.000000
,232.000000=170.000000
,242.000000=180.000000
,280.000000=185.000000
,322.000000=192.000000
;
#STOPS:
;
#BGCHANGES:;
#KEYSOUNDS:;
#ATTACKS:;

//---------------dance-single - ----------------
#NOTES:
     dance-single:
     :
     Hard:
     18:
     0.885573,0.940183,0.137756,0.045919,1.691335,810.000000,792.000000,18.000000,6.000000,0.000000,0.000000,0.885573,0.940183,0.137756,0.045919,1.691335,810.000000,792.000000,18.000000,6.000000,0.000000,0.000000:
0000
0000
0000
0000
,
0000
0000
0000
0000
,
0000
0000
0000
0000
,
0000
0000
0000
0000
,
0010
0000
0010
1000
0000
1000
0100
0000
0100
0010
0001
1000
,
0001
0000
0001
0010
0000
0010
0100
0000
0100
1000
0001
1000
,
0010
0000
1000
0001
0100
0001
0100
0000
0010
1000
0001
1000
,
0100
0000
0100
0010
0001
1000
0010
0000
0010
0100
0000
0001
,
1000
0100
1000
0001
0100
0001
0010
0100
0010
0001
1000
0010
,
1000
0000
1000
0001
0000
0001
0100
0000
0100
0010
0000
0010
,
0001
0000
0010
1000
0100
1000
0010
0000
1000
0100
0001
0100
,
1000
0000
0010
1000
0000
0100
0010
0001
1000
0001
0010
0100
,
1000
0000
0010
0100
0001
1000
0001
0000
0010
0001
0000
0100
,
0001
0000
1000
0010
1000
0010
1000
0000
0100
0010
0001
0010
,
0100
0000
1000
0001
1000
0001
1000
0000
0010
0100
0001
0100
,
0001
0010
1000
0010
0100
0010
0001
0100
0001
1000
0000
1000
,
0001
0000
0010
0001
0100
1000
0100
0001
0010
0100
0000
0000
,
1100
0000
0000
0000
0000
0000
0000
0000
0000
0000
0000
0000
0001
0000
0000
0000
0000
0000
0000
0000
1000
0000
0000
0000
0010
0000
0000
0100
0000
0000
0010
0000
0000
0100
0000
0000
0010
0000
0000
0100
0000
0000
0010
0000
0000
0100
0000
0000
,
0001
0000
0001
1000
0000
1000
0100
0000
1000
0010
0100
0001
,
0010
0100
1000
0010
0100
0001
1000
0100
1000
0001
0100
0001
,
1000
0010
0100
0001
0010
1000
0100
0010
0001
0100
0010
1000
,
0001
0100
0001
0100
0001
0010
0100
0010
0100
0010
0001
1000
,
0100
1000
0001
1000
0010
1000
0010
1000
0100
0010
0001
1000
,
0010
0000
1000
0001
0000
1000
0100
0010
0001
0100
0010
1000
,
0001
0100
0001
0010
0100
1000
0010
0000
1000
0100
0010
0001
,
0100
0000
0010
1000
0000
1000
0100
0000
1000
0001
0010
0001
,
0100
0000
0010
1000
0000
0010
1000
0000
0001
0010
0000
0100
,
1000
0000
0000
0000
0000
0000
0000
0000
0000
0001
0000
0000
0010
0000
0000
0000
0100
0000
0000
0000
0010
0000
0000
0000
0100
0000
0000
0000
0000
0000
0000
0000
1000
0000
0000
0000
0001
0000
0000
0000
0000
0000
0000
0000
1000
0000
0000
0000
,
0001
0000
0100
0010
1000
0001
1000
0000
0100
0010
0100
1000
,
0001
0010
0001
1000
0010
1000
0001
0100
0001
1000
0100
1000
,
0001
0000
0010
1000
0001
1000
0001
1000
0001
0100
0000
0010
,
0100
0000
0000
0001
0010
1000
0001
0100
0010
1000
0000
0100
,
1000
0000
0000
0001
0000
0000
1000
0000
0000
0001
0000
0000
1000
0000
0000
0001
0000
0000
1000
0000
0000
0001
0000
0000
0010
0000
0000
0000
0000
0000
0000
0000
0001
0000
0000
0000
0100
0000
0000
0000
0000
0000
0000
0000
0010
0000
0000
0000
,
1000
0000
1000
0100
0020
0000
0031
0100
0001
0010
0100
1000
,
0001
0010
0100
0001
0100
1000
0010
0000
0100
0010
0000
1000
,
0001
0000
0100
0001
0010
0001
1000
0000
0100
1000
0000
0010
,
1000
0000
0000
0101
0000
0001
1000
0000
1000
0010
0100
0001
,
0010
0100
0010
0100
0010
0100
0010
0000
0001
1000
0000
1000
,
0001
0000
0100
0010
0000
1000
0100
0010
0100
1000
0000
0001
,
1000
0000
0001
0010
0100
1000
0010
0000
0001
0010
0000
1000
,
0100
0000
0000
0000
0000
0000
0000
0000
0000
0000
0000
0000
1000
0000
0000
0010
0000
0000
1000
0000
0000
0010
0000
0000
0100
0000
0000
0000
0000
0000
0000
0000
0000
0000
0000
0000
0110
0000
0000
0000
0000
0000
0000
0000
0001
0000
0000
0000
,
1000
0000
1000
0001
0000
0001
0010
0000
0001
0100
0010
0100
,
0001
0000
0010
0100
0000
0100
1000
0000
0010
1000
0100
0001
,
1000
0000
0000
0000
0000
0000
0000
0000
0010
0000
0000
0000
1000
0000
0000
0000
0000
0000
0000
0000
0001
0000
0000
0000
0100
0000
0000
0000
0000
0000
0000
0000
0010
0000
0000
0000
0100
0000
0000
0001
0000
0000
1000
0000
0000
0000
0000
0000
,
1010
0000
0001
0100
0000
0010
1000
0000
0100
1000
0001
0100
,
0010
1000
0010
1000
0000
0001
1000
0100
0010
0001
0000
0001
,
0100
0000
0000
1001
0000
0000
0011
0000
0001
1000
0000
0010
,
1000
0200
0000
0310
0000
0010
0001
0000
0001
1000
0001
0100
,
0001
0000
0001
0010
0000
0010
0100
0000
0100
1000
0000
1000
,
0001
0100
1000
0100
0000
0000
0101
0000
0000
1010
0000
0000
,
1100
0000
0010
1000
0000
0001
1000
0000
0010
0100
0001
0100
,
0001
0010
0100
1000
0000
0001
1000
0000
0010
0100
0000
0100
,
0001
0000
0001
0010
0000
0010
0100
0000
0100
1000
0000
1000
,
0010
0001
0010
1000
0000
0100
1000
0000
0001
0100
0000
0001
,
1000
0000
0000
0100
0000
0000
1000
0000
0000
0100
0000
0000
0010
0000
0000
0000
0000
0000
0000
0000
0000
0000
0000
0000
0011
0000
0000
0000
0000
0000
0000
0000
1000
0000
0000
0000
0001
0000
0000
0000
0000
0000
0000
0000
0001
0000
0000
0000
,
0100
0000
0100
0010
0000
0010
1000
0001
0010
0100
0000
1000
,
0001
0000
0010
0001
0000
1000
0100
1000
0001
0100
0000
0010
,
1000
0000
1000
0001
0000
0001
0100
0000
0100
0010
0000
0010
,
1000
0100
0010
0001
0000
1000
0001
0000
0100
0010
0000
1000
,
0001
0000
0001
1000
0100
0001
1000
0010
0001
1000
0100
0001
,
0010
0000
0000
0001
0100
1000
0010
0100
0001
1000
0000
0000
,
1001
0000
0000
0110
0000
0100
0001
0000
1000
0001
0010
0100
,
0010
0001
1000
0001
0100
0010
1000
0100
1000
0100
0010
0001
,
0100
0000
0010
1000
0000
0001
0010
0000
0001
0100
1000
0100
,
0001
0000
0000
0010
0100
1000
0001
0000
1000
0001
0000
0100
,
0010
0000
1000
0010
0000
1000
0100
0000
0010
0001
0100
0001
,
1000
0100
0010
0001
0010
0100
1000
0000
0001
0010
0000
0001
,
0100
0010
0100
0010
0100
0010
1000
0100
1000
0001
0000
1000
,
0010
0000
0000
1000
0100
0001
0010
0000
0100
1000
0000
0001
,
1000
0100
1000
0010
0100
0001
0010
0001
0100
0010
1000
0001
,
1000
0000
0000
0200
1000
0000
0320
0001
0000
0130
0010
0001
,
1000
0000
0010
1000
0100
0001
0010
0100
1000
0001
0100
0010
,
0100
0000
0001
0010
0001
1000
0100
0000
1000
0010
0000
0100
,
0001
0000
0000
0011
0000
0000
1100
0000
0000
0001
0100
0010
,
0001
0010
1000
0001
0000
1000
0100
0001
0100
1000
0000
0010
,
1000
0000
0100
0010
0000
0001
0100
0000
0001
0010
0000
1000
,
0100
0000
0000
0000
1000
0010
1000
0000
0010
1000
0010
0000
1000
0010
1000
0000
,
0001
0000
1000
0010
0000
0100
0001
0000
0010
1000
0001
1000
,
0100
0010
0001
0100
0010
1000
0001
0000
0010
0001
0000
1000
,
0100
0000
0000
1001
0000
0000
0110
0000
0000
1000
0100
0001
,
1000
0000
0000
0000
0010
0000
0000
0000
0001
0000
0000
0000
1000
0000
0000
0000
0100
0000
0000
0000
0010
0000
0000
0000
0001
0000
0000
0000
0000
0000
0000
0000
0000
0000
0000
0000
0100
0000
0000
0010
0000
0000
0100
0000
0000
0010
0000
0000
,
1000
0010
1000
0010
0100
0001
0100
0001
0010
0100
0010
0100
1000
0001
1000
0001
,
0010
0000
0001
0100
0000
0001
1000
0000
0100
1000
0010
0001
,
0100
0010
1000
0001
0000
0010
0001
0000
0100
0010
1000
0001
,
1000
0000
0000
0000
0000
0000
0000
0000
0010
0000
0000
0000
0100
0000
0000
0000
0000
0000
0001
0000
0000
1000
0000
0000
0001
0000
0000
0000
0100
0000
0000
0000
0010
0000
0000
0000
0100
0000
0000
0000
0000
0000
0000
0000
0000
0000
0000
0000
,
1010
0000
0000
0101
0000
0000
1000
0100
0001
0010
0100
1000
,
0001
0010
0100
0010
1000
0100
0001
0100
1000
0010
0001
1000
,
0010
0200
0002
0000
0000
0000
0000
0000
0000
0000
0000
0000
0303
0000
0000
0000
;

//---------------dance-single - ----------------
#NOTES:
     dance-single:
     :
     Easy:
     8:
     0.423107,0.537248,0.413267,0.244899,0.000000,387.000000,333.000000,54.000000,32.000000,0.000000,0.000000,0.423107,0.537248,0.413267,0.244899,0.000000,387.000000,333.000000,54.000000,32.000000,0.000000,0.000000:
0000
0000
0000
0000
,
0000
0000
0000
0000
,
0000
0000
0000
0000
,
0000
0000
0000
0000
,
0010
1000
0001
0010
,
0001
0100
0010
1000
,
0100
0010
0001
0100
,
1001
0010
1000
0001
,
0010
0100
1100
0101
,
0010
2000
3002
0023
,
0230
0320
0230
2300
,
3010
0100
2010
3002
,
0013
0010
0001
0100
,
1000
0001
0001
0010
,
0001
0011
0110
1000
,
1010
0001
0100
0100
,
0010
0120
1000
1000
,
0100
1000
0001
0130
,
0001
0010
0001
0100
,
1000
0010
1000
0100
,
2000
0001
0001
3010
,
0002
0100
0010
1003
,
0010
1000
0101
1100
,
0001
0100
1001
0011
,
0100
0010
1000
0100
,
0001
0010
0001
0100
,
2000
0001
0100
0010
,
0001
0010
0001
3100
,
0020
1030
0100
0011
,
0001
0010
0001
1000
,
0100
1100
0101
1010
,
0001
1001
0110
1001
,
0010
2100
0001
3100
,
1000
0001
1000
0010
,
0100
0100
0100
0100
,
0001
0010
0001
1000
,
1010
0010
0200
0301
,
0100
0101
1000
0001
,
0010
0001
0100
1000
,
0100
0010
0010
0010
,
0001
0011
1000
0110
,
0010
0100
0001
1000
,
0010
0100
0010
1000
,
0100
0010
0001
0100
,
0001
0010
0100
1000
,
0010
0100
0110
1001
,
1100
0101
0001
1000
,
1010
0010
1000
0100
,
0011
0001
0001
1000
,
0100
0010
0001
0100
,
1000
0001
1000
0100
,
0010
0010
0001
0100
,
2000
0010
0100
3010
,
0002
0010
1000
0103
,
0020
0001
0100
1030
,
0200
0010
1000
0310
,
0001
0001
1000
0010
,
1000
0100
0010
0001
,
0101
0001
0010
0100
,
1000
0010
1000
0001
,
0010
0010
1100
1000
,
0001
0100
1010
0011
,
0100
0110
0010
1000
,
1001
0002
0100
1003
,
0010
0010
0001
0100
,
2000
3020
0230
0302
,
0013
0010
0002
1000
,
0103
1100
0110
0011
,
0100
1001
0010
0101
,
1010
0001
1000
0100
,
0011
1000
1000
1000
,
0101
0010
1000
0100
,
1001
0001
0010
0001
,
0100
0010
1000
1000
,
0200
0302
0203
0302
,
0013
0100
1000
0001
,
1010
1100
0110
0001
,
0100
0010
1000
0001
,
0010
0010
0010
0010
,
1000
0001
1000
0100
,
1000
1100
1010
1001
,
0001
0010
0001
0100
,
0101
0011
0110
1000
,
0100
0001
0010
0100
,
1000
0010
1000
0001
,
0010
0010
0001
0100
,
1000
0010
0100
2000
,
0002
0000
0000
3003
;

//---------------dance-single - ----------------
#NOTES:
     dance-single:
     :
     Medium:
     15:
     0.660353,0.738716,0.658167,0.030612,0.665820,604.000000,518.000000,86.000000,4.000000,0.000000,0.000000,0.660353,0.738716,0.658167,0.030612,0.665820,604.000000,518.000000,86.000000,4.000000,0.000000,0.000000:
0000
0000
0000
0000
,
0000
0000
0000
0000
,
0000
0000
0000
0000
,
0000
0000
0000
0000
,
0010
0000
0000
1001
0000
0000
1100
0000
1000
0001
0100
0000
,
0010
1010
0101
1100
,
0001
0000
0000
0011
0000
0000
0010
0000
0000
1000
0001
1000
,
0001
0100
0010
1000
,
0100
0000
0000
1000
0000
0000
0010
0100
0010
0100
0001
0000
,
1000
1100
0101
0010
,
1000
0000
0000
0110
0000
0000
0001
0000
0000
0010
0100
1000
,
0001
0000
0000
0000
0100
0000
0000
0000
0010
0000
0000
0000
1000
0001
1000
0000
,
0100
0011
0001
0100
,
1000
0000
0010
1000
0010
0100
0001
0000
0000
0010
0000
0001
,
1000
0000
0001
1000
0100
0010
0001
0000
0000
0100
0000
0000
,
1001
0001
1000
1010
,
0010
0000
0000
1000
0100
1000
0001
0100
0001
0010
0000
0000
,
0110
0000
0000
0000
0000
0000
0000
0000
0000
0000
0000
0000
1000
0000
0000
0000
0000
0000
0000
0000
0010
0000
0000
0000
0100
0000
0000
0010
0000
0000
0100
0000
0000
0010
0000
0000
0100
0000
0000
0010
0000
0000
0100
0000
0000
0010
0000
0000
,
0100
0000
0000
0101
0000
0000
1010
0000
0010
1000
0001
0000
,
0010
1100
0110
0011
,
1000
0000
0000
1001
0000
0000
0001
0000
0000
0100
0010
0100
,
0010
1000
0101
1001
,
0010
0000
0000
1000
0000
0000
0001
0100
0001
0100
0001
0000
,
0010
0100
1100
0011
,
1010
0000
0000
0001
0000
0000
1000
0000
0000
0001
0100
0010
,
1000
0000
0000
0000
0100
0000
0000
0000
0001
0000
0000
0000
0010
0100
0010
0100
,
0010
1001
1000
0001
,
0100
0000
0000
0000
0000
0000
0000
0000
0000
0010
0000
0000
1000
0000
0000
0010
0000
0000
0000
0000
1000
0000
0000
0000
0001
0000
0000
0000
0000
0000
0000
0000
0100
0000
0000
0000
0010
0000
0000
0000
0000
0000
0000
0000
0100
0000
0000
0000
,
0010
0000
1000
0001
1000
0001
0010
0000
0100
1000
0001
0000
,
1010
0001
0101
1100
,
0010
0000
0000
1000
0100
0010
0001
0010
0100
1000
0000
0000
,
0110
0000
0000
0001
0010
0100
1000
0100
0010
0001
0000
0000
,
1000
0001
1000
0001
1000
0001
1000
0001
1000
0000
0000
0000
1100
0000
0000
0000
,
0110
0000
0001
0010
0001
0000
1000
0000
0000
0101
0000
0000
,
0011
1100
0011
1001
,
1000
0000
0000
0100
0010
0001
1000
0000
0000
1010
0000
0000
,
1100
0000
0000
0011
0000
0100
1000
0000
0000
0001
0000
0000
,
1000
0010
1000
0010
1000
0010
1000
0000
0000
0001
0000
0000
,
1001
0110
1000
0011
,
1000
0000
0000
0001
0100
0010
0100
0000
0000
0001
0000
0000
,
1000
0000
0000
0010
1000
0001
0100
0000
0000
0110
0000
0000
,
1000
0000
0000
0001
0000
0000
1000
0000
0001
0010
0100
1000
,
0010
0000
0000
0101
0000
0000
1000
0000
0010
1000
0100
0010
,
0001
0100
0011
0010
,
1001
0000
0000
0100
0000
0000
0010
0000
0000
1000
0001
1000
,
0001
0010
0100
1000
0000
1000
0010
0100
0010
0100
0000
0001
,
1000
0000
0000
1100
0000
0000
0101
0000
0100
0010
0000
0100
,
0010
1000
0000
0001
0000
0000
0101
0000
0000
0110
0000
0000
,
1001
0000
0000
1000
0000
0100
1000
0000
0000
0001
0000
0010
,
0001
0100
0001
1000
0000
0000
1010
0000
0000
0101
0000
0000
,
1010
0000
0000
0001
0000
0000
0010
0000
0000
0001
0010
0001
,
0100
0010
1000
0001
0000
0000
0010
0000
0000
0001
0000
0100
,
1000
0001
0011
0100
,
0010
1000
0010
1000
0000
0000
0110
0000
0000
0001
0000
0000
,
0010
0001
0010
0001
0010
0001
0010
0001
0010
0000
0000
0000
0100
0000
0000
0000
,
1000
0000
0000
0010
0000
0010
1000
0001
0010
0100
0000
0000
,
1000
0000
0000
0001
0000
1000
0010
0100
0001
0100
0000
0000
,
1000
1100
0001
0011
,
0101
1000
0010
0100
,
0001
0000
0000
1000
0100
1000
0100
1000
0100
1000
0000
0000
,
1001
0000
0000
1000
0010
1000
0010
1000
0010
1000
0000
0000
,
0001
0000
0000
1100
0000
0100
0010
0000
0000
0100
0000
0000
,
1000
0000
0010
0100
0010
0000
1000
0000
0000
0101
0000
0000
,
0110
0000
0010
1000
0000
0000
0001
0000
1000
0100
0000
0000
,
1010
0000
0000
1000
0100
0010
0001
0000
0000
0001
0000
0000
,
0110
0000
0000
1001
0000
0000
0100
0000
0000
0010
0000
1000
,
0001
0010
0001
0010
0100
0010
0001
0000
0000
0100
0000
0000
,
1100
0101
1000
0001
,
1000
0000
0000
0010
0100
0010
0100
0000
0000
0001
0000
0000
,
1000
0000
0000
0000
0001
0100
0001
0100
0001
0000
0000
0000
1000
0000
0000
0000
,
1100
0000
0000
0010
0000
0000
1000
0000
0001
0010
0001
1000
,
0100
0000
0000
0010
0000
0001
0010
0000
0001
1000
0100
0010
,
0001
0100
1010
0010
,
1100
0000
0000
0110
0000
0000
0011
0000
0000
1000
0001
1000
,
0001
0010
0100
1000
0000
0001
1000
0010
0100
0001
0000
0000
,
0011
0000
0000
1100
0000
0000
1010
0000
0000
1001
0000
0010
,
1000
0001
0000
0010
0000
0000
1100
0000
0000
0101
0000
0000
,
1100
0001
0110
1001
,
0010
1000
0010
1000
0000
0001
0020
0000
0000
0230
0000
0000
,
1300
0000
0000
0001
0000
0000
0100
0000
0000
0001
1000
0001
,
1000
0001
1000
0001
0000
0000
0101
0000
0000
1000
0000
0000
,
0001
0000
0000
0100
0000
0010
1000
0000
0000
1100
0000
0000
,
0011
0000
1000
0001
1000
0100
0010
0000
0000
0001
0000
0000
,
0100
0010
0100
0010
0100
0000
0000
0000
0001
0000
0000
0000
1000
0000
0000
0000
,
0010
0000
1000
0010
0000
0100
0001
1000
0001
0010
0100
0010
,
0100
0000
0000
1000
0000
0000
0001
0100
0001
1000
0000
0000
,
0010
0000
0000
1001
0000
0001
1000
0000
0010
0100
0000
0000
,
0001
2000
0002
0000
0000
0000
0000
0000
0000
0000
0000
0000
3003
0000
0000
0000
;

//---------------dance-single - ----------------
#NOTES:
     dance-single:
     :
     Beginner:
     6:
     0.264579,0.333867,0.137756,0.015306,0.000000,242.000000,224.000000,18.000000,2.000000,0.000000,0.000000,0.264579,0.333867,0.137756,0.015306,0.000000,242.000000,224.000000,18.000000,2.000000,0.000000,0.000000:
// measure 0
0000
0000
0000
0000
,  // measure 1
0000
0000
0000
0000
,  // measure 2
0000
0000
0000
0000
,  // measure 3
0000
0000
0000
0000
,  // measure 4
0010
0010
0000
1000
,  // measure 5
0000
0001
0000
1000
,  // measure 6
0000
0001
0000
0100
,  // measure 7
0100
0000
0010
0010
,  // measure 8
0000
0000
1000
1000
,  // measure 9
0000
0001
0001
0001
,  // measure 10
0001
0001
0001
0001
,  // measure 11
0001
0000
0110
0000
,  // measure 12
1000
1000
0000
0000
,  // measure 13
0000
0010
0010
0000
,  // measure 14
0000
0100
0100
0000
,  // measure 15
1001
0000
1000
1000
,  // measure 16
0000
0010
0010
0010
,  // measure 17
0010
0000
2000
0000
,  // measure 18
3000
0000
0000
0001
,  // measure 19
0000
0000
0010
0000
,  // measure 20
0000
0110
0000
1000
,  // measure 21
1000
0000
0100
0100
,  // measure 22
0000
0000
0001
0001
,  // measure 23
0000
0000
1001
0000
,  // measure 24
1000
0000
0000
0001
,  // measure 25
0001
0000
0000
0100
,  // measure 26
0100
0100
0000
0000
,  // measure 27
0000
0010
0010
0000
,  // measure 28
0000
1000
1000
1000
,  // measure 29
1000
0000
0000
0000
,  // measure 30
0000
0001
0001
0001
,  // measure 31
0001
1000
1000
1000
,  // measure 32
2000
0000
3000
0000
,  // measure 33
0010
0010
0000
1000
,  // measure 34
1000
1000
0000
0110
,  // measure 35
0000
0010
0010
0100
,  // measure 36
0010
0100
0000
0000
,  // measure 37
0001
0001
1000
0001
,  // measure 38
1000
0000
0000
1001
,  // measure 39
0000
0010
0100
0000
,  // measure 40
0000
0001
0001
1000
,  // measure 41
0000
0000
0000
0100
,  // measure 42
0010
0000
0000
0001
,  // measure 43
0100
0000
0110
0000
,  // measure 44
1001
1000
0000
0001
,  // measure 45
0001
0100
0100
0010
,  // measure 46
1000
1000
0010
0000
,  // measure 47
0010
0000
0100
0100
,  // measure 48
0100
0000
0001
0000
,  // measure 49
0010
0010
1000
0001
,  // measure 50
0100
0000
0000
0010
,  // measure 51
0100
0010
0000
0110
,  // measure 52
0000
0000
1001
0000
,  // measure 53
1000
1000
0001
0010
,  // measure 54
0010
0100
1000
0000
,  // measure 55
0000
0000
0001
0001
,  // measure 56
0000
0000
1000
1000
,  // measure 57
0000
0110
0000
1001
,  // measure 58
0001
0000
0010
0010
,  // measure 59
0000
0100
0100
0100
,  // measure 60
1000
0010
0010
0010
,  // measure 61
1000
0001
1000
0010
,  // measure 62
0000
0110
0000
1000
,  // measure 63
0100
0100
0001
1000
,  // measure 64
0001
0010
0010
0001
,  // measure 65
0100
1001
0000
0000
,  // measure 66
1000
1000
0001
0100
,  // measure 67
0010
0100
0000
0000
,  // measure 68
0001
0001
1000
0001
,  // measure 69
0000
0010
0100
0100
,  // measure 70
0000
0000
1000
1000
,  // measure 71
0001
0010
0001
0001
,  // measure 72
0100
0000
0110
0000
,  // measure 73
1000
1001
0000
0010
,  // measure 74
0010
0010
0010
0010
,  // measure 75
0100
0001
0001
1000
,  // measure 76
0001
0000
0010
0010
,  // measure 77
0010
0000
0110
0000
,  // measure 78
0100
0001
1000
0001
,  // measure 79
0100
0000
0000
0010
,  // measure 80
1000
0001
0000
1001
,  // measure 81
0010
0000
0100
0000
,  // measure 82
0001
0001
0001
0001
,  // measure 83
1000
0010
0100
0100
,  // measure 84
0000
0000
0010
0010
,  // measure 85
1000
0001
1000
0001
,  // measure 86
0010
0100
0010
0100
,  // measure 87
0001
0001
0000
0000
;
