#TITLE:Payphone;
#ARTIST:Maroon 5 ft. Wiz Khalifa;
#BANNER:Payphone-bn.png;
#BACKGROUND:Payphone-bg.png;
#JACKET:Payphone-jacket.png;
#MUSIC:Payphone.ogg;
#OFFSET:1.333;
#SAMPLESTART:36.008;
#SAMPLELENGTH:20;
#LASTBEATHINT:0.596;
#DISPLAYBPM:110;
#BPMS:0=110;
#BGCHANGES:;

//---------------dance-single - ----------------
#NOTES:
     dance-single:
     :
     Beginner:
     4:
     :
0000
0000
0000
0000
,
0000
0000
0000
0000
,
0000
0000
0000
0000
,
0000
0000
0000
0000
,
0000
0000
0000
0000
,
0001
0000
1000
0000
,
0010
0000
1000
0000
,
0100
0000
0010
0000
,
0001
0000
1000
0000
,
0100
0100
0100
0000
,
0010
0010
0010
0000
,
0001
0001
0001
0000
,
1000
1000
1000
0000
,
0010
0010
0010
0000
,
1000
1000
1000
0000
,
0001
0001
0001
0000
,
0020
0000
0030
0000
,
0000
1001
0000
0000
,
1000
1000
0000
0000
,
0001
0000
0100
0000
,
0010
0000
1000
0000
,
0000
0110
0000
0000
,
0010
0010
0000
0000
,
0100
0000
0001
0000
,
0010
0000
0001
0000
,
1000
1000
1000
1000
,
0000
0000
1001
0000
,
0001
0001
0001
0001
,
0000
0000
1001
0000
,
0100
0100
0100
0100
,
0000
0000
0110
0000
,
0010
0010
0010
0010
,
0000
0000
0110
0000
,
0001
0000
1000
0000
,
0010
0000
1000
0000
,
0100
0100
0100
0000
,
0010
0010
0010
0000
,
0000
0001
0001
0000
,
1000
0000
0010
0000
,
0000
0100
0000
0001
,
0000
1000
0000
0001
,
0000
0000
0010
0010
,
0000
0001
0001
0000
,
0100
0000
0010
0000
,
1000
0000
0100
0100
,
0000
0000
1000
1000
,
0000
0000
0001
0001
,
0000
0000
0010
0000
,
0001
0002
0000
0003
,
0000
1001
0000
0000
,
0100
0100
0000
0000
,
0010
0000
1000
0000
,
0010
0000
0100
0000
,
0000
0110
0000
0000
,
0001
0001
0000
0000
,
0010
0000
0001
0000
,
1000
0000
0100
0000
,
0010
0010
0010
0010
,
0000
0000
1001
0000
,
0100
0100
0100
0100
,
0000
0000
1001
0000
,
0001
0001
0001
0001
,
0000
0000
0110
0000
,
1000
1000
1000
1000
,
0000
0000
0110
0000
,
0001
0000
0000
0000
;

//---------------dance-single - ----------------
#NOTES:
     dance-single:
     :
     Easy:
     6:
     :
0000
0000
0000
0000
,
0000
0000
0000
0000
,
0000
0000
0000
0000
,
0000
0000
0000
0000
,
0000
0000
0000
0000
,
0001
1000
0010
0100
,
0010
1000
0100
0001
,
1000
0001
0010
0100
,
1000
1000
0001
0001
,
0100
0110
0010
1000
,
0100
1001
0010
0001
,
1000
0110
0010
1000
,
0001
1001
0010
0100
,
1001
1001
0010
1000
,
0110
0110
0001
0010
,
0110
1001
1000
0001
,
0020
0030
0001
1000
,
0010
1001
0100
0010
,
1000
0110
1000
0001
,
0010
0001
0100
0010
,
1000
0000
0010
0100
,
0001
0110
0010
1000
,
0100
1001
0010
0100
,
0001
0010
0001
0100
,
1000
0000
1100
1100
,
0001
0100
1000
2200
,
0000
3300
0011
0011
,
1000
0100
0010
0022
,
0000
0033
0101
0101
,
0010
1000
0001
0202
,
0000
0303
1010
1010
,
1000
0001
0100
2020
,
0000
3030
1000
0100
,
0002
0003
1001
0110
,
0010
1000
0100
0010
,
0001
0100
0001
1000
,
0010
1000
0100
0010
,
0000
0011
0001
0100
,
1000
1000
0010
0001
,
0000
0100
0010
0100
,
0000
0001
1000
0001
,
0000
1001
0000
0000
1000
0000
0010
0000
,
0000
1000
0100
0010
,
0001
0100
0001
1010
,
1000
0100
0010
0011
,
0000
0100
0001
1000
,
0000
0010
1000
0100
,
0000
1000
0001
0010
,
0101
1100
0010
0100
,
0001
1001
0010
1000
,
0100
0110
0100
1000
,
0010
1000
0001
0010
,
0100
0000
1000
0001
,
0100
0110
0001
0010
,
1000
1001
0010
0001
,
0100
0010
1000
0001
,
0010
0000
1100
1100
,
0010
0001
0100
2200
,
0000
3300
0011
0011
,
1000
0001
0100
0022
,
0000
0033
0101
0101
,
0001
1000
0010
0202
,
0000
0303
1010
1010
,
1000
0001
0010
2020
,
0000
3030
0010
0100
,
0001
0000
0000
0000
;

//---------------dance-single - ----------------
#NOTES:
     dance-single:
     :
     Medium:
     10:
     :
0000
0000
0000
0000
,
0000
0000
0000
0000
,
0000
0000
0000
0000
,
0000
0000
0000
0000
,
0000
0000
0000
0000
,
0001
0000
1000
0001
0010
0001
1000
0010
,
0100
0000
0010
1000
0100
0010
0001
0000
,
0100
0000
0001
0010
0001
0100
0010
1000
,
0100
0000
0000
0100
0000
0000
0100
0000
1000
0000
0000
0001
0000
0000
1000
0000
,
0100
0000
0000
0000
0110
0000
0000
0000
0001
0000
0000
1000
0000
0000
0010
0000
,
1000
0000
0000
0000
1001
0000
0000
0000
0001
0000
0000
0100
0000
0000
0010
0000
,
1000
0000
0000
0000
1100
0000
0000
0000
0001
0000
0000
0100
0000
0000
0010
0000
,
0100
0000
0000
0000
0101
0000
0000
0000
0010
0000
0000
0001
0000
0000
1000
0000
,
0001
0000
0000
0000
0011
0000
0000
0000
0100
0000
0000
0010
0000
0000
1000
0000
,
0010
0000
0000
0000
1010
0000
0000
0000
1000
0000
0000
0001
0000
0000
0100
0000
,
0110
0000
0000
0000
1001
0000
0000
0000
1000
0000
0000
0100
0000
0000
0001
0000
,
0020
0000
0030
0000
0001
1000
0001
0200
,
0000
0000
0310
0000
1000
0001
1000
0020
,
0000
0000
0130
0000
0001
0010
0001
1000
,
0000
1100
0000
0101
0000
0010
0001
0100
,
0000
0000
0000
0000
0001
1000
0100
0020
,
0000
0000
0031
0000
1000
0001
0010
0200
,
0000
0000
0310
0000
0001
0100
0001
1000
,
0000
1010
0000
0101
0000
1000
0001
0010
,
0000
0000
0000
0001
1000
0010
1000
0010
,
0200
0000
0000
0001
0000
0000
1000
0000
0000
0310
0000
0000
0220
0000
0000
0000
,
0000
0000
0330
0000
1000
0100
0010
0001
,
0020
0000
0000
1000
0000
0000
0001
0000
0000
0130
0000
0000
2200
0000
0000
0000
,
0000
0000
3300
1000
0010
0100
0010
1000
,
0002
0000
0000
0010
0000
0000
1000
0000
0000
0103
0000
0000
0202
0000
0000
0000
,
0000
0000
0303
0000
0010
0001
1000
0100
,
2000
0000
0000
0001
0000
0000
0010
0000
0000
3100
0000
0000
2002
0000
0000
0000
,
3003
0110
0000
0010
1000
0100
1000
0001
,
0000
0012
0000
0103
1000
1000
1000
0000
,
0010
1000
0010
0100
0001
0010
0001
1000
,
0100
0010
0001
0100
0001
1000
1010
0000
,
0010
1000
0001
1000
0100
0010
0011
0000
,
0000
0100
0010
1000
0100
0010
0110
0000
,
0001
1000
0010
1000
0100
0010
0001
0100
,
0000
0010
0100
0010
1000
0100
1000
0001
,
0000
0010
0001
1000
0001
0010
0100
1000
,
0000
1001
0000
0010
1000
0100
1000
0001
,
0000
0010
0001
0100
0001
1000
0100
0010
,
0100
1000
0010
1000
0001
0100
0101
0000
,
1000
0001
1000
0100
0010
0001
0100
0110
,
0000
1000
0001
0010
0001
0100
0010
1010
,
0000
1000
0100
1000
0010
0100
0001
0011
,
0000
1000
0001
1000
0100
0010
0001
0100
,
0010
1000
0001
1000
0100
0010
0001
2000
,
0000
0000
3010
0000
1000
0001
1000
0200
,
0000
0000
0310
0000
0100
1000
0001
0100
,
0000
0110
0000
1001
0000
0001
0010
0100
,
0000
0000
0000
0000
1000
0010
0100
0002
,
0000
0000
1003
0000
0001
0010
0001
0200
,
0000
0000
0301
0000
1000
0100
1000
0010
,
0000
1010
0000
0101
0000
0010
0001
1000
,
0000
0000
0000
0100
1000
0001
1000
0100
,
0020
0000
0000
0100
0000
0000
1000
0000
0000
0031
0000
0000
0022
0000
0000
0000
,
0000
0000
0033
0000
1000
0001
0100
0010
,
2000
0000
0000
0100
0000
0000
0001
0000
0000
3010
0000
0000
2200
0000
0000
0000
,
0000
0000
3300
0010
0001
0100
0001
1000
,
0200
0000
0000
1000
0000
0000
0001
0000
0000
0310
0000
0000
0220
0000
0000
0000
,
0000
0000
0330
0000
0001
1000
0010
0100
,
0002
0000
0000
1000
0000
0000
0010
0000
0000
0103
0000
0000
2002
0000
0000
0000
,
0000
0000
3003
0010
0100
0001
1000
1100
,
0000
0101
0000
0000
0000
0000
0000
0000
;

//---------------dance-single - ----------------
#NOTES:
     dance-single:
     :
     Hard:
     13:
     :
0000
0000
0000
0000
,
0000
0000
0000
0000
,
0000
0000
0000
0000
,
0000
0000
0000
0000
,
0000
0000
0000
0000
,
0001
0000
0000
0000
1000
0100
0000
1000
0000
0001
0000
0100
0010
0000
1000
0000
,
0100
0000
0000
0000
0010
0001
0000
1000
0000
0001
0000
0100
0010
0000
0000
0000
,
1000
0000
0000
0000
0100
1000
0000
0010
0000
0100
0000
0001
1000
0000
0010
0000
,
0200
0000
0000
0302
0000
0000
1003
0000
0200
0000
0000
0320
0000
0000
0031
0000
,
0100
0000
0000
0000
0110
0000
0000
0000
1000
0000
0000
0010
1000
0000
0001
0000
,
0010
0000
0000
0000
0011
0000
0000
0000
0001
0000
0000
0100
0010
0000
1000
0000
,
0100
0000
0000
0000
1100
0000
0000
0000
0010
0000
0000
1000
0001
0000
0010
0000
,
0001
0000
0000
0000
0101
0000
0000
0000
1000
0000
0000
0010
0100
0000
0001
0000
,
0011
0000
0000
0000
1100
0000
0000
0000
0010
0000
0000
1000
0001
0000
0100
0000
,
0110
0000
0000
0000
1001
0000
0000
0000
1000
0000
0000
0001
0010
0000
0100
0000
,
1100
0000
0000
0000
0101
0000
0000
0000
0010
0000
0000
0100
0001
0000
1000
0000
,
0020
0100
0100
0130
0001
1000
0010
1000
,
0100
0000
0010
0000
1001
0000
0000
0010
1000
0000
0001
0000
1000
0000
0100
0000
,
0010
0000
0001
0000
0101
0000
0000
0010
1000
0000
0001
0000
1000
0000
0100
0000
,
0001
0100
0010
0100
0001
0100
1000
0010
,
0100
0001
1000
0000
0010
1000
0001
0010
,
0001
0000
0100
0000
1010
0000
0000
0100
1000
0000
0001
0000
1000
0000
0010
0000
,
0100
0000
0001
0000
0011
0000
0000
1000
0001
0000
0100
0000
0010
0000
1000
0000
,
0100
0001
0100
1000
0100
0010
0001
0100
,
0010
0000
1000
0001
0101
0100
0110
0010
,
2010
0000
0000
3001
0000
0000
0101
0000
0000
1100
0000
0000
0102
0000
0000
0000
,
0010
0000
1003
0000
0011
0001
0101
0100
,
0120
0000
0000
1030
0000
0000
1100
0000
0000
1001
0000
0000
0201
0000
0000
0000
,
1000
0000
0301
0100
0110
0010
1010
1000
,
1002
0000
0000
0013
0000
0000
0011
0000
0000
0110
0000
0000
1200
0000
0000
0000
,
0001
0000
1300
0000
1001
0001
0101
0100
,
2100
0000
0000
3010
0000
0000
1001
0000
0000
0011
0000
0000
0210
0000
0000
0000
,
1300
1010
0000
0001
1000
0010
0100
0001
,
0000
0012
0000
1003
1010
0101
1010
0000
,
0001
0100
0001
0000
0010
0100
0010
0000
0001
0000
1000
0000
0100
1000
0100
0000
,
0010
0000
0001
0000
1000
0000
0010
0000
0100
0000
0001
1000
0001
1000
0000
0000
,
0100
1000
0100
1000
0100
0000
0010
0000
0001
0000
1000
0000
0001
0010
0000
0000
,
0000
0000
0110
0000
1000
0000
0010
0100
0000
0001
1000
0010
1000
0001
0000
0000
,
0010
0001
0100
0000
0010
1000
0100
0000
0010
0000
0001
1000
0000
0010
0100
0010
,
0000
0000
1000
0100
1000
0000
0001
0000
0010
0000
0001
0100
0000
0001
1000
0010
,
0000
0000
0100
0001
0100
0000
0010
1000
0010
0000
1000
0100
0000
0010
0001
0100
,
0000
0000
1001
0000
0000
0000
1000
0100
1000
0000
0001
0100
0001
0000
0011
0000
,
0000
0000
0100
0001
0100
0001
0100
0000
0010
0000
1000
0001
1000
0001
1000
0000
,
0100
0000
0010
0001
0010
0000
0100
0000
1000
0001
1000
0100
0010
0000
0000
0000
,
0001
0100
0001
0100
0010
0000
0000
1010
0000
1100
0000
1000
0001
1000
0100
0000
,
0000
0000
1000
0001
0100
0000
0010
0000
0110
0000
1001
0000
1000
0100
0010
0000
,
0000
0000
0001
0010
0001
0000
0100
0000
0010
1000
0010
1000
0010
0100
0001
0000
,
0000
0000
0010
0001
1000
0000
0010
1000
0100
0000
1000
0001
1000
0000
0010
0100
,
0001
0010
1000
0010
0001
0000
0100
0010
1000
0000
0001
0000
1000
0000
0100
0000
,
0010
0000
0001
0000
1001
0000
0000
0010
1000
0000
0001
0000
1000
0000
0100
0000
,
0010
0000
0001
0000
0101
0000
0000
0010
0100
0000
0001
0000
1000
0000
0100
0000
,
0001
0100
0010
0100
0001
0100
1000
0001
,
0100
0010
1000
0000
0100
1000
0001
0010
,
0001
0000
0100
0000
1010
0000
0000
1000
0001
0000
0010
0000
0001
0000
0100
0000
,
0010
0000
1000
0000
0110
0000
0000
0001
0010
0000
0001
0000
0100
0000
0010
0000
,
1000
0100
0001
0100
0010
0100
0001
0100
,
1000
0000
0010
0100
0101
0001
0011
0010
,
0210
0000
0000
1300
0000
0000
1100
0000
0000
1001
0000
0000
1020
0000
0000
0000
,
0001
0000
1030
0000
0110
0100
0101
0001
,
2001
0000
0000
3100
0000
0000
1010
0000
0000
0011
0000
0000
2100
0000
0000
0000
,
0001
0000
3100
1000
1001
0001
0011
0010
,
0120
0000
0000
0130
0000
0000
1100
0000
0000
0101
0000
0000
0021
0000
0000
0000
,
1000
0000
0130
0000
0011
0001
0101
0100
,
2100
0000
0000
3001
0000
0000
1100
0000
0000
0110
0000
0000
0012
0000
0000
0000
,
1003
0010
1000
0001
0010
0100
1000
1100
,
0000
0101
0000
0000
0000
0000
0000
0000
;
