#TITLE:Paradise;
#ARTIST:The Winter Sounds;
#BANNER:Paradise-bn.png;
#BACKGROUND:Paradise-bg.png;
#JACKET:Paradise-jacket.png;
#MUSIC:Paradise.ogg;
#SAMPLESTART:6.5;
#SAMPLELENGTH:20;
#DISPLAYBPM:141:152;
#BPMS:0=140.87,4=145,8=150,32=147,44=152,56=149,72=144,76=151,96=148,116=146.7,128=149.1,148=147.5,152=151.25,172=148.75;
#BGCHANGES:;

//---------------dance-single - ----------------
#NOTES:
     dance-single:
     :
     Beginner:
     2:
     :
0000
0000
0000
0000
,
0000
0000
0000
0000
,
0000
0000
0000
0000
,
0000
0000
0000
0000
,
0010
0000
0000
0000
,
1000
0000
0000
0000
,
0001
0000
0000
0000
,
0100
0000
0010
0000
,
0100
0000
0000
0000
,
0000
0000
0000
0000
,
0001
0000
0001
0000
,
1000
0000
0000
0000
,
0010
0000
0010
0000
,
0100
0000
0100
0000
,
0010
0000
0000
0000
,
1000
0000
0000
0000
,
0001
0000
0000
0000
,
0100
0000
0010
0000
,
1000
0000
0000
0000
,
0000
0000
0000
0000
,
0100
0000
0100
0000
,
0010
0000
0000
0000
,
0001
0000
0001
0000
,
1000
0000
1000
0000
,
0010
0000
0010
0000
,
0100
0000
0001
0000
,
1000
0000
1000
0000
,
0001
0000
1000
0000
,
0010
0000
0010
0000
,
1000
0000
1000
0000
,
0001
0000
0010
0000
,
0001
0000
0100
0000
,
0010
0000
0010
0000
,
0010
0000
0010
0000
,
0100
0000
0100
0000
,
0001
0000
0010
0000
,
0001
0000
1000
0000
,
0100
0000
0010
0000
,
0001
0000
0001
0000
,
1000
0000
1000
0000
,
0100
0000
0010
0000
,
0001
0000
0100
0000
,
1000
0000
1000
0000
,
0001
0000
0001
0000
,
1000
0000
0010
0000
,
1000
0000
0100
0000
,
0010
0000
0010
0000
,
0001
0000
0001
0000
,
0100
0000
0001
0000
,
0010
0000
0001
0000
,
1000
0000
0010
0000
,
1000
0000
0100
0000
,
1000
0000
0010
0000
,
0100
0000
0001
0000
,
0100
0000
0000
0000
;

//---------------dance-single - ----------------
#NOTES:
     dance-single:
     :
     Easy:
     6:
     :
0000
0000
0000
0000
,
0000
0000
0000
0000
,
0000
0000
0000
0000
,
0000
0000
0000
0000
,
0020
0000
0000
1030
,
1000
0001
0100
0001
,
0002
0000
0000
0013
,
0010
0001
1000
0100
,
1000
0010
1000
0010
,
0100
0001
0100
0001
,
0010
0100
2000
0000
,
3001
0200
0000
0310
,
2020
3030
0202
0303
,
0022
0033
2200
3300
,
0001
0010
0001
1000
,
2000
0000
0000
3000
,
0010
1000
0100
0100
,
0020
0000
0001
0031
,
1000
0100
1000
0100
,
0010
0001
0010
0001
,
1000
0001
0100
0010
,
1000
0100
0010
0001
,
0022
0033
2200
3300
,
0202
0303
2020
3030
,
2002
3003
0220
0330
,
1000
0001
0010
0100
,
2000
3000
0020
0030
,
0200
0300
0002
0003
,
0020
0030
0002
0003
,
2000
3000
0200
0300
,
1000
0010
1000
0001
,
0010
0100
1000
0001
,
0010
0100
0010
0100
,
1000
0001
1000
0001
,
0200
0300
0020
0030
,
1000
0100
0010
0001
,
2000
3000
0020
0030
,
2000
3000
0002
0003
,
0020
0030
0002
0003
,
0200
0300
2000
3000
,
0001
0010
0001
0100
,
0010
1000
0001
1000
,
0010
0010
0100
0100
,
1000
0001
1000
0001
,
2000
0010
0002
3003
,
0100
0010
0100
0001
,
0010
1000
0020
0030
,
0200
0300
0002
0003
,
2000
3000
0200
0300
,
0020
0030
0002
0003
,
0100
0010
0100
0001
,
0010
0100
1000
0001
,
2000
0000
3020
0000
,
0230
0000
0302
0000
,
0203
0000
0000
0000
,
0000
0000
0000
0000
,
0000
0000
0000
0000
,
0000
0000
0000
0000
,
0300
0000
0000
0000
;

//---------------dance-single - ----------------
#NOTES:
     dance-single:
     :
     Medium:
     9:
     :
0000
0000
0000
0000
,
0000
0000
0000
0000
,
0000
0000
0000
0000
,
0000
0000
0000
0000
,
0020
0000
0000
1030
,
1000
0000
0001
0000
0100
0010
1000
0000
,
0002
0000
0000
0103
,
0200
0310
2000
3002
,
0013
0001
0200
0000
1000
0000
0301
0000
,
0010
0001
0010
0000
0100
1000
0100
0000
,
1000
0000
0001
0100
0020
0000
0030
0000
,
1000
0001
2000
0000
0100
0000
0001
0000
,
3002
0010
0203
1000
,
0320
1000
0000
2030
0002
0000
0003
0000
,
3020
1000
0100
1030
,
0001
0010
0100
0000
1000
0001
0100
0000
,
0002
0000
0010
0000
1003
0001
0100
0000
,
0010
1000
0100
0000
2000
0000
3002
0000
,
0013
0001
0200
0000
0301
1000
0100
0000
,
1000
0010
1000
0000
0001
0010
0001
0000
,
1000
0100
0010
0000
0001
0100
0010
0000
,
2000
0000
3002
0000
0013
0001
0100
0010
,
2000
0010
3002
0100
,
0023
0001
0000
0230
2000
0000
3000
0000
,
0310
0000
0001
0100
0002
0000
0003
1000
,
0001
0000
0100
0010
1000
0000
0100
0010
,
0002
0000
1003
0100
2000
0000
3000
0010
,
0100
0001
0100
0000
0220
0000
0330
1000
,
0002
0000
0003
0010
0200
0000
0300
1000
,
0020
0000
0030
0010
2000
0000
3000
0000
,
0001
1000
0100
0000
1000
0010
0100
0002
,
0010
0000
1000
0000
0013
0000
0001
1000
,
0002
0010
0023
0100
,
0230
1000
2300
0001
,
3001
0000
1000
0010
0200
0000
0300
0010
,
1000
0000
0100
1000
0001
0000
0010
0001
,
0200
0000
0300
0010
1000
0000
1000
0001
,
0010
0001
0100
0000
0202
0000
0303
1000
,
0020
0000
0030
0100
0002
0000
0003
0001
,
2000
0000
3000
0010
0200
0000
0300
0000
,
0010
1000
0100
0000
1000
0001
0100
0020
,
1000
0000
0001
0000
1030
0000
0010
0100
,
0002
0010
0023
0100
,
0230
1000
2300
0001
,
3001
0000
0100
0010
2000
0000
3000
0100
,
0010
0001
0100
0000
0010
1000
0100
1000
,
0001
0000
0010
0001
2000
0000
3000
0100
,
0020
0000
0030
0000
2200
0000
3300
0010
,
2000
0000
3000
0100
0020
0000
0030
0010
,
0002
0000
0003
1000
0200
0000
0300
0000
,
2000
0000
3020
0000
1030
0100
0010
0002
,
0100
0000
0010
0000
0103
0000
0001
1000
,
0002
0010
0023
0100
,
0230
1000
2300
0001
,
3200
0000
0000
0000
,
0000
0000
0000
0000
,
0000
0000
0000
0000
,
0000
0000
0000
0000
,
0300
0000
0000
0000
;

//---------------dance-single - ----------------
#NOTES:
     dance-single:
     :
     Hard:
     11:
     :
0000
0000
0000
0000
,
0000
0000
0000
0000
,
0000
0000
0000
0000
,
0000
0000
0000
0000
,
0020
0000
0000
1030
,
1000
0100
0001
0100
0001
0100
1000
0000
,
0020
0100
0100
0031
,
0001
0010
1000
0000
1000
0001
0100
0000
,
0001
0010
0100
0000
0010
0100
1000
0000
,
0010
1000
0100
1000
0010
1000
0100
0000
,
1000
0001
0010
0000
0001
1000
0010
0000
,
1000
0100
0001
0100
1000
0100
0001
0100
,
0010
0001
0100
0000
1010
0001
0100
0000
,
0101
1000
0010
1000
0100
0010
0001
0000
,
1000
0001
0100
0000
0100
0001
0010
0000
,
0001
0100
0010
0100
0010
0100
0010
1000
,
0100
0010
0001
0000
0001
1000
0010
1000
,
0100
0010
0100
0010
0100
1000
0001
0100
,
0001
0010
1000
0000
0100
1000
0001
0000
,
0010
0001
0010
1000
0010
0001
0010
1000
,
0010
0100
1000
0001
1000
0100
0010
0000
,
0011
0100
0010
0100
0010
1000
0001
1000
,
0100
0010
0001
0000
1100
0010
1000
0000
,
0110
0001
0010
0001
1000
0100
0010
0000
,
2002
0000
3003
0001
0200
0000
0300
0010
,
1000
0100
0001
0100
1000
0010
0001
0010
,
2000
0000
3001
0100
0020
0000
1030
0001
,
0200
0000
0000
0000
0310
0000
0000
0000
0220
0000
0000
0000
0330
0000
0001
1000
,
0002
0000
0000
0000
0003
0000
0010
0001
0020
0000
0000
0000
0030
0000
0100
1000
,
0200
0000
0000
0000
0300
0000
1000
0001
2000
0000
0000
0000
3000
0000
0000
0000
,
1010
0010
1000
0010
0100
0001
0100
0001
,
0010
0100
0010
0100
0020
0000
0031
1000
,
0020
2030
3200
0320
,
0032
2003
3002
0203
,
0320
0000
1030
0100
2000
0000
3100
0010
,
0001
0100
0010
0100
0001
0010
1000
0010
,
0200
0000
1300
0001
2000
0000
3010
0100
,
0102
0000
0000
0000
1003
0000
0000
0000
2200
0000
0000
0000
3300
0000
0001
0100
,
0002
0000
0000
0000
0003
0000
1000
0010
2000
0000
0000
0000
3000
0000
0010
0100
,
0020
0000
0030
1000
0002
0000
0203
0000
,
0301
0010
1000
0010
0100
0001
0100
1000
,
0010
0100
0001
0000
0012
0000
1003
0001
,
0200
0320
2030
3002
,
2003
3200
0320
0032
,
1003
0010
0100
0001
0020
0000
0030
0100
,
1000
0001
1000
0001
0100
0010
0100
0010
,
1000
0100
0010
0001
0200
0000
0310
1000
,
0002
0000
0000
0000
0103
0000
0000
0000
2002
0000
0000
0000
3003
0000
1000
0010
,
2000
0000
0000
0000
3000
0000
0001
0010
0002
0000
0000
0000
0003
0000
0100
0001
,
0200
0000
0000
0000
0300
0000
0010
1000
0020
0000
0000
0000
0030
0000
0000
0000
,
1000
0001
1000
0010
0100
1000
0100
0001
,
0010
0001
0100
0001
2000
0000
3100
1000
,
0200
0320
0230
2300
,
3002
0023
0032
2003
,
3200
0000
0000
0000
,
0000
0000
0000
0000
,
0000
0000
0000
0000
,
0000
0000
0000
0000
,
0300
0000
0000
0000
;
