#TITLE:Paradise by the Dashboard Light;
#ARTIST:Meat Loaf;
#BANNER:Paradise by the Dashboard Light-bn.png;
#BACKGROUND:Paradise by the Dashboard Light-bg.png;
#JACKET:Paradise by the Dashboard Light-jacket.png;
#MUSIC:Paradise By the Dashboard Light.ogg;
#OFFSET:0.5;
#SAMPLESTART:70.982;
#SAMPLELENGTH:20;
#DISPLAYBPM:159:178;
#BPMS:0=171,12=175,24=173,36=172,44=169,60=171.5,64=169.5,68=169,72=166,76=167,84=173.4,88=171,92=174.444,96=173.2,98=172.25,106=175,110=178,116=174.3,124=175,132=173,136=174,140=171,148=169.4,164=165,168=160,174=159,176=167,180=161.2,182=170,186=162.333,188=164.5,194=161,204=171,212=168,216=170,218=173.35,248=176,252=170.1,256=170,260=169,276=168,296=170,300=171,308=173,324=167;
#BGCHANGES:;

//---------------dance-single - ----------------
#NOTES:
     dance-single:
     :
     Beginner:
     5:
     :
0000
0000
0000
0000
,
0000
0000
0000
0000
,
0000
0000
0000
0000
,
0001
0000
0001
0000
,
1000
0000
1000
0000
,
0010
0000
0010
0000
,
0100
0000
0100
0000
,
0001
0001
0001
0000
,
1000
0000
0010
0000
,
1000
1000
0000
0000
,
0000
0000
0000
0000
,
0010
0010
0010
0000
,
0100
0100
0100
0000
,
0001
0000
0000
0000
,
0000
0000
0000
1000
,
1000
0000
0110
0000
,
0100
0100
0100
0000
,
0010
0010
0000
0000
,
0000
0000
0000
1000
,
1000
0000
1001
0000
,
0010
0010
0010
0010
,
0010
0000
1000
0000
,
0001
0000
0100
0000
,
0001
0000
1000
0000
,
0010
0000
1001
0000
,
0100
0000
0010
0000
,
1000
0000
0100
0000
,
1000
0000
0010
0000
,
0110
0000
0001
0000
,
1000
0000
0100
0000
,
1000
0000
0001
0000
,
1000
0000
0001
0000
,
0100
0000
0010
0000
,
0100
0000
0010
0000
,
1001
0000
0000
0010
,
0010
0000
0000
0100
,
0100
0000
0000
0001
,
0002
0000
0003
0000
,
2000
0000
3000
0000
,
0220
0000
0000
0000
,
0330
0000
1000
1000
,
1000
0000
0010
0000
,
0100
0000
0001
0000
,
0010
0000
0010
0000
,
0010
0000
0000
0000
,
0000
0000
0001
0001
,
0001
0000
0100
0000
,
0010
0000
1000
0000
,
0100
0000
0100
0000
,
0100
0000
0000
0000
,
0000
0000
0000
0000
,
1000
1000
1000
0000
,
0010
0000
0100
0000
,
0001
0001
0001
0000
,
1000
0000
0001
0000
,
0010
0010
0010
0000
,
0100
0100
0100
0000
,
1000
0001
1000
0001
,
1000
0100
0100
0000
,
1000
0001
1000
0001
,
1000
0000
0000
0000
,
0010
0010
0010
0010
,
0010
1000
0100
0000
,
1000
0001
1000
0001
,
1000
0010
0010
0000
,
1000
0010
0100
0010
,
1000
0000
0001
0000
,
0010
0010
0010
0000
,
0100
0100
0100
0000
,
1000
0010
1000
0001
,
0100
0000
0000
0000
,
0110
0000
0010
0000
,
1001
0000
0010
0000
,
1000
1000
1000
1000
,
0001
0001
0001
0000
,
1000
0001
1000
0001
,
1000
0010
0100
0000
,
0110
0000
1001
0000
,
0110
0000
0010
0010
,
1000
0001
1000
0001
,
1000
0000
0100
0100
,
1000
0000
0010
0000
,
0100
0000
0001
0000
,
2002
0000
0000
0000
,
0000
0000
0000
3003
;

//---------------dance-single - ----------------
#NOTES:
     dance-single:
     :
     Easy:
     7:
     :
0000
0000
0000
0000
,
0000
0000
0000
0000
,
0000
0000
0000
0000
,
0001
0100
0010
1000
,
0100
2000
3000
0001
,
1000
0010
1000
0001
,
0100
0020
0030
1000
,
0001
0001
0100
0010
,
1000
0100
1000
0001
,
1001
0200
0300
0020
,
0030
2000
3000
0001
,
0010
0001
0100
0100
,
0010
1000
0001
0100
,
0010
2000
3000
0200
,
0300
2000
3000
0001
,
0100
0010
2000
3000
,
0110
0001
0100
0010
,
1000
0100
1000
0002
,
0003
0020
0030
0001
,
0100
0010
1000
0100
,
1000
0001
0100
0010
,
1000
1100
0202
0303
,
0001
1000
0010
0100
,
0001
0010
1000
0100
,
1000
0000
0000
0000
0000
1010
0000
0000
0000
0001
0000
0000
,
0100
0010
1000
0100
,
1000
0001
1000
0010
,
0100
0000
0000
0001
0000
0000
0010
0000
0000
0000
0000
0011
,
0000
1000
0010
1000
,
0100
0010
0001
1000
,
0020
1030
2000
3100
,
0200
0301
0002
0013
,
0020
0031
0002
0103
,
0200
1300
2000
3010
,
1001
0010
1000
0100
,
0110
0001
0100
0010
,
1010
0001
1000
0100
,
2200
0000
0000
3300
,
0022
0000
0000
0033
,
0202
0000
0000
0303
,
0020
0030
1000
0001
,
0200
0000
0310
2000
,
0000
3100
1000
0001
,
0022
0033
2200
3300
,
0220
0300
0001
0100
,
0031
0010
0001
0001
,
0200
0000
0310
1000
,
0002
0000
1003
0010
,
2020
3030
0202
0303
,
2002
0000
0000
0000
,
0000
3003
0000
1000
,
0010
0100
0001
0000
,
0010
0100
1000
0001
,
0100
0100
0010
0010
,
1000
0100
1000
0001
,
0010
0001
0010
0100
,
1000
0010
1000
0001
,
0101
0101
1100
1100
,
0001
0110
1001
0100
,
0101
0101
1100
1100
,
0010
1000
0100
0001
,
2000
3020
0230
0302
,
2003
0010
0100
3010
,
1010
1010
0011
0011
,
0100
0001
0001
1000
,
0001
0010
1000
0100
,
1000
0010
0100
0001
,
0010
0001
0010
0100
,
1000
0010
1000
0001
,
0100
0010
1000
0100
,
2000
0000
0000
3001
,
0011
0001
0100
0010
,
1010
1000
0100
0000
,
1000
0010
1000
0100
,
0001
0001
0001
0001
,
0011
0011
1100
1100
,
0001
0100
0010
1000
,
1001
0100
1001
0100
,
1001
0010
0100
0010
,
1010
1010
0101
0101
,
1000
0100
1000
0001
,
0022
0033
2200
3300
,
0202
0303
2020
3030
,
2002
0000
0000
0000
,
0000
0000
0000
3003
;

//---------------dance-single - ----------------
#NOTES:
     dance-single:
     :
     Medium:
     11:
     :
0000
0000
0000
0000
,
0000
0000
0000
0000
,
0000
0000
0000
0000
,
0001
0000
0000
1000
0000
0000
0010
0000
0010
1000
0000
0002
,
0000
0000
0000
0103
0000
0000
0001
0000
0010
0001
0000
1000
,
0001
0000
0000
0100
0000
0000
0010
0000
1000
0010
0000
2000
,
0000
0000
0000
3100
0000
0000
1000
0000
0010
1000
0000
0001
,
0100
0000
0000
0010
0000
0000
1000
0000
0001
0000
0000
0011
,
0000
0000
0001
0100
0000
0100
0010
0000
0010
1000
0000
0000
,
2001
0000
0000
3100
0000
0020
0000
0000
0000
0031
0000
0200
,
0000
0000
0000
0310
0000
2000
0000
0000
0000
3100
0000
0020
,
0000
0000
0031
0010
0000
0001
0010
0000
0000
1100
0000
0000
,
1000
0000
0010
0100
0000
0010
2000
0000
0000
3001
0000
0200
,
0000
0000
0000
0310
0000
2000
0000
0000
0000
3100
0000
0020
,
0000
0000
0000
0031
0000
0200
0000
0000
0310
0100
0000
0002
,
0000
0000
1003
0001
0000
1000
0002
0000
0000
0003
0000
0110
,
0000
0000
0010
1000
0000
0000
0100
0000
0000
1000
0000
0002
,
0000
0000
0013
0001
0000
0200
0000
0000
0000
0310
0000
0200
,
0000
0000
0000
0301
0000
2000
0000
0000
3100
1000
0000
0001
,
1000
0000
0010
0000
0000
2020
0000
0030
0000
3001
0000
0100
,
0001
0000
0000
1000
0000
0000
0010
0000
0100
0000
0000
0202
,
0000
0300
0000
1000
0000
0000
1003
0000
0100
1000
0000
0000
,
0001
0000
0001
0100
0000
0100
0010
0000
0010
1000
0000
1000
,
0100
0000
1000
0001
0000
0100
0000
0000
0202
0000
0003
0000
,
0301
0000
1000
0000
0000
2200
0000
0300
0000
3010
0000
0000
,
1000
0000
0001
0100
0000
0000
0110
0000
0000
0000
0000
1001
,
0000
0000
1000
0100
0000
0000
1000
0000
0010
0000
0000
1010
,
0000
0000
0100
0001
0000
0000
0010
0000
0001
0000
0000
0022
,
0000
0030
0000
0103
0000
0000
0010
0000
0010
1000
0000
1000
,
0001
0000
1000
0001
0000
0100
0000
0000
0010
1000
0000
0001
,
0100
0000
0100
0010
0000
0000
1000
0000
1000
0001
0000
0000
,
1000
0000
1000
0100
0000
0000
0010
0000
0010
0001
0000
0000
,
1000
0000
1000
0010
0000
0000
0100
0000
0100
0001
0000
0000
,
1000
0000
0001
2000
0000
0020
0000
3000
0000
0130
0000
0001
,
0000
0000
0000
1001
0000
0000
0010
0000
1000
0001
0000
0000
,
0110
0000
0000
0001
0000
0000
1000
0000
0100
1000
0000
0010
,
0000
0000
0000
0101
0000
0000
1000
0000
0001
0100
0000
0000
,
2010
0001
0100
3010
,
1200
0001
1000
0310
,
0012
0100
0010
1003
,
0002
0000
0200
0003
0000
0320
0000
0000
1030
0001
0000
0000
,
2100
0010
0001
3100
,
1020
0100
1000
0031
,
0120
0130
0201
0301
,
0012
1000
0100
0010
,
0100
0010
2003
3001
,
2002
0000
3000
0000
1003
0100
1000
0002
,
0000
0000
0100
0010
,
2000
3000
2000
3000
,
2000
0000
0000
0000
,
0000
0000
3003
0000
0000
1000
0001
1000
,
0001
0100
1000
0100
0001
0100
0000
1010
,
0000
0001
0100
1000
0000
0001
0100
1000
,
0010
1000
0100
0000
0010
0001
0100
0000
,
1002
0000
0103
0020
0000
0000
1030
0100
,
0001
0100
1000
0000
0010
1000
0100
0000
,
1000
0010
0000
0101
0000
0100
0001
1000
,
0001
0010
0001
0010
0001
0010
0000
0011
,
0000
0000
0110
0000
1100
0000
0001
1000
,
0001
0010
0001
0010
0001
0010
0000
0022
,
0000
0030
0000
0000
0000
0000
0100
0000
0000
0000
0000
0000
1000
0000
0000
0000
0000
0000
0103
0000
0000
0000
0000
0000
,
1000
0001
1000
0001
1000
0001
1000
0001
,
1000
1100
0101
1100
,
0010
1000
0010
1000
0010
1000
0000
2020
,
0000
0030
0000
0000
0000
0000
0001
0000
0000
3000
0000
0000
0001
0000
0000
0001
0000
0000
0000
0000
0000
1000
0000
0000
,
0100
0001
0010
0000
1001
0000
0100
0010
,
1000
0000
0100
0000
1000
0010
0100
0001
,
1000
0010
0001
0000
1000
0100
0001
0000
,
0010
0001
0010
0200
0000
1000
2300
0000
,
3010
0100
0010
0000
1000
0100
1000
0002
,
0000
0000
0103
0000
0010
1000
0001
0000
,
0010
0001
0000
0110
0000
0001
0100
0010
,
1000
0100
0000
0110
0000
0000
0000
0001
,
1000
0100
1000
0002
0000
1003
0100
0010
,
0001
0001
1000
1000
,
0010
1000
0010
1000
0010
1000
0000
1010
,
0000
1000
0100
1000
0001
0100
0000
0101
,
0000
0010
0000
1100
0000
0010
0000
0101
,
0000
0000
1000
0000
1000
0100
1000
0001
,
0100
0010
0100
0010
0100
0010
0000
0110
,
0000
2000
3020
0230
,
0302
0013
2000
3100
,
0020
1030
0200
0301
,
2002
0000
0000
0000
,
0000
0000
0000
3003
;

//---------------dance-single - ----------------
#NOTES:
     dance-single:
     :
     Hard:
     13:
     :
0000
0000
0000
0000
,
0000
0000
0000
0000
,
0000
0000
0000
0000
,
0001
0000
0100
0010
0000
1000
0100
0000
0010
1000
0000
0001
,
0000
0000
0010
0001
0000
0100
0010
0000
1000
0100
0000
0000
,
1000
0000
0010
0100
0000
0001
0010
0000
0100
0001
0000
1000
,
0000
0000
0100
0001
0000
0010
0001
0000
1000
0010
0000
0100
,
1000
0000
1000
0100
0000
0100
0010
0000
0010
0001
0000
0001
,
0000
0000
0100
0010
0000
0010
1000
0000
1000
0001
0000
0001
,
0020
0000
0000
0031
0000
0100
0000
0000
0100
0010
0000
1000
,
0000
0000
1000
0100
0000
1000
0000
0000
0001
0100
0000
0002
,
0000
0000
1003
0001
0000
0100
0010
0000
1000
0100
0000
0010
,
0001
0000
0001
1000
0000
1000
0010
0000
0010
0100
0000
0100
,
0010
0000
0001
1000
0000
1000
0001
0000
0010
0100
0000
0100
,
0000
0000
0100
0010
0000
0100
0001
0000
1000
0010
0000
1000
,
0100
0000
0100
1000
0000
1000
0001
0000
0010
0000
0000
2001
,
0000
0000
3001
0100
0000
0100
0010
0000
0010
1000
0000
0001
,
0000
0000
0001
0100
0000
0010
0000
0000
0010
1000
0000
0100
,
0000
0000
1000
0001
0000
0010
0000
0000
0010
0001
0000
1000
,
0001
0000
1000
0010
0000
0200
0000
0000
0301
1000
0000
0100
,
0001
0000
0001
0010
0000
0010
0100
0000
0100
1000
0000
1000
,
0100
0000
1000
0010
0000
0100
1000
0000
0010
0001
0000
0001
,
0000
0000
0001
0100
0000
0010
0100
0000
0010
1000
0000
0001
,
1000
0000
0010
0100
0000
0020
0000
0000
1030
0001
0000
0000
,
0001
0000
0010
0000
0000
0110
0000
0000
0100
0001
0000
0001
,
1000
0000
1000
0010
0000
0010
0000
0000
1000
0100
0000
0100
,
1000
0000
1000
0001
0000
0001
0100
0000
0010
0000
0000
2010
,
0000
0000
3001
1000
0000
1000
0010
0000
0100
0000
0000
0101
,
0000
0000
0010
0001
0000
0001
0100
0000
0100
0010
0000
1000
,
0000
0000
1000
0100
0000
0100
0010
0000
0010
0001
0000
0012
,
0000
0000
0103
0010
0000
0010
0100
0000
0100
0001
0000
0001
,
1000
0000
0100
0010
0000
0001
0000
0000
0100
0010
0000
1200
,
0000
0000
1300
0010
0000
0010
0100
0000
0100
0001
0000
0001
,
1000
0000
0010
0100
0000
0001
0000
0000
0001
0100
0000
0010
,
0100
0000
0000
0010
0000
0000
1000
0000
0001
0100
0000
0000
,
0110
0000
0000
0010
0000
0000
1000
0000
0001
1000
0000
0010
,
0100
0000
0000
0001
0000
0000
1000
0000
0100
0010
0000
0000
,
1001
0000
0000
0100
0000
0000
0010
0000
1000
0001
0000
0000
,
1100
0000
0000
1000
0000
0000
0010
0000
0100
0001
0000
0000
,
0101
0000
0000
0010
0000
0000
0001
0000
1000
0100
0000
0000
,
0011
0002
0000
2003
0000
3010
0200
0000
,
0320
1000
0100
0031
,
2000
0100
0010
3001
,
0002
1003
0020
0130
,
0200
1000
0010
1000
,
0010
0001
1000
0310
,
1010
0000
0000
0000
2000
0000
3002
0200
,
0000
0003
0302
2003
,
3020
0000
0230
0000
,
0320
0000
0000
0000
,
0000
0000
0030
0000
0000
1000
1000
1000
,
0001
0010
1000
0010
0001
0100
1000
0100
,
0001
0010
1000
0010
0100
1000
0100
0001
,
1000
1000
0001
0001
0100
0100
0010
0010
,
1000
0010
0100
0001
0000
0001
0100
1000
,
0010
1000
0010
0001
0100
1000
0100
0001
,
1000
0100
0010
1000
0000
0001
0001
0100
,
0010
0010
1000
1000
0001
0001
0100
0100
,
0010
0000
1100
0000
0101
0100
0001
1000
,
0001
0001
0010
0010
0100
0100
1000
1000
,
0020
0230
0302
2003
,
3100
0100
1000
1000
0001
0001
0010
0010
,
0001
0100
0110
0000
1010
0000
0011
0000
,
1000
0100
0001
0100
0001
0010
1000
0010
,
0001
0100
0010
1000
0100
0010
0001
0000
,
0010
0001
0010
1000
0100
1000
0100
0001
,
0010
0001
0100
0010
1000
0100
0001
0000
,
1000
1000
0100
0100
0010
0010
0001
0001
,
0010
0001
0100
1000
0010
0100
0001
0000
,
0100
0100
1000
1000
0010
0010
0001
0001
,
0100
0010
1000
0001
0010
0100
0001
1000
,
0001
0001
0100
0020
0000
1030
1000
0100
,
0010
0010
0001
2000
0000
3100
0100
1000
,
0001
1000
0010
0200
0000
0310
0100
1000
,
0001
0002
1003
1000
,
0100
0100
0010
0010
1000
1000
0001
0001
,
0010
0001
0001
0100
1000
1000
0010
0100
,
0001
0000
0001
0100
0010
0000
0010
1000
,
0100
0000
0100
0000
1000
0001
1000
0001
,
0010
0010
0001
0001
0100
0100
1000
1000
,
0010
0000
1000
0100
0010
0001
0100
0000
,
0002
1003
0020
0130
,
0200
0310
2000
3001
,
2002
0000
0000
0000
,
0000
0000
0000
3003
;
