#TITLE:パピポペピプペパ;
#ARTIST:P*Light;
#TITLETRANSLIT:Papipopepipupepa;
#BANNER:Papipopepipupepa-bn.png;
#BACKGROUND:Papipopepipupepa-bg.png;
#JACKET:Papipopepipupepa-jacket.png;
#MUSIC:Papipopepipupepa.ogg;
#SAMPLESTART:11.55;
#SAMPLELENGTH:20;
#DISPLAYBPM:187;
#BPMS:0=187;
#BGCHANGES:;

//---------------dance-single - ----------------
#NOTES:
     dance-single:
     :
     Beginner:
     3:
     :
0000
0000
0000
0000
,
0000
0000
0000
0000
,
0000
0000
0000
0000
,
0000
0000
0000
0000
,
0000
0000
0000
0000
,
0001
0000
0010
0000
,
0001
0000
0000
0000
,
0100
0000
0000
0000
,
0010
0010
0010
0000
,
0010
0000
1000
0000
,
0100
0000
0000
0000
,
1000
0000
0100
0000
,
0010
0000
0000
0000
,
0010
0000
0001
0000
,
0100
0000
0000
0000
,
0001
0000
0100
0000
,
0010
0000
0000
0000
,
0001
0001
0100
0000
,
0100
0000
0000
0000
,
0020
0000
0000
0000
,
0030
0000
0000
0000
,
1000
1000
0100
0000
,
0100
0000
0000
0000
,
0020
0000
0000
0000
,
0030
0000
0000
0000
,
0001
0000
0100
0000
,
0010
0000
0000
0000
,
0001
0000
0010
0000
,
1000
0000
0000
0000
,
1000
0000
0100
0000
,
0010
0000
0000
0000
,
1000
0000
0010
0000
,
0001
0000
0000
0000
,
0001
0001
0010
0000
,
0010
0001
0010
0000
,
1001
0000
0000
0000
,
0000
0000
0000
0000
,
1000
1000
0010
0000
,
0010
1000
0010
0000
,
1001
0000
0000
0000
,
0000
0000
0000
0000
,
0200
0000
0000
0000
,
0300
0000
0100
0100
,
0200
0000
0000
0000
,
0300
0000
0100
0000
,
0020
0000
0000
0000
,
0030
0000
0010
0010
,
0020
0000
0000
0000
,
0030
0000
0000
0000
,
0001
0000
0100
0000
,
0001
0100
0001
0000
,
0010
0000
0100
0000
,
0001
0000
0000
0000
,
1000
0000
0100
0000
,
1000
0100
1000
0000
,
0010
0000
0100
0000
,
1000
0000
0000
0000
,
2000
0000
0000
0000
,
3000
0000
1000
1000
,
2000
0000
0000
0000
,
3000
0000
0000
0000
,
0002
0000
0000
0000
,
0003
0000
0001
0001
,
0002
0000
0000
0000
,
0003
0000
0000
0000
,
0100
0001
0100
0000
,
0000
0000
0000
0000
,
0010
0001
0010
0000
,
0000
0000
0000
0000
,
1000
0010
1000
0000
,
0000
0000
0000
0000
,
0100
1000
0100
0000
,
0000
0000
0000
0000
,
1000
0000
0100
0000
,
1000
0010
0010
0000
,
0100
0000
0010
0000
,
1000
0000
0000
0000
,
0001
0000
0100
0000
,
0001
0010
0010
0000
,
0100
0000
0010
0000
,
0001
0000
0000
0000
,
0001
0001
0100
0000
,
1000
0000
0000
0000
,
1001
0000
0000
0000
,
0000
0000
0000
0000
,
1000
1000
0100
0000
,
0001
0000
0000
0000
,
1001
0000
0000
0000
,
0010
0000
0010
0000
,
2002
0000
0000
0000
,
0000
0000
0000
0000
,
0000
0000
0000
0000
,
0000
0000
0000
0000
,
3003
0000
0000
0000
,
0000
0000
0000
0000
;

//---------------dance-single - ----------------
#NOTES:
     dance-single:
     :
     Easy:
     6:
     :
0000
0000
0000
0000
,
0000
0000
0000
0000
,
0000
0000
0000
0000
,
0000
0000
0000
0000
,
0000
0000
0000
0000
,
0001
0000
0100
0000
,
0001
0010
0001
0000
,
1000
0000
0100
0000
,
1000
0001
1000
0001
,
1000
0000
1000
0000
,
0100
0100
0100
0000
,
0010
0000
0010
0000
,
0001
1000
0001
0000
,
0001
0000
0001
0000
,
0100
0100
0100
0000
,
0010
0000
1000
0000
,
0001
1000
0001
0000
,
1000
0100
0001
0000
,
0100
0000
1000
0000
,
0001
0100
1000
0000
,
0100
0000
0001
0000
,
1000
0010
0001
0000
,
0010
0000
1000
0000
,
0001
0010
1000
0000
,
0020
0000
0030
0000
,
0100
0000
0100
0000
,
1000
0010
0100
0000
,
0001
0000
0001
0000
,
0100
0010
1000
0000
,
1000
0000
1000
0000
,
0001
1000
0100
0000
,
0010
0000
0010
0000
,
0001
1000
0001
0000
,
1001
0000
0000
0000
,
0010
0100
0010
0000
,
1001
0000
0110
0000
,
1001
0000
0000
0000
,
1001
0000
0000
0000
,
0110
0000
0000
0000
,
1001
0000
0110
0000
,
2002
0000
3003
0000
,
0001
0000
0001
0000
,
0001
0001
0001
0000
,
1000
0000
1000
0000
,
1000
1000
1000
0000
,
0100
0000
0100
0000
,
0100
0100
0100
0000
,
0010
0000
0010
0010
,
0020
0000
0000
0030
,
0001
0100
0001
0100
,
0010
1000
0010
0000
,
1000
0100
1000
0100
,
0010
0001
0010
0000
,
0001
0100
0010
1000
,
0100
0010
0001
0000
,
1000
0100
0001
0100
,
1000
1000
1000
0000
,
0200
0000
0310
0000
,
0010
0100
0010
0000
,
0002
0000
1003
0000
,
1000
0001
1000
0000
,
0001
0010
0001
0010
,
1000
0010
0001
0001
,
1000
0010
0001
0010
,
2000
0000
0000
3000
,
0100
1000
0010
0100
,
0002
0000
0000
0003
,
0010
0001
0100
0010
,
2000
0000
0000
3000
,
0100
1000
0001
0010
,
0100
1000
0001
0010
,
0100
1000
0100
1000
,
0100
0100
0100
0000
,
1000
0010
0100
0010
,
1000
0001
0100
0001
,
1000
0100
0010
0001
,
0010
0100
1000
0000
,
0001
0100
0010
0100
,
0001
1000
0010
1000
,
0001
0010
0100
1000
,
0100
0010
0001
0000
,
1000
0100
1000
0100
,
0020
0000
0000
0030
,
0001
0100
0001
0100
,
0020
0000
0000
0030
,
1000
0100
0010
0010
,
0001
0100
0010
0010
,
1000
0100
0010
0001
,
1000
1000
1000
0000
,
2002
0000
0000
0000
,
0000
0000
0000
0000
,
0000
0000
0000
0000
,
0000
0000
0000
0000
,
3003
0000
0000
0000
,
0000
0000
0000
0000
;

//---------------dance-single - ----------------
#NOTES:
     dance-single:
     :
     Medium:
     11:
     :
0000
0000
0000
0000
,
0000
0000
0000
0000
,
0000
0000
0000
0000
,
0000
0000
0000
0000
,
0000
0000
0000
0000
,
0010
0000
1000
0100
0010
0000
0001
0100
,
0000
0010
1000
0000
0001
0100
0001
0000
,
1000
0100
0010
0000
0001
1000
0100
0000
,
1000
1000
2000
3000
,
0010
0000
1001
0000
0100
0001
1000
0000
,
0001
0010
0001
0000
1000
0010
1000
0000
,
0010
0000
1001
0000
0100
1000
0001
0000
,
1000
0010
0001
0010
2000
0000
3000
0000
,
0010
0000
1001
0000
0100
1000
0001
0000
,
1000
0010
1000
0000
0001
0010
0001
0000
,
0010
0000
1001
0000
0100
0001
1000
0000
,
0001
0010
1000
0010
0002
0000
0003
0000
,
1000
0100
1000
0100
0010
0000
0110
0000
,
0001
0100
0001
0000
1000
0100
0010
0000
,
0001
0010
0001
0000
0100
0000
0110
0000
,
1000
0010
0100
0001
0010
0100
1000
0000
,
0001
0010
0001
0000
0100
0000
0110
0000
,
1000
0010
1000
0000
0001
0010
0001
0000
,
0100
0010
1000
0000
0001
1000
0001
1000
,
0002
0000
0003
1001
,
1000
0000
0110
0000
0001
0100
0010
0000
,
1000
0010
0100
0000
0001
0010
0100
0000
,
1000
0000
0110
0000
1000
0100
0001
0000
,
0100
0010
0001
0000
0200
0000
0310
0000
,
1000
0000
0110
0000
1000
0100
0010
0000
,
0001
0010
0100
0000
1000
0010
0100
0000
,
0001
0000
0110
0000
0001
0100
1000
0000
,
0100
0010
2002
3003
,
1000
0100
0010
0100
1000
0001
0010
0000
,
0001
0100
0010
0100
0001
1000
0010
0000
,
0100
0001
0010
0100
1000
0010
0100
0000
,
0001
1001
1000
1001
,
0010
1000
0010
1000
0020
0000
0030
0000
,
0100
0001
0100
0001
0200
0000
0300
0000
,
0001
0010
0100
0000
1000
0100
0010
0001
,
0200
0000
0300
0000
,
1010
0011
1010
0011
,
1000
0010
0100
0001
1000
0010
0100
0000
,
1001
0000
0110
0000
0010
1000
0100
0000
,
0010
0001
1000
0010
0100
0000
0110
0000
,
0101
1100
0101
1100
,
0001
0100
0010
1000
0001
0100
0010
0000
,
1000
0100
0010
0000
0001
0100
0010
0000
,
1000
0001
1000
1001
,
0002
0000
0203
0000
0310
1000
0010
0000
,
1000
1000
0001
0001
,
2000
0000
3200
0000
0310
0001
0010
0000
,
0001
0001
1000
1000
,
0002
0000
0203
0000
0310
1000
0100
0000
,
2000
0000
3200
0000
0310
0001
0100
0000
,
0001
0010
0001
0010
0001
1000
0001
1000
,
0001
1000
2002
3003
,
2000
0010
3100
0000
,
0002
0010
0103
0000
,
0002
0010
2003
0010
,
3010
1000
0001
1001
,
1000
0000
0010
0000
0000
1000
0100
0000
,
0010
0000
0000
0000
0001
0000
0000
0100
0000
0000
0100
0000
0001
0000
0000
0000
,
1000
0010
0100
0000
0001
0010
0100
0000
,
2000
0000
3000
0000
,
0001
0001
0100
0000
,
0001
0000
0010
0000
0100
1000
0100
0000
,
1000
1000
0010
0000
,
1000
0000
0100
0000
0010
0001
0010
0000
,
0001
1000
0010
0100
,
0001
1000
0010
0100
,
0001
1000
0001
0000
0100
0010
0100
0010
,
1000
0001
1001
0000
,
1000
0000
0100
0000
1000
0100
1000
0000
,
0001
0000
0100
0000
0001
0100
0001
0000
,
1000
0000
0010
0000
1000
0010
1000
0000
,
0001
0010
0000
0001
0010
0000
0011
0000
,
0001
0000
1000
0000
0001
1000
0001
0000
,
0100
0000
0010
0000
0100
0010
0100
0000
,
0001
0000
0100
0000
0001
0100
0001
0000
,
1000
0010
0000
1000
0010
0000
1010
0000
,
1000
0000
0100
0000
0010
0001
0100
0000
,
0000
0010
0000
1000
0000
0010
0000
1000
,
0001
0000
0100
0000
0010
1000
0100
0000
,
0000
0010
0000
0001
0000
0010
0000
0001
,
1000
0000
0100
0000
0001
0100
1000
0000
,
0000
0001
0000
0100
0000
0010
0000
1000
,
0001
0010
0001
0000
1000
0010
1000
0000
,
0100
0100
0100
0000
,
2002
0000
0000
0000
,
0000
0000
0000
0000
,
0000
0000
0000
0000
,
0000
0000
0000
0000
,
3003
0000
0000
0000
,
0000
0000
0000
0000
;

//---------------dance-single - ----------------
#NOTES:
     dance-single:
     :
     Hard:
     15:
     :
0000
0000
0000
0000
,
0000
0000
0000
0000
,
0000
0000
0000
0000
,
0000
0000
0000
0000
,
0000
0000
0000
0000
,
0010
1000
0010
0000
0100
0001
0100
0000
,
0001
0010
1000
0001
0100
1000
0001
0000
,
1000
0000
0100
0000
0010
0000
0001
0000
0100
0010
0100
0000
0010
0100
0010
0000
,
1000
0001
1000
1001
,
0010
1000
1100
0000
0010
0001
0101
0000
,
0010
0100
0001
1000
0001
0100
0010
1000
,
0010
0100
0110
0000
0001
0010
0110
0000
,
1000
0100
0001
0100
2000
0000
3001
0000
,
0100
0001
0011
0000
0100
1000
1010
0000
,
0100
0010
1000
0010
0100
0001
0010
0001
,
0100
0010
0110
0000
1000
0100
0110
0000
,
0001
0010
1000
0010
0002
0000
1003
0000
,
0001
0000
0010
1000
0010
0000
0001
0000
1000
0000
0100
0010
0000
0001
1000
0000
,
0010
0000
0100
0001
1000
0000
0100
0000
0010
0100
1000
0000
0001
0000
0000
0000
,
1000
0000
1000
0000
0100
0000
0001
0000
0100
0000
0000
1000
0000
0000
1000
0000
,
0010
0000
0100
0010
0100
0000
0010
0000
0100
0000
0010
0000
1001
0000
0000
0000
,
1000
0000
0010
0001
0010
0000
1000
0000
0001
0000
0100
0010
0000
1000
0001
0000
,
0010
0000
0100
1000
0001
0000
0100
0000
0010
0100
0001
0000
1000
0000
0000
0000
,
0100
0000
0010
0000
0001
0000
1000
0000
0100
0010
0001
1000
0100
0010
0001
0000
,
0100
0000
0000
0000
0100
0000
0000
0000
0100
0001
0000
0001
1000
0000
0000
0000
,
1000
0100
0011
0000
0001
0100
1010
0000
,
0001
0100
1000
0100
0001
0100
0010
1000
,
0100
0010
0011
0000
0001
1000
1010
0000
,
0001
0000
0100
0001
1000
0000
0100
0000
0020
0000
0100
0000
0130
0000
0000
0000
,
0001
0010
1100
0000
1000
0010
0101
0000
,
1000
0010
0001
0010
1000
0010
0100
0001
,
0010
0100
1100
0000
1000
0001
0101
0000
,
1100
0011
2002
3003
,
1000
0100
1000
0000
0010
0000
1000
0001
0000
0010
0000
0100
1000
0000
0010
0000
,
0100
0001
0100
0000
0010
0000
0100
0001
0000
0010
0000
0100
0010
0000
0001
0000
,
1000
0100
0010
0000
0001
0000
0100
0010
0000
1000
0000
0001
0100
0000
0001
0000
,
1000
0010
0000
0010
1000
0000
0001
0010
0000
0010
0001
0000
1001
0000
0000
0000
,
1000
0010
1000
0000
0100
0000
0010
0001
0020
0000
0000
0000
0030
0000
0000
0000
,
0001
0100
0001
0000
0010
0000
0100
1000
0200
0000
0000
0000
0300
0000
0000
0000
,
1000
0000
0010
0000
0001
0000
0010
0000
1000
0100
1000
0100
0010
0001
0010
0001
,
0020
0000
0030
0000
,
0011
0010
0011
0000
0011
0001
0011
0000
,
0011
0010
0011
0001
0011
0011
0011
0000
,
1100
1000
1100
0100
1100
1100
1100
0000
,
0001
0000
0100
0000
1000
0000
0100
0000
0001
0000
0100
0000
0010
1000
0010
0000
,
1000
0010
1010
0000
1010
1000
1010
0000
,
1010
0010
1010
1000
1010
1010
1010
0000
,
0101
0100
0101
0001
0101
0100
0101
0000
,
1000
0000
0000
0000
1000
0000
0000
0000
0010
1000
0000
1000
0001
0100
0001
0000
,
2000
0010
3002
0100
1003
0010
1010
0000
,
1000
0100
0010
0010
0001
1000
0001
1000
,
0002
0010
2003
0100
3001
0010
0011
0000
,
0001
0010
0100
0100
1000
0010
1001
0000
,
0200
0001
0320
1000
0130
0001
0101
0000
,
0020
1000
0230
0001
0310
1000
1010
0000
,
1000
0100
1000
0000
0001
0100
0001
0000
1000
0001
1000
0001
1000
0001
1000
0000
,
0010
0010
0020
0030
,
1000
0000
0000
0100
0000
0000
1000
0000
0010
0000
0000
0100
0000
0000
0010
0000
,
0100
0000
0000
0001
0000
0000
0100
0000
0001
0000
0000
0010
0000
0000
0001
0000
,
1000
0000
0000
0100
0000
0000
1000
0000
0001
0000
0000
0100
0000
0000
0001
0000
,
1000
0000
0000
0010
0000
0000
1000
0000
0001
0000
0010
0000
0001
0000
0000
0000
,
1000
0100
0010
0000
0000
0001
1000
0000
,
0001
0000
0100
0000
0010
0000
0000
0010
0000
0000
1000
0000
0001
0000
0000
0000
,
1000
0010
0100
0001
1000
0010
0100
0002
,
2000
0000
0000
3003
,
1000
0000
0010
0000
1000
0010
1000
0000
,
0001
0100
0001
0100
0001
0100
0001
0000
,
0010
0000
0001
0000
0010
0001
0010
0000
,
0100
1000
0100
1000
0100
1000
0100
0000
,
1000
0000
0010
0100
0010
0000
1000
0000
0001
0000
0100
0000
0001
0000
0000
0000
,
0001
0000
0010
0100
0010
0000
0001
0000
1000
0000
0100
0000
1000
0000
0000
0000
,
0001
0000
0000
0000
0101
0000
0000
0000
0001
0010
0100
1000
0001
0010
0100
1000
,
0001
0001
0002
0003
,
1000
0000
0010
0000
0100
0000
0010
0000
1000
0100
0000
0010
0100
0000
0010
0000
,
0001
0000
1000
0000
0001
0000
0100
0000
0001
0010
0000
0100
0010
0000
0001
0000
,
1000
0010
0001
0010
1000
0100
0001
0100
,
1000
0100
0000
1000
0000
0000
0001
0010
0000
0001
0000
0000
1000
0100
0010
0000
,
0001
0000
0100
0000
0010
0000
1000
0000
0001
0010
0000
0100
1000
0000
0001
0000
,
1000
0000
0100
0000
0010
0000
0001
0000
0100
0010
0000
1000
0001
0000
1000
0000
,
0001
0010
1000
0010
0001
0100
1000
0100
,
0001
0100
0000
0001
0000
0000
1000
0010
0000
1000
0000
0000
1001
0000
0000
0000
,
0001
0010
0001
0000
0100
0000
0001
1000
0000
0100
0000
0010
0001
0000
0100
0000
,
0010
1000
0010
0000
0100
0000
0010
1000
0000
0100
0000
0010
0100
0000
1000
0000
,
0001
0010
0100
0000
1000
0000
0010
0100
0000
0001
0000
1000
0010
0000
1000
0000
,
0001
0100
0000
0100
0001
0000
1000
0100
0000
0100
1000
0000
1001
0000
0000
0000
,
0010
1000
0001
0000
0100
0000
0001
0010
0000
0100
0000
1000
0001
0000
1000
0000
,
0010
0100
0001
0000
1000
0000
0001
0010
0000
0001
0000
1000
0100
0000
0010
0000
,
0001
0000
0010
0000
0100
0000
1000
0000
0010
0100
0010
0100
0001
1000
0001
1000
,
0010
0010
0010
0000
,
2002
0000
0000
0000
,
0000
0000
0000
0000
,
0000
0000
0000
0000
,
0000
0000
0000
0000
,
3003
0000
0000
0000
,
0000
0000
0000
0000
;

//---------------dance-single - ----------------
#NOTES:
     dance-single:
     :
     Challenge:
     19:
     :
0000
0000
0000
0000
,
0000
0000
0000
0000
,
0000
0000
0000
0000
,
0000
0000
0000
0000
,
0000
0000
0000
0000
,
0001
0100
1000
0000
0010
0000
0100
0000
0001
0010
1000
0000
0100
0000
0010
0000
,
0001
0100
0010
0000
1000
0100
0010
0000
0001
0100
1000
0000
0001
0010
1000
0000
,
0100
0000
1000
0100
1000
0000
0010
0100
0010
0000
0001
1000
0001
0000
0010
0001
,
1000
0001
1000
0001
1000
0001
1000
0001
1000
0000
0000
0000
0110
0000
0000
0000
,
1001
0000
0100
0010
1000
0000
0001
0100
0010
0000
1010
0000
0101
0000
0010
0001
,
1000
0000
0010
0001
1000
0000
0010
0001
1000
0000
0010
0001
1000
0000
0100
0000
,
1001
0000
0100
0001
0010
0000
0001
1000
0100
0000
1100
0000
0011
0000
0100
0000
,
1010
0000
0110
0000
0101
0000
0110
0000
1010
0000
1000
0100
0010
0001
0100
0000
,
0110
0000
0001
0010
1000
0000
0100
0010
0001
0000
0101
0000
1100
0000
0010
0001
,
1000
0000
0010
0001
1000
0000
0010
0001
1000
0000
0010
0001
1000
0000
0100
0000
,
0110
0000
1000
0010
0100
0000
0001
0010
1000
0000
1010
0000
0011
0000
0100
0001
,
1000
0000
0100
0001
1000
0000
0110
0000
1001
0000
0010
1000
0100
0010
0001
0000
,
0100
0000
0001
0010
0001
0000
1000
0010
1000
0100
0010
0001
0000
0100
1000
0000
,
0010
1000
0100
1000
0001
0000
0001
0000
0001
0010
0100
1000
0010
0000
0010
0000
,
0100
0000
0001
0010
0001
0000
1000
0010
1000
0100
0010
0001
0000
0100
1000
0000
,
1001
0000
0010
1000
0100
0000
0001
0000
0011
0000
0101
0000
1010
0000
1100
0000
,
0110
0000
0001
0010
0100
0000
1000
0010
0100
0001
1000
0001
0000
1000
0100
0000
,
0110
0000
0010
0001
1000
0000
0010
1000
0100
0010
0001
0000
1000
0100
0001
0000
,
0110
0000
1000
0100
0010
0000
0001
0100
0010
1000
0100
0010
0001
1000
0001
0000
,
0010
0001
0100
1000
0010
0001
0100
1000
0010
0001
0100
1000
0010
0100
0000
0000
,
0011
0000
0100
0010
1000
0000
0001
0000
0101
0000
1100
0000
0101
0000
0000
0000
,
0010
0000
0001
0100
1000
0000
0001
0100
1000
0000
0010
0000
0001
0100
1000
0000
,
1100
0010
0100
0001
1001
0101
0011
1000
,
0110
0000
0001
0100
1000
0000
1010
0000
0101
0000
1000
0100
0010
0001
0100
0000
,
1001
0100
1010
0001
1100
0110
0011
1000
,
0101
0000
0010
0001
1000
0000
0010
1000
0001
0000
0110
0000
1001
0000
0110
0000
,
1001
0000
0010
1000
0001
0000
0010
0100
1000
0010
1000
0100
0010
0001
0100
0001
,
0010
0000
0000
0000
0011
0000
0000
0000
1100
0000
0001
0100
1000
0000
0000
0000
,
0010
1000
0001
1000
0010
0000
0100
0001
0000
0010
0000
0001
0100
1000
0100
0001
,
0010
0100
1000
0100
0010
0000
0001
1000
0000
0010
1000
0100
1000
0001
0010
0001
,
0100
0010
1000
0001
0100
0000
0010
1000
0001
0000
1000
0100
0010
0001
1000
0010
,
0100
0001
0010
1000
0010
0001
0100
0010
1000
0001
1000
0100
1000
0100
0001
0010
,
0100
0010
0001
1000
0010
0000
0100
0001
1000
0010
1000
0010
1000
0010
1000
0000
,
0001
0100
0010
0100
0001
0000
1000
0100
0010
0001
0010
0001
0010
0001
0010
0001
,
0100
0001
1000
0000
0100
0001
1000
0000
0100
0001
1000
0100
0001
1000
0100
0001
,
2000
0000
0002
0000
0000
0000
3003
0000
1001
0000
0000
0000
0100
0010
0100
0010
,
1000
0100
0001
0001
1000
0100
0001
0001
,
0110
0000
0110
0000
0001
1000
0001
0000
0001
0100
0001
0000
0001
0010
0001
0000
,
1001
0000
0010
0000
1000
0001
0100
0000
1010
0000
0101
0000
1010
0000
0101
0000
,
0011
0000
1100
0000
0001
0100
1000
0100
0001
0010
1000
0010
0001
0000
1000
0100
,
0001
0100
1000
0000
0010
0000
0010
0000
1000
0100
0001
0000
0010
0000
0010
0000
,
0110
0000
0110
0000
1000
0001
1000
0000
1000
0010
1000
0000
1000
0100
1000
0000
,
0110
0000
0001
0010
1000
0000
0001
0100
0010
1000
0100
0010
0001
1000
0001
0100
,
0010
0000
1000
0100
0010
0000
0001
0100
0010
0000
1000
0001
0100
0001
1000
0000
,
0101
0010
1100
0010
1001
1010
0101
0010
,
0110
0000
0110
0000
0001
0010
0001
0000
1000
0010
1000
0000
0100
0010
0100
0000
,
1100
0001
0011
1000
0101
0110
1010
0100
,
1001
0000
1001
0000
0010
1000
0100
0010
0001
0000
0110
0000
1001
0000
0100
0000
,
0001
0000
0010
0100
1000
0000
0010
1000
0100
0000
1000
0001
0010
0000
0000
0000
,
1100
0000
0101
0000
1000
0100
0010
0100
1000
0010
0100
0010
1000
0100
0010
0100
,
1000
0001
0010
0100
0001
0100
0001
0010
1000
0010
1000
0100
0010
0100
1000
0001
,
0100
0000
0000
0000
0000
0000
0000
0000
0000
0000
0000
0000
1001
0000
0000
0000
0000
0000
0000
0000
0000
0000
0000
0000
0110
0000
0000
0000
0000
0000
0001
0000
0000
1000
0000
0000
0001
0000
0000
0000
0010
0000
0000
0000
0100
0000
0000
0000
,
1000
0000
0010
0000
1000
0000
0001
0000
1000
0000
0100
0010
0000
0010
0001
0000
,
0100
0000
0001
0010
0001
0000
1000
0000
0010
0100
0010
1000
0100
1000
0001
0000
,
0010
0000
0001
0000
1000
0000
0001
0000
1000
0100
1000
0100
0000
0000
0010
0000
,
0010
0000
0001
0100
0001
0000
1000
0000
1100
0000
0110
0000
0011
0000
0000
0000
,
0100
0001
0100
0001
0100
0000
0010
0000
1000
0010
0100
0001
0000
1000
0010
0000
,
0100
0001
0010
0100
1000
0000
0001
0000
0010
0001
0010
0100
1000
0001
0100
0000
,
0010
0000
1000
0100
0010
0000
0001
0100
0001
0010
0100
1000
0000
1000
0001
0000
,
0200
0000
0020
0000
0000
0000
0330
0000
1001
0000
0000
0000
1000
0001
1000
0001
,
0200
0000
0320
0000
2030
3002
2003
0000
,
3001
0001
0010
0010
0100
0100
1000
1000
,
0002
1003
0200
0301
0020
2030
3020
0130
,
0010
0001
0100
1000
0010
0001
0100
1000
0010
0001
0100
1000
0010
0000
0100
0000
,
1001
0000
1000
0100
1000
0000
0001
0100
0001
0000
0010
0100
0010
0000
0100
0000
,
1001
0000
0001
0010
0001
0000
1000
0010
1000
0000
0100
0010
0100
0000
0010
0000
,
0001
0100
1000
0010
1000
0100
1000
0100
0010
1000
0010
0001
0010
0001
0100
0001
,
1000
0000
0000
0000
1100
0000
0000
0000
0101
0000
0010
0001
0100
0000
0000
0000
,
0010
1000
0001
1000
0100
0000
0010
0001
0000
1000
0000
0100
0010
0100
1000
0001
,
0010
0001
0100
0001
1000
0000
0010
0100
0000
0010
1000
0100
1000
0010
0100
0001
,
1000
0100
0001
0100
1000
0000
0010
0100
0001
0010
1000
0010
0001
0100
1000
0100
,
0001
0100
0010
1000
0010
0100
0010
0001
1000
0001
0100
1000
0100
0001
0010
1000
,
0100
0010
0001
1000
0010
0000
0100
0001
0000
0010
0000
0001
1000
0010
1000
0100
,
0001
0100
0010
0100
1000
0000
0001
1000
0000
0010
0100
1000
0100
0001
0010
0100
,
1000
0010
0001
0010
1000
0000
0100
0010
1000
0010
0001
0010
1000
0010
0001
0100
,
0010
0001
0100
1000
0100
0010
1000
0001
1000
0010
0001
0010
0001
0100
1000
0100
,
0010
0001
0010
0100
1000
0000
0010
1000
0001
1000
0100
0010
0001
1000
0001
0100
,
0010
1000
0010
0100
0001
0000
0010
0100
0000
1000
0100
1000
0010
1000
0001
1000
,
0010
1000
0100
0010
0001
0000
0100
0010
1000
0001
0010
0001
0100
0010
1000
0100
,
0010
0001
1000
0100
1000
0010
0100
0010
1000
0001
0100
0001
0010
0100
1000
0001
,
0100
0010
0100
0010
0100
0010
0100
0010
0100
0010
0100
0010
0100
0010
0100
0010
,
1000
0001
1000
0001
1000
0001
1000
0001
1000
0001
1000
0001
1000
0001
1000
0001
,
0010
1000
0001
0100
1000
0001
0100
0001
0010
0100
0010
1000
0010
0100
1000
0001
,
0010
0000
0000
0000
0000
0000
0000
0000
0000
0000
0000
0000
1001
0000
0000
0000
0000
0000
0000
0000
0000
0000
0000
0000
0110
0000
0000
0000
0000
0000
1000
0000
0000
0001
0000
0000
1000
0000
0000
0000
0100
0000
0000
0000
0010
0000
0000
0000
,
0002
1000
1000
1000
,
2003
0001
0001
0001
,
3001
0010
0100
0010
1000
1000
1000
0100
0100
0001
0100
1000
0010
0001
0010
0001
,
0100
1000
0100
0010
1000
0100
1000
0001
0010
0001
0010
0001
0100
0010
1000
0001
,
0100
0000
0000
0000
;

//---------------dance-double - ----------------
#NOTES:
     dance-double:
     :
     Easy:
     6:
     :
00000000
00000000
00000000
00000000
,
00000000
00000000
00000000
00000000
,
00000000
00000000
00000000
00000000
,
00000000
00000000
00000000
00000000
,
00000000
00000000
00000000
00000000
,
00000001
00000000
00000100
00000000
,
00000010
00000100
00000010
00000000
,
00001000
00000000
00000100
00000000
,
00010000
00001000
00010000
00000000
,
00001000
00000000
01000000
00000000
,
00010000
00010000
00010000
00000000
,
00100000
00000000
01000000
00000000
,
10000000
00010000
10000000
00000000
,
01000000
00000000
00100000
00000000
,
00001000
00001000
00001000
00000000
,
00010000
00000000
00000010
00000000
,
00001000
00000100
00001000
00000000
,
00000001
00000100
00000010
00000000
,
00001000
00000100
00000010
00000000
,
00000001
00000100
00001000
00000000
,
00010000
00000000
00011000
00000000
,
00001000
01000000
00010000
00000000
,
00100000
01000000
10000000
00000000
,
00100000
01000000
00010000
00000000
,
20000000
00000000
30000000
00000000
,
10000000
00000000
00010000
00000000
,
00100000
00001000
00010000
00000000
,
00000010
00000000
00000010
00000000
,
00001000
00000100
00000010
00000000
,
00000001
00000000
00001000
00000000
,
00000100
00010000
00001000
00000000
,
01000000
00000000
00010000
00000000
,
00100000
01000000
00100000
00000000
,
01100000
00000000
00000000
00000000
,
10000000
00100000
00010000
00000000
,
00001000
00000000
00010000
00000000
,
00011000
00000000
00000000
00000000
,
00000110
00000000
00000000
00000000
,
00001001
00000000
00000000
00000000
,
00000001
00000010
00001000
00010000
,
00002000
00000000
00003000
00000000
,
01000000
00000000
01000000
00000000
,
00100000
00100000
00100000
00000000
,
00010000
00000000
00010000
00000000
,
00001000
00001000
00001000
00000000
,
00000010
00000000
00000010
00000000
,
00000100
00000100
00000100
00000000
,
00010000
00000000
00001000
00010000
,
00002000
00000000
00000000
00003000
,
00010000
00001000
00010000
00001000
,
01000000
00010000
01000000
00000000
,
00100000
10000000
00100000
10000000
,
01000000
00100000
00010000
00000000
,
00100000
00001000
00010000
00010000
,
00000100
00001000
00000010
00000010
,
00001000
00000100
00000001
00000100
,
00001000
00000001
00001000
00000000
,
00000002
00000000
00001003
00000000
,
00000010
00000100
00000010
00000000
,
00020000
00000000
00031000
00000000
,
00010000
00001000
01000000
00000000
,
00010000
00100000
10000000
00000000
,
10000000
00100000
00010000
00000000
,
10000000
01000000
00010000
00001000
,
00020000
00000000
00000000
00030000
,
00001000
00000010
00000001
00000100
,
00002000
00000000
00000000
00000000
,
00013000
00100000
10000000
01000000
,
00020000
00000000
00000000
00000000
,
00031000
00000010
00001000
00000000
,
00010000
00100000
00010000
00000000
,
00001000
00000100
00000001
00000100
,
00001000
00010000
00011000
00000000
,
00001000
01000000
00010000
00100000
,
01000000
10000000
00100000
01000000
,
00010000
00100000
00001000
00010000
,
00001000
00000010
00001000
00000000
,
00010000
00000100
00001000
00000010
,
00000100
00000001
00000010
00000100
,
00001000
00000100
00000001
00000100
,
00010000
00001000
00010000
00000000
,
00001000
01000000
00010000
00100000
,
02000000
00000000
00000000
03000000
,
10000000
00010000
01000000
00001000
,
00020000
00000000
00000000
00030000
,
00001000
00010000
00000010
00000010
,
00000100
00000001
00001000
00001000
,
00000100
00010000
00001000
00100000
,
00010000
00010000
00010000
00000000
,
20020000
00000000
00000000
00000000
,
00000000
00000000
00000000
00000000
,
00000000
00000000
00000000
00000000
,
00000000
00000000
00000000
00000000
,
30030000
00000000
00000000
00000000
,
00000000
00000000
00000000
00000000
;

//---------------dance-double - ----------------
#NOTES:
     dance-double:
     :
     Medium:
     11:
     :
00000000
00000000
00000000
00000000
,
00000000
00000000
00000000
00000000
,
00000000
00000000
00000000
00000000
,
00000000
00000000
00000000
00000000
,
00000000
00000000
00000000
00000000
,
00000010
00000000
00000001
00000100
00000001
00000000
00001000
00000100
,
00000000
00010000
00001000
00000000
00010000
00000000
00011000
00000000
,
00010000
00001000
00100000
00010000
10000000
01000000
00100000
00010000
,
10000000
10000000
20000000
30000000
,
00010000
00000000
01000000
00000000
10000000
01000000
00010000
00000000
,
00100000
00001000
00010000
01000000
00010000
00001000
00100000
01000000
,
00010000
00000000
00001000
00000000
00000010
00000001
00000010
00000000
,
00000100
00001000
00000001
00000100
00000002
00000000
00000003
00000000
,
00001000
00000000
00000100
00000000
00000001
00000100
00001000
00000000
,
00000010
00010000
00001000
00000100
00001000
00010000
00000010
00000100
,
00001000
00000000
00010000
00000000
00100000
10000000
00100000
00000000
,
01000000
00010000
10000000
01000000
20000000
00000000
30000000
00000000
,
00100000
10000000
01000000
00100000
00010000
00000000
01100000
00000000
,
00100000
00001000
00100000
00000000
00001000
00010000
00001000
00000000
,
00000010
00000001
00001000
00000100
00000010
00000000
00000110
00000000
,
00000001
00000100
00000001
00000100
00001000
00010000
00001000
00000000
,
00000010
00000001
00000100
00000010
00001000
00000000
00000110
00000000
,
00000010
00010000
00000010
00000000
00010000
00001000
00010000
00000000
,
00100000
10000000
00100000
10000000
00001000
00010000
00001000
00010000
,
00002000
00000000
00000000
00003000
,
00010000
00000000
00001000
00000000
00000010
00000001
00000010
00000000
,
00001000
00010000
01000000
00000000
00100000
00001000
00010000
00000000
,
00001000
00000000
00000010
00000000
00000001
00000010
00001000
00000000
,
00010000
00001000
00000100
00001000
00020000
00000000
00030000
00000000
,
00001000
00000000
00010000
00000000
00100000
10000000
00100000
00000000
,
00010000
00001000
00000100
00000000
00000010
00010000
00001000
00000000
,
00010000
00000000
00100000
00000000
10000000
00100000
00010000
00000000
,
00001000
00010000
00022000
00033000
,
00001000
00010000
00000010
00001000
00000100
00000010
00000001
00000000
,
00000100
00000010
00001000
00000010
00000100
00001000
00010000
00000000
,
00001000
00100000
00010000
01000000
00100000
10000000
00100000
00000000
,
10000000
11000000
00010000
01010000
,
10000000
01000000
00010000
00000000
00022000
00000000
00033000
00000000
,
00010000
00001000
00000010
00000001
00002000
00000000
00003000
00000000
,
00000001
00000100
00000001
00000100
00000010
00001000
00000010
00010000
,
00002000
00000000
00003000
00000000
,
00100000
00010000
00100000
00000000
00010000
01000000
00010000
00000000
,
11000000
11000000
01010000
01010000
,
00100000
00001000
00100000
00000000
00001000
00010000
00001000
00000000
,
00010000
00001000
00010000
00001000
00000010
00000001
00001000
00000000
,
00000010
00000100
00000010
00000000
00010000
00001000
00010000
00000000
,
00001010
00001010
00001100
00001100
,
00000001
00000100
00001000
00000000
00010000
00100000
10000000
00000000
,
00100000
00100000
00200000
00300000
,
20000000
00000000
30020000
00000000
00130000
01000000
10000000
00000000
,
01000000
00100000
00001000
00000000
00010000
00000100
00001000
00000000
,
00000002
00000000
00002003
00000000
00003010
00000100
00000001
00000000
,
00000100
00000010
00000100
00001000
00010000
00001000
00010000
00000000
,
00002000
00000000
00203000
00000000
01300000
00010000
00001000
00000000
,
00020000
00000000
00030020
00000000
00000130
00001000
00010000
00000000
,
00100000
10000000
00100000
10000000
00010000
01000000
00010000
01000000
,
00001000
00010000
00022000
00033000
,
00002000
00000000
00000010
00000000
,
00023000
00100000
00100000
00000000
,
00032000
00000000
00000100
00000000
,
00023000
01000000
01000000
00000000
,
00031000
00000000
00000010
00000000
00000000
00000001
00001000
00000000
,
00000001
00000000
00000000
00000000
00000100
00000000
00000000
00000100
00000000
00000000
00000010
00000000
00000100
00000000
00000000
00000000
,
00000010
00010000
00001000
00000000
00100000
00010000
01000000
00000000
,
00200000
00000000
00300000
00000000
,
10000000
10000000
01000000
00000000
,
00000000
00011000
00000000
00000110
,
00000001
00000001
00000100
00000000
,
00000000
00011000
00000000
01100000
,
10000000
01000000
00010000
00001000
,
00000010
00001000
00010000
00100000
,
00010000
00000000
00001000
00000000
00000100
00000001
00000100
00000000
,
00000010
00000100
00000110
00000000
,
00000001
00000000
00001000
00000000
00000100
00000010
00000100
00000000
,
00010000
00000000
00001000
00000000
00100000
01000000
00100000
00000000
,
00010000
00000000
10000000
00000000
01000000
00010000
00001000
00000000
,
00000010
00000100
00000000
00000010
00000100
00000000
00000110
00000000
,
00000001
00000000
00001000
00000000
00000010
00000100
00000010
00000000
,
00010000
00000000
00001000
00000000
01000000
00100000
01000000
00000000
,
00010000
00000000
10000000
00000000
01000000
00010000
00001000
00000000
,
00010000
00001000
00000000
00010000
00001000
00000000
00011000
00000000
,
00010000
00000000
00000100
00000000
00001000
00000010
00000100
00000000
,
00000000
00000001
00000000
00000100
00000000
00001000
00000000
00010000
,
00100000
00000000
10000000
00000000
01000000
10000000
00100000
00000000
,
00000000
10000000
00000000
01000000
00000000
00010000
00000000
00001000
,
00000010
00000000
00000001
00000000
00000010
00000100
00001000
00000000
,
00000100
00000000
00010000
00000000
00001000
00100000
00010000
00000000
,
10000000
00000000
00100000
00000000
01000000
00100000
00010000
00000000
,
00001000
00001000
00001000
00000000
,
00022000
00000000
00000000
00000000
,
00000000
00000000
00000000
00000000
,
00000000
00000000
00000000
00000000
,
00000000
00000000
00000000
00000000
,
00033000
00000000
00000000
00000000
,
00000000
00000000
00000000
00000000
;

//---------------dance-double - ----------------
#NOTES:
     dance-double:
     :
     Hard:
     15:
     :
00000000
00000000
00000000
00000000
,
00000000
00000000
00000000
00000000
,
00000000
00000000
00000000
00000000
,
00000000
00000000
00000000
00000000
,
00000000
00000000
00000000
00000000
,
00001000
00000010
00001000
00000000
00000001
00000100
00000001
00000100
,
00000000
00000010
00001000
00000100
00010000
00001000
00010000
00000000
,
00001000
00100000
00010000
10000000
01000000
00010000
00001000
00000010
,
00000001
00000001
00000001
00001001
,
00001000
00000000
00000110
00000000
00000001
00000100
00001000
00000000
,
00010000
00001000
01000000
00010000
10000000
00100000
00010000
00001000
,
00010000
00000000
00011000
00000000
00000100
00001000
00000010
00000000
,
00000001
00000010
00001000
00000001
00000200
00000000
00000310
00000000
,
00001000
00000000
00000110
00000000
00000001
00000010
00001000
00000000
,
00010000
00001000
00100000
00010000
10000000
01000000
00010000
00001000
,
00010000
00000000
00011000
00000000
00000010
00001000
00000100
00000000
,
00000001
00000100
00001000
00000001
00000020
00000000
00000130
00000000
,
00001000
00000000
00000100
00000000
00000010
00000000
00000001
00000000
00000100
00000000
00000010
00000100
00000000
00000100
00000010
00000000
,
00000100
00001000
00010000
00100000
10000000
00100000
00010000
00001000
,
00010000
00000000
01000000
00000000
10000000
00000000
01000000
00000000
00010000
00000000
01000000
00100000
00000000
00100000
01000000
00000000
,
10000000
00000000
00100000
01000000
00100000
00000000
00010000
00000000
00100000
00000000
10000000
00000000
10010000
00000000
00000000
00000000
,
00010000
00000000
00100000
00000000
01000000
00000000
10000000
00000000
00100000
00000000
01000000
00100000
00000000
00100000
01000000
00000000
,
00100000
00010000
00001000
00000100
00000001
00000100
00001000
00010000
,
00001000
00000000
00000010
00000000
00000001
00000000
00000010
00000000
00001000
00000000
00000010
00000100
00000000
00000100
00000010
00000000
,
00000001
00000000
00000000
00000000
00000100
00000000
00000000
00000000
00001000
00010000
00000000
00010000
00001000
00000000
00000000
00000000
,
00010000
01000000
10000000
00000000
10000000
00100000
00010000
00000000
,
00001000
00010000
00000010
00000100
00001000
00010000
00000100
00000010
,
00000001
00000100
00001000
00000000
00001000
00000100
00000001
00000000
,
00000010
00001000
00010000
01000000
20000000
00010000
30010000
00000000
,
10000000
00100000
00010000
00000000
00010000
00100000
01000000
00000000
,
00001000
00010000
00000100
00000010
00001000
00010000
00000010
00000100
,
00000001
00000010
00001000
00000000
00001000
00000010
00000001
00000000
,
00000110
00010000
00022000
00033000
,
00001000
00010000
00001000
00000000
01000000
00000000
00010000
00100000
00000000
00010000
00000000
10000000
01000000
00000000
00100000
00000000
,
00010000
01000000
00010000
00000000
10000000
00000000
00100000
01000000
00000000
00100000
00010000
00000000
00001000
00010000
00001000
00000000
,
00010000
00000100
00010000
00000000
00001000
00000000
00000010
00000100
00000000
00000010
00000000
00000001
00001000
00000000
00000001
00000000
,
00000101
00001100
00011000
00110000
,
00100000
10000000
00100000
00000000
10000000
00000000
01000000
00100000
00020000
00000000
00000000
00000000
00030000
00000000
00000000
00000000
,
00100000
00001000
00100000
00000000
00001000
00000000
00010000
00000010
00002000
00000000
00000000
00000000
00003000
00000000
00000000
00000000
,
00000010
00000100
00000010
00000000
00010000
00001000
00010000
00000000
00001000
01000000
00001000
00000000
00100000
00010000
00100000
00010000
,
00200000
00000000
00300000
00000000
,
00010000
01000000
00100000
00100000
10000000
01000000
00100000
00100000
,
00001000
00001000
00010000
00010000
00000010
00001000
00001010
00000010
,
00000100
00000100
00000001
00000001
00001000
00001000
00010000
00010000
,
10000000
00000000
01000000
00000000
00010000
00000000
00001000
00000000
00010000
00001000
00010000
00001000
00010000
00000000
00000000
00000000
,
00001000
00000100
00000001
00000001
00000010
00000100
00001000
00001000
,
00000010
00000010
00010000
00010000
00001000
01000000
01010000
00010000
,
00110000
00100000
01000000
01000000
01000000
01000000
01000000
00000000
,
10000000
00000000
00000000
00000000
10000000
00000000
00000000
00000000
10000000
00100000
00000000
00100000
01000000
00010000
01000000
00000000
,
01010000
00000000
10100000
00000000
00100000
00010000
01000000
00000000
,
00100000
00000000
00010000
00000000
00001000
00000000
00000100
00000000
00000001
00001000
00000001
00001000
00000001
00000000
00000000
00000000
,
00000011
00000000
00001100
00000000
00000100
00000001
00000010
00000000
,
00000100
00010000
00001000
01000000
00010000
10000000
10010000
00000000
,
11000000
00000000
00110000
00000000
00100000
10000000
01000000
00000000
,
00010000
00001000
00010000
00100000
00010000
00001000
00000010
00000000
,
00000001
00000000
00000100
00000000
00001000
00000000
00000100
00000000
00000001
00000010
00000100
00001000
00000100
00010000
00001000
00100000
,
00010000
00010000
02000000
03000000
,
00100000
00000000
00000000
10000000
00000000
00000000
00100000
00000000
01000000
00000000
00000000
00010000
00000000
00000000
01000000
00000000
,
00010000
00100000
00001000
00010000
00000100
00001000
00000010
00000000
,
00000100
00000000
00000000
00000001
00000000
00000000
00000100
00000000
00000010
00000000
00000000
00001000
00000000
00000000
00000010
00000000
,
00001000
00000100
00010000
00001000
00100000
00010000
01000000
00000000
,
00100000
00000000
10010000
00000000
00000000
10000000
01000000
00010000
,
00001000
00000000
00000000
00000000
00011000
00000000
00000000
00010000
00000000
00000000
00000010
00000000
00001000
00000000
00000000
00000000
,
00000001
00001000
00000100
00000010
00000001
00000100
00001000
00020000
,
00002000
00000000
00000000
00033000
,
01000000
00000000
01000000
00000000
00100000
10000000
00100000
00000000
,
00000000
10100000
00000000
01100000
00000000
01001000
00000000
00011000
,
00010000
00000000
00000100
00000000
00001000
00000010
00001000
00000000
,
00000000
00000101
00000000
00000110
00000000
00010010
00000000
00011000
,
00001000
00000000
00010000
00000000
00100000
10000000
00100000
00000000
,
00010000
00000000
00001000
00000000
00000010
00000001
00000010
00000000
,
00001000
00000000
00010000
00000000
01000000
00000000
10000000
00000000
00010000
00100000
00010000
00100000
00001000
00010000
00001000
00010000
,
00001000
00010000
00022000
00033000
,
00001000
00000000
00010000
00000000
00000010
00000000
00001000
00000000
00000100
00000010
00000000
00000100
00000010
00000000
00000001
00000000
,
00000100
00000000
00000010
00000000
00010000
00000000
00001000
00000000
00100000
00001000
00000000
00100000
00001000
00000000
01000000
00000000
,
00010000
00000000
00100000
00000000
01000000
00000000
10000000
00000000
00100000
01000000
00000000
00100000
01000000
00000000
00010000
00000000
,
10000000
01000000
10000000
00000000
00010000
00000000
00100000
00001000
00100000
00000000
00001000
00000000
00011000
00000000
00000000
00000000
,
00001000
00000000
00010000
00000000
00000100
00000000
00001000
00000000
00000010
00000100
00000000
00000001
00000100
00000000
00000001
00000000
,
00000010
00000000
00001000
00000000
00010000
00000000
00000100
00000000
00010000
00001000
00000000
00010000
00001000
00000000
00100000
00000000
,
00010000
00000000
10000000
00000000
01000000
00000000
00100000
00000000
00010000
01000000
00000000
00100000
01000000
00000000
00010000
00000000
,
10000000
01000000
00100000
00000000
00010000
00000000
01000000
00001000
00010000
00000000
00001000
00000000
00011000
00000000
00000000
00000000
,
00010000
00000010
00010000
00000000
00000100
00000000
00001000
00000010
00000000
00000100
00000000
00000001
00000100
00000000
00000010
00000000
,
00001000
00000100
00001000
00000000
00000100
00000000
00010000
00001000
00000000
00010000
00000000
01000000
10000000
00000000
00010000
00000000
,
01000000
00100000
10000000
00000000
00010000
00000000
01000000
00001000
00000000
00010000
00000000
00001000
00000010
00000000
00000001
00000000
,
00000100
00000010
00000000
00000010
00001000
00000000
00001000
00000100
00000000
00000100
00010000
00000000
00011000
00000000
00000000
00000000
,
00001000
01000000
00010000
00000000
00100000
00000000
01000000
10000000
00000000
00100000
00000000
01000000
00010000
00000000
01000000
00000000
,
00010000
00100000
00001000
00000000
00010000
00000000
00000010
00001000
00000000
00000010
00000000
00000100
00000001
00000000
00000010
00000000
,
00000001
00000000
00000100
00000000
00001000
00000000
00010000
00000000
00100000
10000000
00100000
10000000
01000000
00100000
01000000
00100000
,
00010000
00001000
00010000
00000000
,
00022000
00000000
00000000
00000000
,
00000000
00000000
00000000
00000000
,
00000000
00000000
00000000
00000000
,
00000000
00000000
00000000
00000000
,
00033000
00000000
00000000
00000000
,
00000000
00000000
00000000
00000000
;
