#TITLE:PUT YOUR FAITH IN ME;
#SUBTITLE:(for beatmania II);
#ARTIST:dj TAKA feat. UZI-LAY;
#BANNER:PUT YOUR FAITH IN ME (for beatmania II)-bn.png;
#BACKGROUND:PUT YOUR FAITH IN ME (for beatmania II)-bg.png;
#JACKET:PUT YOUR FAITH IN ME (for beatmania II)-jacket.png;
#MUSIC:PUT YOUR FAITH IN ME (for beatmania II).ogg;
#OFFSET:1.654;
#SAMPLESTART:30.472;
#SAMPLELENGTH:20;
#LASTBEATHINT:1.367;
#DISPLAYBPM:127;
#BPMS:0=127;
#BGCHANGES:;

//---------------dance-single - ----------------
#NOTES:
     dance-single:
     :
     Beginner:
     4:
     :
0000
0000
0000
0000
,
0000
0000
0000
0000
,
0000
0000
0000
0000
,
0000
0000
0000
0000
,
1000
1000
1000
1000
,
1000
0000
0001
0000
,
0100
0000
0010
0000
,
1000
0000
0001
0000
,
0100
0000
0110
0000
,
1001
0000
0010
0000
,
1000
1000
1000
0000
,
0100
0000
0010
0000
,
0001
0001
0001
0000
,
0100
0000
0010
0000
,
0100
0100
0100
0000
,
0010
0000
1000
0000
,
0001
0001
0001
0000
,
1001
0000
0010
0000
,
1000
0000
0100
0000
,
0010
0010
0010
0000
,
0001
0001
0001
0001
,
0001
0000
0100
0000
,
0010
0000
1000
0000
,
0110
0000
1000
0000
,
0001
0000
0100
0100
,
0100
0000
0010
0000
,
1000
0000
0001
0000
,
0010
0000
0001
0000
,
0100
0000
0010
0000
,
1001
0000
0001
0000
,
0010
0010
0010
0000
,
0001
0001
0001
0000
,
0110
0000
1000
1000
,
0000
1001
0000
0000
,
0010
0000
0110
0000
,
0001
0001
0001
0001
,
0001
0000
1000
1000
,
1000
1000
1000
0000
,
0000
0000
0010
0010
,
0010
0000
0100
0000
,
0001
0001
0001
0000
,
1001
0000
0010
0000
,
1000
0000
0100
0000
,
1000
1000
1000
0000
,
0001
0001
0001
0000
,
1001
0000
0010
0000
,
1000
0001
1000
0000
,
0010
0100
0010
0000
,
1000
0000
0001
0100
,
0000
0110
0000
1000
,
0001
0100
0010
0000
,
1000
0100
1000
0000
,
0110
0000
0000
0000
,
0001
1000
0001
1000
,
0000
0000
0010
0100
,
0001
0000
0000
0000
,
1000
0000
0001
0000
,
0100
0010
0000
1000
,
0000
0001
0000
0100
;

//---------------dance-single - ----------------
#NOTES:
     dance-single:
     :
     Easy:
     8:
     :
0000
0000
0000
0000
,
0000
0000
0000
0000
,
0000
0000
0000
0000
,
0000
0000
0000
0000
,
1000
0001
1000
0001
,
1001
0100
0001
0010
,
0001
0000
0100
0000
0000
0001
1000
0000
,
0000
0010
1000
0100
,
1000
0001
0110
0110
,
1001
0000
0100
0000
0010
0000
0001
0100
,
0010
0000
1000
0000
0100
0000
1000
0001
,
0100
0000
0010
0000
1000
0001
0000
0100
,
0010
1000
0010
1000
0010
0000
0110
0000
,
0001
0000
1001
0000
0100
0000
0010
1000
,
0001
0000
0010
0000
0001
0000
0100
0010
,
1000
0000
0001
0000
0010
0100
0000
1000
,
0010
1000
0010
1000
0010
0000
0110
0000
,
1001
0001
0010
0100
,
1000
0000
0010
0000
1000
0000
0001
0100
,
0010
1000
0001
0100
,
0010
1000
0010
1000
0010
1000
0010
1000
,
0001
0010
0001
0100
,
1000
0000
0010
0000
0100
0000
0001
1000
,
0001
0000
0011
1100
,
1000
0000
0000
0000
0010
0100
0010
0100
,
0010
1000
0100
0001
,
0011
0100
0010
1000
,
1100
0010
1000
0001
,
0000
1000
0001
0000
1000
0001
0000
1000
,
0001
0100
0010
1000
,
0100
0000
0010
0000
0100
1000
0001
0000
,
0010
0000
0100
0000
0010
0001
1000
0000
,
0110
0000
0000
0000
0001
1000
0001
1000
,
0001
1001
0010
0100
,
0000
0001
0010
0100
1000
0000
0000
0000
,
0010
0000
1000
0001
0100
0000
0110
0000
,
1000
0001
0000
0000
0010
0000
0100
0000
,
1000
0010
1000
0001
,
0010
0100
1000
0010
,
0100
0001
0010
0100
,
1000
0000
0001
0000
1000
0010
0000
0100
,
0010
0110
0001
0010
,
0001
0100
1000
0010
,
1000
0001
0100
0010
,
1000
0000
0100
1000
0001
0000
0100
0010
,
1000
0000
0001
0000
0100
0000
0010
1000
,
0100
0000
1000
0000
0001
0000
0010
0001
,
0100
0000
0010
0000
1000
0001
0000
1000
,
0200
0000
0320
0000
0032
0000
1003
0010
,
1000
0000
1001
0000
0110
0000
0001
0010
,
0100
0000
1000
0000
0020
0000
1030
0001
,
0100
0000
0010
0000
1000
0001
0000
1000
,
0100
0000
0010
0000
0001
1000
0001
0000
,
0010
0011
0001
1000
,
0100
1100
0010
0100
,
0001
1001
0010
1000
,
0100
0110
0001
0010
,
0001
0011
1000
1100
,
0010
0000
1001
0000
0001
0100
0001
1000
,
0000
0110
0000
0000
0000
0000
0000
0000
,
2000
0001
0200
0000
,
3300
0000
0000
0000
;

//---------------dance-single - ----------------
#NOTES:
     dance-single:
     :
     Medium:
     11:
     :
0000
0000
0000
0000
,
0000
0000
0000
0000
,
0000
0000
0000
0000
,
0000
0000
0000
0000
,
1001
0110
1001
0110
,
1001
0020
0000
0000
2030
0000
0000
3002
,
0000
0000
0203
0000
0000
0301
1000
0000
,
0000
0002
0000
0000
2003
0000
0000
3010
,
1000
0001
0100
0000
0110
0000
0110
0000
,
1001
0000
0020
0000
2030
0000
3100
0010
,
0001
0100
0010
0100
0001
0100
0010
0100
,
0001
0010
0100
1000
0010
0100
0000
0001
,
1000
1010
1000
1010
1000
0010
0100
0001
,
0010
1001
0200
0000
0302
0000
0013
0100
,
1000
0000
0010
0000
1000
0000
0001
0000
0100
0000
0000
0010
0000
0000
1000
0000
,
0001
0100
0010
0100
0001
1000
0000
0010
,
1000
1010
1000
1010
1000
0100
0010
0001
,
1001
0010
0001
0100
0010
1000
0001
0000
,
1000
0100
0010
0001
0100
0010
1000
0110
,
1001
0010
0100
0001
0010
0100
1000
0000
,
0001
0101
0001
0101
1000
0010
0100
0001
,
1001
0100
0010
1000
0100
0010
0001
0000
,
1000
0010
1000
0001
0010
0100
1000
0110
,
1001
0000
0100
0000
0000
0000
0001
0000
0010
0000
0000
0100
0000
0000
1000
0000
,
0110
0000
0000
0001
1000
1000
0001
0001
,
1001
0000
0001
0010
0100
0000
1000
0010
,
1000
0000
0000
0001
0000
0000
0100
0000
0010
0000
0000
1000
0000
0000
0001
0000
,
1001
0000
1000
0100
0010
0000
0001
1000
,
0010
0200
0302
2003
3200
2300
3002
0103
,
1001
0010
1000
0001
0010
0100
1000
0000
,
0010
1000
0100
0010
0001
0100
0001
1000
,
0010
1000
0100
0010
0001
1000
0001
0100
,
0101
0000
0000
0010
1000
1000
0001
0001
,
0100
0010
1001
0010
1000
0001
0100
0000
,
0001
0010
1000
0100
1100
0000
0000
0000
,
0001
0010
1000
0010
0001
0100
0010
0000
,
0110
1001
0000
0010
1000
0100
0010
0001
,
0100
0001
0010
0001
0100
0000
0010
0000
,
1000
0000
0001
0000
1000
0010
1000
0100
,
0010
0000
0001
0000
0100
0000
0001
1000
,
0010
0000
1000
0000
0100
0000
0010
0000
0001
0000
1001
0000
0000
0101
0000
0000
,
0011
0100
0000
1000
0010
0000
1000
0001
,
0000
1000
0010
0000
0100
0001
0010
0100
,
1000
0000
0001
0000
1000
0100
0010
0000
,
0001
0101
0001
0101
0001
0101
0100
0010
,
1001
0000
2000
0000
3200
0000
0310
0001
,
0100
0010
1000
0010
0100
0010
1000
0010
,
0100
0001
0010
0100
1000
0001
0000
0100
,
0010
0000
2000
0000
3002
0000
0013
0100
,
1000
0001
0110
0000
1001
0000
0010
0100
,
0001
0000
0010
0000
0001
0000
0100
0000
1000
0000
0000
0010
0000
0000
0100
0000
,
0001
0010
0001
1000
0100
0010
0000
0001
,
1000
0000
1010
0000
0001
0100
0010
1000
,
0001
0000
0011
0000
0001
1000
0100
0010
,
0100
0000
0110
0000
0010
0001
1000
0010
,
0000
0100
0001
0000
0010
0001
1000
0000
,
0100
0000
1000
0000
0000
0001
0000
0000
1000
0000
0000
0001
0000
0000
1000
0000
,
0010
0100
0001
0100
0000
0010
1000
0001
,
0000
1000
0100
0010
0001
0010
0100
1000
,
0000
0110
0000
0000
1001
0000
0000
0010
,
1000
0001
0020
0200
0000
0000
0000
0000
,
0330
0000
0000
0000
;

//---------------dance-single - ----------------
#NOTES:
     dance-single:
     :
     Hard:
     13:
     :
0000
0000
0000
0000
,
0000
0000
0000
0000
,
0000
0000
0000
0000
,
0000
0000
0000
0000
,
1100
0101
1100
0101
,
1001
0010
0000
1000
0100
0000
1000
0010
,
0000
1000
0100
0000
0010
0001
1000
0001
,
0010
0001
0000
0100
0001
0000
0010
0001
,
0100
0100
0100
0000
0110
0000
0110
0000
,
1001
0000
0000
0000
0010
0000
0000
1000
0100
0000
0000
0000
0010
0001
0000
0001
,
0100
0010
0100
1000
0100
0001
0100
0010
,
1000
0100
0000
1000
0100
0000
0010
0000
0001
0000
0100
0000
0000
0010
0000
0100
,
0001
0100
0001
0100
0001
0100
0001
0100
0001
0000
0000
0000
0010
0000
0100
0000
,
1000
0000
0010
0000
0001
0000
0000
0100
0010
0000
0000
0000
0100
0001
0000
1000
,
0100
0000
0010
0000
0001
0000
1000
0020
0000
0000
0000
0230
0000
0000
0001
0000
,
0301
0000
0010
0000
0100
0000
1000
0000
0010
0000
0100
0000
0000
0001
0000
1000
,
0100
1000
0100
1000
0100
1000
0100
1000
0100
0000
0000
0000
1000
0001
1000
0000
,
1001
0000
0010
0000
0100
0000
0001
0000
0010
0001
0000
0101
0000
0101
0000
0000
,
0010
0000
1000
0100
0000
1000
0100
0000
0010
0000
0001
1000
0000
0001
0100
0000
,
1001
0000
0010
0000
1000
0000
0001
0000
1000
0100
0000
0011
0000
0011
0000
0000
,
0100
0001
0100
0001
0100
0001
0000
1000
0000
0010
0000
1000
0000
1000
0000
0000
,
0110
0000
0100
0000
0001
0000
0010
0000
0001
0000
1000
0100
0000
1100
0000
0000
,
0010
1000
0010
0000
0100
0000
0001
0000
0010
0000
0001
0100
0001
0000
0110
0000
,
1001
0000
0100
0000
0000
0000
0010
1000
0010
0000
0100
0000
0001
0000
1000
0100
,
1000
0000
0000
0000
0000
0000
0010
0100
0020
0000
2030
0000
3002
0000
0203
0000
,
0310
0000
0100
0101
0101
0010
1000
1100
,
1100
0000
0000
1000
0001
0000
0011
0000
0011
0000
0001
0100
0001
0000
0000
0000
,
1010
0000
0010
0000
0100
0000
0101
0000
0101
0000
0001
0000
1000
0000
0100
0010
,
0100
0000
1000
0010
1000
0010
1000
0000
0010
1000
0010
1000
0010
0000
0100
0000
,
0110
0000
0001
0000
0100
0000
0010
0000
1000
0001
1000
0000
0100
0000
0010
0000
,
0001
0000
0100
0010
0100
0000
0001
0000
1000
0000
0100
0000
0010
0001
0010
0000
,
0100
0000
1000
0000
0010
0000
0100
0000
0001
1000
0001
0000
0100
0010
0100
0000
,
0101
0000
0000
0000
0000
0000
1000
0001
2000
0000
3200
0000
0320
0000
0032
0000
,
0103
0000
1010
0000
1001
0000
0010
0100
0010
0000
1000
0000
0001
0000
0000
0000
,
1000
0100
1000
0100
1000
0000
0001
0010
0001
0000
0200
0000
0000
0320
0000
0000
,
1030
0010
1000
0000
0100
0000
0010
0000
0001
0100
0001
0000
0010
0000
0000
0000
,
0011
1100
0000
0002
0203
0320
2030
3002
,
1003
0000
0100
0000
0010
0001
0010
0002
0000
0000
0000
0000
0000
0000
0000
0000
,
0000
0000
0000
0000
0103
0010
1000
0001
,
0011
0000
0000
0110
0000
0000
2200
0000
0000
0000
0000
0000
0300
0000
3001
0100
,
0001
0000
0010
0000
1000
0000
0010
0000
0001
0000
0101
0000
0000
1100
0000
0000
,
0101
0000
0010
2000
0000
0000
3100
0000
0010
0002
0000
0000
0103
0000
0010
2000
,
0000
0000
3001
0000
1000
0200
0000
0000
1300
0000
0010
0000
0100
0001
0100
0001
,
0100
0000
0000
0110
0000
0000
2002
0000
0000
0000
0000
0000
3000
0000
0000
0000
,
1003
0000
0000
0000
0001
0000
0000
0000
1000
0000
0000
0000
0001
0000
0000
0000
1000
0000
0000
0000
0001
0000
0000
0000
1000
0000
0000
0001
0000
0000
1000
0000
0000
0001
0000
0000
1000
0000
0000
0000
0000
0000
0001
0000
0000
0000
0000
0000
,
1001
0000
0000
0000
0010
0000
1000
0001
0100
0000
0000
0000
0010
1000
0000
0001
,
0100
1000
0100
0010
0100
1000
0100
0001
,
0010
0100
0000
0010
0001
0000
1000
0000
0100
0000
0010
0000
0000
0001
0000
1000
,
0000
0010
0001
0010
0100
0010
1000
0010
,
0110
0000
0110
0000
1001
0000
0000
0001
0100
0000
0000
0000
0010
1000
0000
1000
,
0100
0000
0001
0000
0100
0000
1000
0002
0000
0000
0000
2003
0000
0000
0010
0000
,
3010
0000
0100
0000
0001
0000
1000
0000
0100
0000
0010
0000
0000
0001
0000
1000
,
0020
0000
0000
0230
0000
0000
0302
0000
1000
0000
1003
0000
0001
0100
0001
0000
,
1000
0000
0010
0000
0001
0000
0010
0000
0100
0000
0010
0000
0001
0010
2000
0000
,
0000
0000
0000
0000
0000
0000
3100
0010
0000
0011
0000
0011
0000
0000
0002
0000
,
0000
2003
0000
0000
0010
0000
0000
0000
0000
0000
0000
0000
0010
0000
0000
0000
,
0000
0000
3020
0000
0000
0230
0000
0000
0302
0000
0000
2003
0000
0000
3200
0000
,
1300
0000
0010
0000
0100
0000
0002
0000
0000
0000
0013
0000
0001
1000
0000
0000
,
0000
0000
0010
0000
1000
0000
0100
0000
0010
0001
0010
0001
0010
0000
0100
0000
,
0000
0000
0110
0000
0000
0001
0000
0000
1000
0000
0000
0001
0000
0000
0100
0000
,
0020
2030
3002
0203
0000
0000
0000
0000
,
0300
0000
0000
0000
;

//---------------dance-single - ----------------
#NOTES:
     dance-single:
     :
     Challenge:
     15:
     :
0000
0000
0000
0000
,
0000
0000
0000
0000
,
0000
0000
0000
0000
,
0000
0000
0000
0000
,
1100
0101
1100
0101
,
1001
0010
0000
1000
0100
0000
1000
0010
,
0000
0000
1000
0000
0100
0000
0000
0010
0001
0000
0100
0000
0010
0000
1000
0000
,
0100
0000
0010
0000
0000
0000
0001
0000
0100
0000
0000
0000
0001
0000
0010
0100
,
1000
0001
0100
0000
0110
0000
0110
0000
,
1001
0000
0000
0000
0010
0000
1000
0001
0100
0000
0000
0000
0010
1000
0000
0001
,
0100
0000
0010
0000
0100
0000
1000
0000
0100
0001
0100
0000
0010
0000
1000
0000
,
0100
0010
0000
0010
0001
0000
0100
0000
0001
0000
1000
0000
0000
0010
1000
0100
,
1000
0000
0001
0100
0001
0000
1000
0100
1000
0000
0000
0000
0001
0000
0100
0010
,
1000
0000
0001
0000
0010
0000
0001
0100
0010
0000
0000
0000
1000
0100
0000
1000
,
0001
0000
0100
0000
0010
0000
1000
0001
0200
0000
0000
0302
0000
0000
1000
0000
,
1003
0010
0100
0010
1000
0000
0001
0000
0010
0000
0100
0000
0000
1000
0001
0100
,
0001
0000
1000
0010
1000
0000
0001
0010
0001
0000
0100
0000
0010
1000
0001
0000
,
1000
0100
0010
0000
0011
0000
0011
0000
0001
0100
0000
1010
0000
1010
0000
0000
,
1000
0100
0010
0001
0000
0001
0010
0100
1000
0000
0010
0100
0000
0001
1000
0000
,
1000
0010
0000
0110
0000
0110
0000
0100
0001
0010
0000
0110
0000
0110
0000
1000
,
0010
0100
0001
0100
0010
1000
0000
1100
0000
0011
0000
1100
0000
0011
0000
0100
,
0010
0000
1000
0001
0000
0010
0001
0100
0000
0010
1000
0100
0000
1010
0000
0000
,
0001
0010
0001
1000
0000
1010
0000
1010
0000
0010
0100
0001
0000
1000
0100
0000
,
0100
0010
0001
0000
0000
0000
0100
0010
1000
0000
0001
0100
0000
0010
1000
0001
,
0010
0000
0000
0000
0000
0000
0001
0100
0001
0000
0010
0100
1000
0010
0100
0000
,
0101
1010
0001
0100
1001
0010
1000
0100
,
1000
0010
0100
0010
1000
0000
0101
0000
0101
0000
0010
0001
0100
0000
0000
0010
,
1000
0000
0001
0000
0100
0000
1010
0000
1010
0000
0100
0000
0001
0000
1000
0010
,
1000
0000
0001
0100
1000
0100
0001
0000
0001
0100
1000
0100
0001
0000
1000
0000
,
0110
0000
0001
1000
0000
0000
0010
0100
0001
0100
0010
0000
1000
0001
0100
0000
,
0101
0000
0010
1000
0100
0010
1000
0010
0001
0000
0100
0000
0001
1000
0010
0000
,
1000
0100
0010
0100
1000
0000
0001
0010
0001
0100
0010
0000
1000
0100
0010
0000
,
0011
0000
0100
0000
0010
0000
1000
0001
1000
0100
0010
0001
0010
0100
1000
0000
,
1001
0000
1010
0000
1100
0000
0001
0010
0001
0000
1000
0100
1000
0000
0000
0000
,
0010
1000
0100
0010
0001
0000
1000
0001
0010
0000
0100
0000
1000
0001
0000
1000
,
0010
0100
0001
1000
0000
0101
0000
0101
0000
0010
0100
0000
0110
0000
0000
0001
,
1000
0000
1010
0000
0010
0000
0100
0000
0001
0010
0100
1000
0100
0010
0001
1000
,
0010
0100
0010
1000
0001
0010
0200
2000
0000
0000
0000
0000
0300
0000
0000
0000
,
3010
0100
0000
0000
0100
0000
0001
0000
0020
0000
0032
0000
2003
0000
3002
0000
,
0203
0000
0000
0320
0000
0000
2030
0000
0000
0000
0000
0000
0000
0000
3001
0100
,
0001
0010
0100
0010
0001
0100
0010
0100
0001
0000
1001
0000
0000
0101
0000
0000
,
0011
0000
1000
0002
0000
0000
0013
0100
1000
0020
0000
0000
0130
0001
1000
0200
,
0000
0000
1300
0010
1000
0002
0000
0000
0013
0001
0010
0100
1000
0001
1000
0100
,
0020
0000
0000
0032
0000
0000
2003
0000
0000
0000
0010
0000
0001
0000
0100
0000
,
3100
0000
1000
0001
1000
0001
1000
0001
1000
0001
1000
0001
0100
0000
0100
0000
,
1001
0000
0000
0000
0001
0000
0010
0100
1000
0000
0000
0000
0010
0100
0000
0001
,
1000
0010
0001
0010
0100
1000
0100
0001
,
0010
0001
0010
0100
1000
0000
0001
0000
0101
0000
1100
0000
1000
0010
0100
0001
,
0010
0000
0100
0000
1000
0000
0010
0000
0001
0000
0010
0000
1000
0100
0010
0100
,
0010
0001
1000
0000
1010
0000
0001
0100
1000
0000
0010
0000
0100
0001
0010
0100
,
1000
0000
0010
0000
0100
0000
0010
1000
0002
0000
0000
0203
0000
0000
0010
0000
,
0310
1000
0100
1000
0001
0000
0010
0000
0011
0000
1100
0000
0010
0100
0001
1000
,
0100
0000
0010
0000
0001
0000
0100
0000
0010
0000
1000
0000
0001
0100
0001
0100
,
0010
1000
0010
0100
0001
0100
0010
1000
0010
0100
0001
0100
0010
1000
0010
0000
,
0100
0001
0000
0000
0001
0000
0010
0100
0000
1100
0000
1100
0000
0000
1001
0000
,
0000
1010
0000
0000
0001
0000
0100
0000
0100
0010
1000
0010
1000
0000
0000
0000
,
0001
0000
0011
0000
0000
0110
0000
0000
1100
0000
0000
0110
0000
0000
0011
0000
,
1000
0010
0100
0001
0000
0202
0000
0000
0300
0000
1003
0100
0010
0001
0000
0000
,
0000
0000
0100
0001
0010
0001
0010
0100
1000
0010
1000
0100
1000
0000
0001
0000
,
0000
0000
0110
0000
0000
0001
0000
0000
1000
0000
0000
0001
0000
0000
0100
0000
,
0010
0000
1000
0000
0010
0100
0002
0200
0000
0000
0000
0000
0000
0000
0000
0000
,
0303
0000
0000
0000
;
